Subcategories

Tete Montoliu Trio - Catalonian Nights Vol. 1-3 (1980) [3CD] {Steeplechase} [repost]

Posted By: Hungry Mind
Tete Montoliu Trio - Catalonian Nights Vol. 1-3 (1980) [3CD] {Steeplechase} [repost]

Tete Montoliu Trio - Catalonian Nights Vol. 1-3 (1980) [3CD] {Steeplechase}
EAC Rip | FLAC (tracks+.cue+log) - 1,08 GB | Scans PNG - 44 MB | MP3 CBR 320 kbps (LAME 3.98) - 463 MB
Genre: jazz, piano jazz | RAR 5% Rec. | Label: Steeplechase | 1994, 1998, 2006

An outstanding veteran pianist from Spain, Tete Montoliu was born blind. He learned to read music in Braille when he was seven and developed impressive technique on piano. He recorded with Lionel Hampton in 1956, had his first session as a leader in 1958, and played with the touring Roland Kirk in 1963. Through the years, he also worked with such visiting Americans as Kenny Dorham, Dexter Gordon, Ben Webster, Lucky Thompson, and even Anthony Braxton. Tete Montoliu's visits to the U.S. were very infrequent, but his SteepleChase albums (starting in 1971) are generally available; he also cut one date for Contemporary (1979) and recorded for Enja and Soul Note.
Tete Montoliu Trio - Catalonian Nights Vol. 1-3 (1980) [3CD] {Steeplechase} [repost]

Tete Montoliu Trio - Catalonian Nights Vol. 1 (1980)
EAC Rip | FLAC (tracks+.cue+log) - 292 MB | Scans PNG - 12 MB | MP3 CBR 320 kbps (LAME 3.98) - 132 MB
Genre: jazz, piano jazz | RAR 5% Rec. | Label: Steeplechase #SCCD31148 | 2006

In 1980, bassist John Heard and drummer Albert "Tootie" Heath traveled to Barcelona, Spain to perform and record with the masterful Spanish jazz pianist Tete Montoliu. This live set has fairly long versions of Milt Jackson's basic "D&E," "Ladybird," "Autumn In New York" and "Blue Bossa." Although not an innovator, Montoliu (like Oscar Peterson, whose phenomenal technique he approached) was a master of the modern mainstream and of chordal improvisation. He digs into these songs and comes up with consistently fresh and swinging ideas.
Tete Montoliu Trio - Catalonian Nights Vol. 1-3 (1980) [3CD] {Steeplechase} [repost]

ARTISTS
Piano – Tete Montoliu
Bass – John Heard
Drums – Albert Heath

TRACKLIST
01. D & E
02. Ladybird
03. Jo vull que m’acariciis
04. Autum in New York
05. Blue Bossa
06. Theme

EAC extraction logfile from 30. June 2007, 5:48 for CD
Tete Montoliu Trio / Catalonian Nights Vol 1

Used drive : PLEXTOR CD-R PX-230A Adapter: 1 ID: 0
Read mode : Secure with NO C2, accurate stream, disable cache
Read offset correction : 738
Overread into Lead-In and Lead-Out : No

Used output format : C:\Program Files\EAC\flac.exe (User Defined Encoder)
320 kBit/s
Additional command line options : -8 -V -T "artist=%a" -T "title=%t" -T "album=%g" -T "date=%y" -T "tracknumber=%n" -T "genre=%m" -T "comment=eac Flac 1.1.4 -8" %s

Other options :
Fill up missing offset samples with silence : Yes
Delete leading and trailing silent blocks : No
Installed external ASPI interface


Track 1
Filename D:\Fiamma\Tete Montoliu Trio - Catalonian Nights Vol 1 (1989) [FLAC]\01 - D & E.wav

Pre-gap length 0:00:02.42

Peak level 96.7 %
Track quality 99.9 %
Test CRC D0C65DBE
Copy CRC D0C65DBE
Copy OK

Track 2
Filename D:\Fiamma\Tete Montoliu Trio - Catalonian Nights Vol 1 (1989) [FLAC]\02 - Ladybird.wav

Pre-gap length 0:00:00.04

Peak level 88.9 %
Track quality 99.9 %
Test CRC AD83483A
Copy CRC AD83483A
Copy OK

Track 3
Filename D:\Fiamma\Tete Montoliu Trio - Catalonian Nights Vol 1 (1989) [FLAC]\03 - Jo vull que m'acariciis.wav

Pre-gap length 0:00:00.04

Peak level 58.3 %
Track quality 100.0 %
Test CRC A0384025
Copy CRC A0384025
Copy OK

Track 4
Filename D:\Fiamma\Tete Montoliu Trio - Catalonian Nights Vol 1 (1989) [FLAC]\04 - Autum in New York.wav

Pre-gap length 0:00:00.02

Peak level 73.3 %
Track quality 100.0 %
Test CRC 70CB8518
Copy CRC 70CB8518
Copy OK

Track 5
Filename D:\Fiamma\Tete Montoliu Trio - Catalonian Nights Vol 1 (1989) [FLAC]\05 - Blue Bossa.wav

Pre-gap length 0:00:00.04

Peak level 100.0 %
Track quality 100.0 %
Test CRC 177FC2AB
Copy CRC 177FC2AB
Copy OK

Track 6
Filename D:\Fiamma\Tete Montoliu Trio - Catalonian Nights Vol 1 (1989) [FLAC]\06 - Theme.wav

Pre-gap length 0:00:00.04

Peak level 96.2 %
Track quality 100.0 %
Test CRC C1B797BE
Copy CRC C1B797BE
Copy OK

No errors occured


End of status report


Tete Montoliu Trio - Catalonian Nights Vol. 1-3 (1980) [3CD] {Steeplechase} [repost]


––––––––––––––––––-

Tete Montoliu Trio - Catalonian Nights Vol. 1-3 (1980) [3CD] {Steeplechase} [repost]

Tete Montoliu Trio - Catalonian Nights Vol. 2 (1980)
EAC Rip | FLAC (tracks+.cue+log) - 402 MB | Scans PNG - 12 MB | MP3 CBR 320 kbps (LAME 3.98) - 159 MB
Genre: jazz, piano jazz | RAR 5% Rec. | Label: Steeplechase #SCCD31241 | 1994

In addition to being blind from birth, Tete Montoliu had lost the hearing in one ear and was losing it in the other. From the music he makes you would not know he was disabled in any way. This is a masterful pianist and deserves a place in every jazz collection.
Tete Montoliu Trio - Catalonian Nights Vol. 1-3 (1980) [3CD] {Steeplechase} [repost]


ARTISTS
Piano – Tete Montoliu
Bass – John Heard
Drums – Albert Heath

TRACKLIST
01. I Remember April
02. El meu carrer
03. A Child is Born
04. Tune Up
05. Willow Weep for Me
06. Steeplechase
07. My Old Flame
08. Doxy

EAC extraction logfile from 30. June 2007, 20:27 for CD
Tete Montoliu Trio / Catalonian Nights Vol 2

Used drive : PLEXTOR CD-R PX-230A Adapter: 1 ID: 0
Read mode : Secure with NO C2, accurate stream, disable cache
Read offset correction : 738
Overread into Lead-In and Lead-Out : No

Used output format : C:\Program Files\EAC\flac.exe (User Defined Encoder)
320 kBit/s
Additional command line options : -8 -V -T "artist=%a" -T "title=%t" -T "album=%g" -T "date=%y" -T "tracknumber=%n" -T "genre=%m" -T "comment=eac Flac 1.1.4 -8" %s

Other options :
Fill up missing offset samples with silence : Yes
Delete leading and trailing silent blocks : No
Installed external ASPI interface


Track 1
Filename D:\Fiamma\Tete Montoliu Trio - Catalonian Nights Vol 2 (1989) [FLAC]\01 - I Remember April.wav

Pre-gap length 0:00:02.42

Peak level 100.0 %
Track quality 100.0 %
Test CRC 06C40096
Copy CRC 06C40096
Copy OK

Track 2
Filename D:\Fiamma\Tete Montoliu Trio - Catalonian Nights Vol 2 (1989) [FLAC]\02 - El meu carrer.wav

Pre-gap length 0:00:00.04

Peak level 58.1 %
Track quality 100.0 %
Test CRC D0CEDFF8
Copy CRC D0CEDFF8
Copy OK

Track 3
Filename D:\Fiamma\Tete Montoliu Trio - Catalonian Nights Vol 2 (1989) [FLAC]\03 - A Child is Born.wav

Pre-gap length 0:00:00.02

Peak level 49.5 %
Track quality 100.0 %
Test CRC F0E3FF18
Copy CRC F0E3FF18
Copy OK

Track 4
Filename D:\Fiamma\Tete Montoliu Trio - Catalonian Nights Vol 2 (1989) [FLAC]\04 - Tune Up.wav

Pre-gap length 0:00:00.02

Peak level 100.0 %
Track quality 99.9 %
Test CRC B682E44F
Copy CRC B682E44F
Copy OK

Track 5
Filename D:\Fiamma\Tete Montoliu Trio - Catalonian Nights Vol 2 (1989) [FLAC]\05 - Willow Weep for Me.wav

Pre-gap length 0:00:00.04

Peak level 100.0 %
Track quality 100.0 %
Test CRC 39F1A8C8
Copy CRC 39F1A8C8
Copy OK

Track 6
Filename D:\Fiamma\Tete Montoliu Trio - Catalonian Nights Vol 2 (1989) [FLAC]\06 - Steeplechase.wav

Pre-gap length 0:00:00.02

Peak level 100.0 %
Track quality 100.0 %
Test CRC 505112F1
Copy CRC 505112F1
Copy OK

Track 7
Filename D:\Fiamma\Tete Montoliu Trio - Catalonian Nights Vol 2 (1989) [FLAC]\07 - My Old Flame.wav

Pre-gap length 0:00:00.04

Peak level 81.8 %
Track quality 100.0 %
Test CRC 8C302AF7
Copy CRC 8C302AF7
Copy OK

Track 8
Filename D:\Fiamma\Tete Montoliu Trio - Catalonian Nights Vol 2 (1989) [FLAC]\08 - Doxy.wav

Pre-gap length 0:00:00.02

Peak level 98.2 %
Track quality 100.0 %
Test CRC 91D4EE9C
Copy CRC 91D4EE9C
Copy OK

No errors occured


End of status report


Tete Montoliu Trio - Catalonian Nights Vol. 1-3 (1980) [3CD] {Steeplechase} [repost]


––––––––––––––––––

Tete Montoliu Trio - Catalonian Nights Vol. 1-3 (1980) 			  		   	  			     	 			   		  	   		  		  		  	   	 			   		   	  		  	   		 	 	  	 			   		  	   			  				 [3CD] {Steeplechase} [repost]

Tete Montoliu Trio - Catalonian Nights Vol. 3 (1980)
EAC Rip | FLAC (tracks+.cue+log) - 411 MB | Scans PNG - 21 MB | MP3 CBR 320 kbps (LAME 3.98) - 171 MB
Genre: jazz, piano jazz | RAR 5% Rec. | Label: Steeplechase #SCCD31433 | 1998

The trio played at the Zeleste Club in Barcelona on the nights of May 31, 1980. Volume 3 completes the set.
Tete Montoliu Trio - Catalonian Nights Vol. 1-3 (1980) [3CD] {Steeplechase} [repost]

ARTISTS
Piano – Tete Montoliu
Bass – John Heard
Drums – Albert Heath

TRACKLIST
01. Easy Living
02. No Greater Love
03. Jo Vull Que M’acariciis
04. Scrapple from the Apple
05. When Lights Are Low
06. We’ll Be Together Again
07. Joy Spring
08. Bag’s Groove

EAC extraction logfile from 30. June 2007, 21:25 for CD
Tete Montoliu Trio / Catalonian Nights Vol.3

Used drive : PLEXTOR CD-R PX-230A Adapter: 1 ID: 0
Read mode : Secure with NO C2, accurate stream, disable cache
Read offset correction : 738
Overread into Lead-In and Lead-Out : No

Used output format : C:\Program Files\EAC\flac.exe (User Defined Encoder)
320 kBit/s
Additional command line options : -8 -V -T "artist=%a" -T "title=%t" -T "album=%g" -T "date=%y" -T "tracknumber=%n" -T "genre=%m" -T "comment=eac Flac 1.1.4 -8" %s

Other options :
Fill up missing offset samples with silence : Yes
Delete leading and trailing silent blocks : No
Installed external ASPI interface


Track 1
Filename D:\Fiamma\Tete Montoliu Trio - Catalonian Nights Vol 3 (1998) {FLAC]\01 - Easy Living.wav

Pre-gap length 0:00:02.00

Peak level 94.4 %
Track quality 100.0 %
Test CRC 7D6E1667
Copy CRC 7D6E1667
Copy OK

Track 2
Filename D:\Fiamma\Tete Montoliu Trio - Catalonian Nights Vol 3 (1998) {FLAC]\02 - No Greater Love.wav

Peak level 91.7 %
Track quality 100.0 %
Test CRC BBC2829A
Copy CRC BBC2829A
Copy OK

Track 3
Filename D:\Fiamma\Tete Montoliu Trio - Catalonian Nights Vol 3 (1998) {FLAC]\03 - Jo Vull Que M'acariciis.wav

Peak level 94.9 %
Track quality 100.0 %
Test CRC AFF8271A
Copy CRC AFF8271A
Copy OK

Track 4
Filename D:\Fiamma\Tete Montoliu Trio - Catalonian Nights Vol 3 (1998) {FLAC]\04 - Scrapple from the Apple.wav

Peak level 94.7 %
Track quality 100.0 %
Test CRC 19567917
Copy CRC 19567917
Copy OK

Track 5
Filename D:\Fiamma\Tete Montoliu Trio - Catalonian Nights Vol 3 (1998) {FLAC]\05 - When Lights Are Low.wav

Peak level 81.4 %
Track quality 100.0 %
Test CRC D7C1DCA6
Copy CRC D7C1DCA6
Copy OK

Track 6
Filename D:\Fiamma\Tete Montoliu Trio - Catalonian Nights Vol 3 (1998) {FLAC]\06 - We'll Be Together Again.wav

Peak level 79.2 %
Track quality 100.0 %
Test CRC 44E85939
Copy CRC 44E85939
Copy OK

Track 7
Filename D:\Fiamma\Tete Montoliu Trio - Catalonian Nights Vol 3 (1998) {FLAC]\07 - Joy Spring.wav

Peak level 86.6 %
Track quality 100.0 %
Test CRC CDEED394
Copy CRC CDEED394
Copy OK

Track 8
Filename D:\Fiamma\Tete Montoliu Trio - Catalonian Nights Vol 3 (1998) {FLAC]\08 - Bag's Groove.wav

Peak level 99.2 %
Track quality 100.0 %
Test CRC 69E34B35
Copy CRC 69E34B35
Copy OK

No errors occured


End of status report


Tete Montoliu Trio - Catalonian Nights Vol. 1-3 (1980) [3CD] {Steeplechase} [repost]

Thanks to Fiamma!