Subcategories

The Savage Rose - Homeless (2017)

Posted By: Domestos
The Savage Rose - Homeless (2017)

The Savage Rose - Homeless (2017)
EAC Rip | FLAC (tracks+.cue, log) ~ 256.17 Mb | 42:55 | Cover
Rock | Country: Denmark | Label: Target Records - TARGET1707CD

The Danish Legend, The Savage Rose, alias Annisette & Thomas Koppel. Not only Bjork has mentioned The Savage Rose among her major influences; They are intensely loved throughout Europe and by their ten thousands of dedicated fans around the world.

Annisette’s name equals total integrity and honesty, absolutely unique stage performance and vocals, making her “one of ‘pop music’s most unique and powerful vocalists” (Archie Patterson, Eurock, USA).

Thomas Koppel’s name is synonymous with stone original composing and producing and enormous versatility: effortlessly moving from the mind-blowing songs of The Savage Rose to film music, symphonic works, musicals ballets and more.

As noted in Miller-Freeman’s US book ‘The Unknown Legends Of Rock’n'Roll, they are among the rare true ORIGINATORS of the music of today. However, as noted by Rolling Stone’s David Fricke, The Savage Rose 2003 are far from nostalgia, they’re “not prisoners of history because they never stopped making it”. They are continuously at the very front edge of contemporary music, effortlessly combining elements of jazz, hip-hop, R&B, Alternative, and World Music into a unique, highly spicy and sensual pop, embracing audiences of all ages, nationalities, and ethnicities.

Their 19 albums have been Gold, Platinum, Double Platinum, up to four times Platinum in Scandinavia. They have 2 Scandinavian Grammies, for BLACK ANGEL (1996) and TAMELESS (1999); innumerable Grammy nominations (including 3 for the 2002 album FOR YOUR LOVE); a Film Academy Award for best film score & song. Annisette and Thomas have both been nominated for the prestigious Great Music Award of the Nordic Council, and Thomas has been awarded the Lifetime Honorary Award of the Danish State.

They have released 20 original albums; toured most of the world including prestigious festivals like The Newport Jazz festival (now the JVC Jazz Festival), the Montreux festival, the Molde Festival, Ragnarock and the Roskilde Festival. Their ballet “Triumph Of Death” is the greatest success of The Royal Ballet ever, with hundreds of sold-out performances worldwide, including the Metropolitan Opera in New York. Thomas has created symphonies, ballets, film music, an opera, music dramas, and, with Annisette, the painfully beautiful and controversial musical ‘Bella Vita’ on homeless children.

After a roaring start with albums recorded at e. g. the Mick Jagger mansion in the UK and the famous Mirasound Studios in New York, the artist rejected their managers’ quest to go to Vietnam and have a picture taken shaking hands with President Johnson. They didn’t want their music utilized for support of the war, and in order to save their minds and their creativity, The Savage Rose went underground for years; exploring their own native language, Danish. They lived among the underprivileged of Copenhagen but became a creative musical powerhouse, performing for huge audiences in many countries. They created eight underground albums during this period, eventually becoming cult objects all over Europe. A large chapter of ‘The Unknown Legends Of Rock’n'Roll” by Ritchie Unterberger (USA 1998) is devoted to this era in the history of The Savage Rose.

In 1996 Annisette & Thomas K. created their first pop/rock/R&B album in English for many years,
‘Black Angel’, recorded at the Conway Studio in Hollywood, with friend George Duke as executive producer. Hits like ‘Black Angel’, ‘What Do You Do Now’ and the unique rendition of ‘Where Have All The Flowers Gone’ took them to number one on the charts once again: In Denmark ‘Black Angel’ is close to triple platinum, in Norway Gold; and it won the Grammy for Best Rock Album.

The story continues with two more dazzling modern classics, ‘Tameless’ (1999) and ‘For Your Love’ (2001), awarded another Grammy ( Best Female Singer), sales close to Platinum - and reviews like
‘An out-of-this-world pop album….’
‘A gift for life…… ‘
‘Steamingly erotic, flamingly resentful, mellow, and bittersweet….’
‘The demons are whizzing by like wild missiles…’
‘Makes you wish the music will never stop….’

Their 17 concerts in Scandinavia in 2002 sold 150,000 tickets.

The enormous productivity of The Savage Rose can only be understood in the light of their uncompromising and never-ending dedication to social justice and human rights. They once and for all refused to split their life and their music in two; their political courage has taken them to war zones and areas of dangerous oppression, even to performing in prisons and refugee camps along with peaceful, huge summer festivals. They have never complained about the career that was rightfully theirs but was taken away from them because of their honesty, but instead they stress that this kept them close to their audience and mentally sane as compared to many artists bending to corporate pressure.

We have only mentioned a small part of their 20 original albums, their several large-scale music drama productions, symphonic music, and more. Thomas wrote the score for the independent Hollywood film ‘Everything Put Together’ by Marc Forster (MONSTERS’ BALL) and numerous other feature films, He was awarded a Danish Film Academy Award 1992 for Best Score and Song.

They are both multi-talented: Annisette, besides being among the most enigmatic vocalist legends for decades, and still evolving, is a world class lyricist, writer, poet, and a unique painter. Thomas, besides being a legendary composer of rare versatility, is a world-class producer, an awarded keyboardist, and a fine photographer.

Backing Vocals – Amina Carsce Nissen, Naja Rosa Koppel
Backing Vocals [Additional Background Vocals] – Amina Carsce Nissen, Annisette
Bass – Jacob Haubjerg
Drums, Tambourine, Shaker – Anders Holm
Guitar – Rune Kjeldsen
Lead Vocals – Annisette
Organ, Accordion, Electric Piano [Wurlitzer], Piano, Mellotron – Palle Hjorth
Piano, Keyboards [Keys], Mellotron, Trumpet, Trombone, Electric Piano [Rhodes], Frame Drum – Frank Hasselstroem

Track List:
01. Homeless (8:09)
02. We go on (4:34)
03. Woman (4:08)
04. Darling dear (5:43)
05. Harassing (4:14)
06. Exit (0:45)
07. Sorrow's hands (5:35)
08. That's where i'm going (3:57)
09. Romano song (5:50)

Exact Audio Copy V1.1 from 23. June 2015

EAC extraction logfile from 26. November 2017, 10:46

Savage Rose / HomeLess

Used drive : DVD RW Adapter: 1 ID: 0

Read mode : Secure
Utilize accurate stream : Yes
Defeat audio cache : Yes
Make use of C2 pointers : No

Read offset correction : 6
Overread into Lead-In and Lead-Out : No
Fill up missing offset samples with silence : Yes
Delete leading and trailing silent blocks : No
Null samples used in CRC calculations : Yes
Used interface : Native Win32 interface for Win NT & 2000
Gap handling : Appended to previous track

Used output format : User Defined Encoder
Selected bitrate : 1024 kBit/s
Quality : High
Add ID3 tag : No
Command line compressor : C:\Program Files (x86)\Exact Audio Copy\FLAC\FLAC.EXE
Additional command line options : -8 -V -T "artist=%artist%" -T "title=%title%" -T "album=%albumtitle%" -T "date=%year%" -T "tracknumber=%tracknr%" -T "genre=%genre%" %source%

TOC of the extracted CD

Track | Start | Length | Start sector | End sector
––––––––––––––––––––––––––––-
1 | 0:00.00 | 8:08.53 | 0 | 36652
2 | 8:08.53 | 4:34.32 | 36653 | 57234
3 | 12:43.10 | 4:07.45 | 57235 | 75804
4 | 16:50.55 | 5:43.26 | 75805 | 101555
5 | 22:34.06 | 4:14.37 | 101556 | 120642
6 | 26:48.43 | 0:44.48 | 120643 | 123990
7 | 27:33.16 | 5:35.32 | 123991 | 149147
8 | 33:08.48 | 3:57.10 | 149148 | 166932
9 | 37:05.58 | 5:49.41 | 166933 | 193148

Track 1

Filename C:\Rips\The Savage Rose - Homeless (2017) [EAC-FLAC]\01 - Homeless.wav

Pre-gap length 0:00:02.00

Peak level 100.0 %
Extraction speed 1.2 X
Track quality 99.9 %
Test CRC 2A5DCDE6
Copy CRC 2A5DCDE6
Track not present in AccurateRip database
Copy OK

Track 2

Filename C:\Rips\The Savage Rose - Homeless (2017) [EAC-FLAC]\02 - We go on.wav

Pre-gap length 0:00:01.33

Peak level 100.0 %
Extraction speed 1.4 X
Track quality 100.0 %
Test CRC CBE455BE
Copy CRC CBE455BE
Track not present in AccurateRip database
Copy OK

Track 3

Filename C:\Rips\The Savage Rose - Homeless (2017) [EAC-FLAC]\03 - Woman.wav

Pre-gap length 0:00:00.96

Peak level 99.9 %
Extraction speed 1.5 X
Track quality 100.0 %
Test CRC B7548E9D
Copy CRC B7548E9D
Track not present in AccurateRip database
Copy OK

Track 4

Filename C:\Rips\The Savage Rose - Homeless (2017) [EAC-FLAC]\04 - Darling dear.wav

Pre-gap length 0:00:01.40

Peak level 100.0 %
Extraction speed 1.6 X
Track quality 100.0 %
Test CRC BF0293CC
Copy CRC BF0293CC
Track not present in AccurateRip database
Copy OK

Track 5

Filename C:\Rips\The Savage Rose - Homeless (2017) [EAC-FLAC]\05 - Harassing.wav

Pre-gap length 0:00:01.98

Peak level 100.0 %
Extraction speed 1.7 X
Track quality 100.0 %
Test CRC 686EF769
Copy CRC 686EF769
Track not present in AccurateRip database
Copy OK

Track 6

Filename C:\Rips\The Savage Rose - Homeless (2017) [EAC-FLAC]\06 - Exit.wav

Pre-gap length 0:00:00.85

Peak level 99.9 %
Extraction speed 1.1 X
Track quality 100.0 %
Test CRC E1E4C49E
Copy CRC E1E4C49E
Track not present in AccurateRip database
Copy OK

Track 7

Filename C:\Rips\The Savage Rose - Homeless (2017) [EAC-FLAC]\07 - Sorrow's hands.wav

Pre-gap length 0:00:00.61

Peak level 99.0 %
Extraction speed 1.9 X
Track quality 100.0 %
Test CRC 0868EA33
Copy CRC 0868EA33
Track not present in AccurateRip database
Copy OK

Track 8

Filename C:\Rips\The Savage Rose - Homeless (2017) [EAC-FLAC]\08 - That's where i'm going.wav

Pre-gap length 0:00:01.34

Peak level 99.4 %
Extraction speed 1.9 X
Track quality 100.0 %
Test CRC A33EAD21
Copy CRC A33EAD21
Track not present in AccurateRip database
Copy OK

Track 9

Filename C:\Rips\The Savage Rose - Homeless (2017) [EAC-FLAC]\09 - Romano song.wav

Pre-gap length 0:00:02.36

Peak level 100.0 %
Extraction speed 2.0 X
Track quality 100.0 %
Test CRC 709706D2
Copy CRC 709706D2
Track not present in AccurateRip database
Copy OK

None of the tracks are present in the AccurateRip database

No errors occurred

End of status report

–– CUETools DB Plugin V2.1.6

[CTDB TOCID: Et5IcqduIs06LqiD9yYvl.uwIxM-] found
Submit result: unrecognized or virtual drive
Track | CTDB Status
1 | (3/3) Accurately ripped
2 | (3/3) Accurately ripped
3 | (3/3) Accurately ripped
4 | (3/3) Accurately ripped
5 | (3/3) Accurately ripped
6 | (3/3) Accurately ripped
7 | (3/3) Accurately ripped
8 | (3/3) Accurately ripped
9 | (3/3) Accurately ripped

==== Log checksum 0AFF23B0DCFA3F0B2C9EE048DC6881ECD305E00FAEAA502617BE6B6767659ADD ====

All thanks go to the SkyEarth

More Music in My Blog
Follow My RSS Channel