Subcategories

The Animals – Original Hits (1995)(Disky licensed from EMI)

Posted By: janwal46
The Animals – Original Hits (1995)(Disky licensed from EMI)

The Animals – Original Hits (1995)(Disky licensed from EMI)

The Animals – Original Hits (1995)(Disky licensed from EMI)
1995 | Blues/Rock | EAC RIP | FLAC+CUE+LOG+HQ-Covers(400Dpi) | 294Mb+14Mb

The Animals were a famous English music group of the 1960s known in the United States as part of the British Invasion. Known for their gritty, bluesy sound and deep-voiced frontman Eric Burdon, as exemplified by their signature songs "The House of the Rising Sun" and "We Gotta Get Out Of This Place", the band balanced tough, rock-edged pop singles against rhythm and blues-oriented album material. The Animals underwent numerous personnel changes and emerged as an exponent of psychedelic rock before dissolving at the end of the decade. They had a comeback in 1983 and started a world tour. In early 1984 the band disbanded.

This collection contains 18 recordings made in 1964 and 1965 with all time classic hits like “The House Of The Rising Sun”, “We’ve Gotta Get Out Of This Place” and many others.

Personnel:

Eric Burdon - Vocals
Hilton Valentine - Guitar
Alan Price - Keyboards
Chas Chandler - Bass
John Steel – Drums

Tracklist:

01 – The House Of The Rising Sun
02 – We’ve Gotta Get Out Of This Place
03 – Don’t Let Me Be Misunderstood
04 – Bring It On Home To Me
05 – Boom Boom
06 – Memphis Tennessee
07 – Baby Let Me Take You Home
08 – Club-A-Gogo
09 - I’m Mad Again
10 – It’s My Life
11 – Bright Lights Big City
12 – The Story Of Bo Diddley
13 – She Said Yeah
14 – Around And Around
15 – The Girl Can’t Help It
16 – I’ve Been Around
17 – How You’ve Changed
18 – I’m Crying

Exact Audio Copy V0.99 prebeta 4 from 23. January 2008

EAC extraction logfile from 9. June 2009, 18:52

The Animals / Original Hits

Used drive : Optiarc DVD RW AD-7173A Adapter: 1 ID: 0

Read mode : Secure
Utilize accurate stream : Yes
Defeat audio cache : No
Make use of C2 pointers : No

Read offset correction : 48
Overread into Lead-In and Lead-Out : No
Fill up missing offset samples with silence : Yes
Delete leading and trailing silent blocks : No
Null samples used in CRC calculations : No
Used interface : Native Win32 interface for Win NT & 2000

Used output format : Internal WAV Routines
Sample format : 44.100 Hz; 16 Bit; Stereo


TOC of the extracted CD

Track | Start | Length | Start sector | End sector
––––––––––––––––––––––––––––-
1 | 0:00.00 | 4:30.02 | 0 | 20251
2 | 4:30.02 | 3:14.68 | 20252 | 34869
3 | 7:44.70 | 2:29.27 | 34870 | 46071
4 | 10:14.22 | 2:44.20 | 46072 | 58391
5 | 12:58.42 | 3:19.70 | 58392 | 73386
6 | 16:18.37 | 3:06.60 | 73387 | 87396
7 | 19:25.22 | 2:20.70 | 87397 | 97966
8 | 21:46.17 | 2:20.25 | 97967 | 108491
9 | 24:06.42 | 4:16.28 | 108492 | 127719
10 | 28:22.70 | 3:07.67 | 127720 | 141811
11 | 31:30.62 | 2:55.03 | 141812 | 154939
12 | 34:25.65 | 5:44.05 | 154940 | 180744
13 | 40:09.70 | 2:20.05 | 180745 | 191249
14 | 42:30.00 | 2:44.32 | 191250 | 203581
15 | 45:14.32 | 2:23.28 | 203582 | 214334
16 | 47:37.60 | 1:37.65 | 214335 | 221674
17 | 49:15.50 | 3:13.57 | 221675 | 236206
18 | 52:29.32 | 2:46.60 | 236207 | 248716


Range status and errors

Selected range

Filename G:\AVAXHOME\The Animals - Original Hits (1995)\The Animals - Original Hits.wav

Peak level 98.0 %
Range quality 100.0 %
Copy CRC 64DBC94B
Copy OK

No errors occurred


AccurateRip summary

Track 1 accurately ripped (confidence 10) [C0613935]
Track 2 accurately ripped (confidence 11) [ABCCB7B0]
Track 3 accurately ripped (confidence 10) [DA908918]
Track 4 accurately ripped (confidence 10) [853950C1]
Track 5 accurately ripped (confidence 10) [77F226BD]
Track 6 accurately ripped (confidence 9) [988DC600]
Track 7 accurately ripped (confidence 9) [BD50D605]
Track 8 accurately ripped (confidence 9) [80F85AFF]
Track 9 accurately ripped (confidence 9) [558D5F14]
Track 10 accurately ripped (confidence 9) [467C8E4E]
Track 11 accurately ripped (confidence 9) [12B03153]
Track 12 accurately ripped (confidence 8) [741963A7]
Track 13 accurately ripped (confidence 8) [9CEAA692]
Track 14 accurately ripped (confidence 8) [C3D55766]
Track 15 accurately ripped (confidence 8) [28F4DAF5]
Track 16 accurately ripped (confidence 9) [EB902DEC]
Track 17 accurately ripped (confidence 9) [B41F56E4]
Track 18 accurately ripped (confidence 10) [E1C492AC]

All tracks accurately ripped

End of status report

RIPPED BY JANWAL46

RS Links: