Subcategories

Alicia De Larrocha - The Art of Alicia De Larrocha (2003) {7CD Box Set Decca 473 813-2}

Posted By: ruskaval
Alicia De Larrocha - The Art of Alicia De Larrocha (2003) {7CD Box Set Decca 473 813-2}

Alicia De Larrocha - The Art of Alicia De Larrocha (2003) {7CD Box Set Decca 473 813-2}
EAC rip (secure mode) | FLAC (tracks)+CUE+LOG -> 2.07 Gb | MP3 @320 -> 1.26 Mb
Full Artwork @ 300 dpi (png) -> 222 Mb | 5% repair rar
© 2003 Decca Music | 473 813-2
Classical / Piano / Orchestral

This splendid seven-disc set marks Alicia de Larrocha's 2003 retirement from the concert stage after an extraordinary career spanning more than seven decades. To many listeners, she is a peerless performer of Iberian (particularly Spanish and Catalan) music. Indeed, as her rendition of Manuel de Falla's Nights in the Gardens of Spain demonstrates, this Catalan pianist brilliantly captures the indefinable magic and charm of Iberian music, revealing a timeless richness and depth that lesser artists, conforming to ideas of national style, often miss. It would be a mistake, however, to define de Larrocha as an "Iberian specialist." As this set demonstrates, her rich repertoire encompasses various traditions and a timespan from the late Baroque to the present, from Bach to Xavier Montsalvatge (1912-2002).

Alicia De Larrocha - The Art of Alicia De Larrocha (2003) {7CD Box Set Decca 473 813-2}

What could be less Iberian than Liszt's brooding (and astonishingly demanding) Sonata in B minor? Yet de Larrocha's rendition of this work ingeniously breaks the spell of monotony (created by almost obsessive thematic reiterations), restoring Liszt's complex work to its original brilliance by attacking the almost insurmountable technical difficulties not as obstacles but as a means to an end. For de Larrocha, music is the profound, mysterious stream that is only imperfectly defined by the linear mechanics of quantified time and form. Listening to her impeccable performance of Bach's Italian Concerto, for example, listeners hear (feel?) almost imperceptibly brief bursts energy as she intuitively grasps the overwhelming power locked in the formal edifice of Bach's music. Similarly, her exquisite reading of Haydn's Piano Concerto in D major follows the music's inner impulse underneath the rhythmic surface, translating the composer's inspiration into an extraordinary experience of lightness and breathtaking freedom. Also featured are impressive readings of works by Mozart, Chopin, Schubert, Mendelssohn, Ravel, Khachaturian, Mompou, and Beethoven.

Alicia De Larrocha - The Art of Alicia De Larrocha (2003) {7CD Box Set Decca 473 813-2}


Decca INFO

Performers

Piano: Alicia De Larrocha
London Philharmonic Orchestr
London Sinfonietta
L'Orchestre de la Suisse Romande
Royal Philharmonic Orchestra



Track Listing
CD1

01 - Bach - Concerto in the Italian Style, BWV 971 - I. Allegro
02 - Bach - Concerto in the Italian Style, BWV 971 - II. Andante
03 - Bach - Concerto in the Italian Style, BWV 971 - III. Presto
04 - Bach - French Suite No. 6 in E major, BWV 817 - I. Allemande
05 - Bach - French Suite No. 6 in E major, BWV 817 - II. Courante
06 - Bach - French Suite No. 6 in E major, BWV 817 - III. Sarabande
07 - Bach - French Suite No. 6 in E major, BWV 817 - IV. Gavotte
08 - Bach - French Suite No. 6 in E major, BWV 817 - V. Polonaise
09 - Bach - French Suite No. 6 in E major, BWV 817 - VI. Bourree
10 - Bach - French Suite No. 6 in E major, BWV 817 - VII. Menuet
11 - Bach - French Suite No. 6 in E major, BWV 817 - VIII. Gigue
12 - Bach - Beloved Jesu, we are here (arr. Cohen)
13 - Bach - Sanctify us by thy goodness (arr. Cohen)
14 - Bach - Chaconne in D minor, BWV 1004 (arr. Busoni)
15 - Bach - Concerto No. 5 in F minor, BWV 1056 - I. Allegro
16 - Bach - Concerto No. 5 in F minor, BWV 1056 - II. Largo
17 - Bach - Concerto No. 5 in F minor, BWV 1056 - III. Presto
18 - Haydn - Concerto in D major, Hob.XVIII.2 - I. Vivace
19 - Haydn - Concerto in D major, Hob.XVIII.2 - II. Un poco adagio
20 - Haydn - Concerto in D major, Hob.XVIII.2 - III. Rondo all'ungherese. Allegro assai

CD2
01 - Haydn - Andante con variazioni in F minor, Hob.XVII.6
02 - Mozart - Piano Sonata No. 11 in A major, K. 300i.331 - I. Thema. Andante grazioso
03 - Mozart - Piano Sonata No. 11 in A major, K. 300i.331 - I. Variation 1
04 - Mozart - Piano Sonata No. 11 in A major, K. 300i.331 - I. Variation 2
05 - Mozart - Piano Sonata No. 11 in A major, K. 300i.331 - I. Variation 3
06 - Mozart - Piano Sonata No. 11 in A major, K. 300i.331 - I. Variation 4
07 - Mozart - Piano Sonata No. 11 in A major, K. 300i.331 - I. Variation 5
08 - Mozart - Piano Sonata No. 11 in A major, K. 300i.331 - I. Variation 6
09 - Mozart - Piano Sonata No. 11 in A major, K. 300i.331 - II. Menuetto
10 - Mozart - Piano Sonata No. 11 in A major, K. 300i.331 - III. Alla turca. Allegretto
11 - Mozart - Piano Sonata No. 18 in D major, K. 576 - I. Allegro
12 - Mozart - Piano Sonata No. 18 in D major, K. 576 - II. Adagio
13 - Mozart - Piano Sonata No. 18 in D major, K. 576 - III. Allegretto
14 - Beethoven - Bagatelles, Op. 33 No. 1 in E-flat major - Andante grazioso, quasi allegretto
15 - Beethoven - Bagatelles, Op. 33 No. 2 in C major - Scherzo
16 - Beethoven - Bagatelles, Op. 33 No. 3 in F major - Allegretto
17 - Beethoven - Bagatelles, Op. 33 No. 4 in A major - Andante
18 - Beethoven - Bagatelles, Op. 33 No. 5 in C major - Allegro, ma non troppo
19 - Beethoven - Bagatelles, Op. 33 No. 6 in D major - Allegretto quasi andante
20 - Beethoven - Bagatelles, Op. 33 No. 7 in A flat major - Presto
21 - Mendelssohn - Variations serieuses, Op. 54

CD3
01 - Chopin - 24 Preludes, Op. 28 No. 1 in C major - Agitato
02 - Chopin - 24 Preludes, Op. 28 No. 2 in A minor - Lento
03 - Chopin- 24 Preludes, Op. 28 No. 3 in G major - Vivace
04 - Chopin - 24 Preludes, Op. 28 No. 4 in E minor - Largo
05 - Chopin - 24 Preludes, Op. 28 No. 5 in D major - Allegro molto
06 - Chopin - 24 Preludes, Op. 28 No. 6 in B minor - Lento assai
07 - Chopin - 24 Preludes, Op. 28 No. 7 in A major - Andantino
08 - Chopin - 24 Preludes, Op. 28 No. 8 in F-sharp minor - Molto agitato
09 - Chopin - 24 Preludes, Op. 28 No. 9 in E major - Largo
10 - Chopin - 24 Preludes, Op. 28 No. 10 in C-sharp minor - Allegro molto
11 - Chopin - 24 Preludes, Op. 28 No. 11 in B major - Vivace
12 - Chopin - 24 Preludes, Op. 28 No. 12 in G-sharp minor - Presto
13 - Chopin - 24 Preludes, Op. 28 No. 13 in F-sharp minor - Lento
14 - Chopin - 24 Preludes, Op. 28 No. 14 in E-flat minor - Allegro
15 - Chopin - 24 Preludes, Op. 28 No. 15 in D-flat major - Sostenuto
16 - Chopin - 24 Preludes, Op. 28 No. 16 in B-flat minor - Presto con fuoco
17 - Chopin - 24 Preludes, Op. 28 No. 17 in A-flat major - Allegretto
18 - Chopin - 24 Preludes, Op. 28 No. 18 in F minor - Allegro molto
19 - Chopin - 24 Preludes, Op. 28 No. 19 in E-flat major - Vivace
20 - Chopin - 24 Preludes, Op. 28 No. 20 in C minor - Largo
21 - Chopin - 24 Preludes, Op. 28 No. 21 in B-flat major - Cantabile
22 - Chopin - 24 Preludes, Op. 28 No. 22 in G minor - Molto agitato
23 - Chopin - 24 Preludes, Op. 28 No. 23 in F major - Moderato
24 - Chopin - 24 Preludes, Op. 28 No. 24 in D minor - Allegro appassionato
25 - Chopin - Berceuse, Op. 57
26 - Chopin - Piano Concerto No. 2 in F minor, Op. 21 - I. Maestoso
27 - Chopin - Piano Concerto No. 2 in F minor, Op. 21 - II. Larghetto
28 - Chopin - Piano Concerto No. 2 in F minor, Op. 21 - III. Allegro vivace

CD4
01 - Schubert - Piano Sonata in B flat major, D960 - I. Molto moderato
02 - Schubert - Piano Sonata in B flat major, D960 - II. Andante sostenuto
03 - Schubert - Piano Sonata in B flat major, D960 - III. Scherzo. Allegro vivace con delicatezza
04 - Schubert - Piano Sonata in B flat major, D960 - IV. Allegro, ma non troppo
05 - Schubert - Impromptu in A flat major, D899-4
06 - Liszt - Piano Sonata in B minor - I. Lento assai - Allegro energico - Grandioso - Recitativo
07 - Liszt - Piano Sonata in B minor - II. Andante sostenuto
08 - Liszt - Piano Sonata in B minor - III. Allegro energico - Andante sostenuto - Lento assai

CD5
01 - Schumann - Fantasie in C major, Op. 17 - I. Durchaus phantastisch und leidenschaftlich vorzutragen
02 - Schumann - Fantasie in C major, Op. 17 - II. Massig. Durchaus energisch
03 - Schumann - Fantasie in C major, Op. 17 - III. Langsam getragen. Durchweg leise zu halten
04 - Schumann - Allegro, Op. 8
05 - Schumann - Romance, Op. 28 No. 2
06 - Schumann - Piano Concerto in A minor, Op. 54 - I. Allegro affettuoso
07 - Schumann - Piano Concerto in A minor, Op. 54 - II. Intermezzo. Andantino grazioso
08 - Schumann - Piano Concerto in A minor, Op. 54 - III. Allegro vivace

CD6
01 - Soler - Sonata in G minor, SR 42 - Allegro
02 - Soler - Sonata in D minor, SR 15 - Allegretto mosso
03 - Soler - Sonata in F major, SR 89 - Allegro
04 - Turina - Zapateado (No.3 from Tres danzas andaluzas, op.8)
05 - Granados - Danzas espanolas, book 2, op.37 No.4 - Villanesca
06 - Granados - Danzas espanolas, book 2, op.37 No.5 - Andaluza
07 - Granados - Danzas espanolas, book 2, op.37 No.6 - Rondalla aragonesa
08 - Granados - El pelele
09 - Montsalvatge - Sonatina para Yvette - I. Vivo e spiritoso
10 - Montsalvatge - Sonatina para Yvette - II. Moderato molto
11 - Montsalvatge - Sonatina para Yvette - III. Allegretto
12 - Mompou- Prelude VII (a Alicia de Larrocha)
13 - Albaniz - Tango (No.2 from Espana, op.165)
14 - Albaniz - Iberia, book 1 - I. Evocacion
15 - Albaniz - Iberia, book 1 - II. El puerto
16 - Albaniz - Iberia, book 1 - III. El Corpus Christi en Sevilla
17 - Falla - Fantasia betica

CD7
01 - Falla - Noches en los jardines de Espana - I. En el Generalife
02 - Falla - Noches en los jardines de Espana - II. Danza lejana
03 - Falla - Noches en los jardines de Espana - III. En los jardines de la Sierra de Cordoba
04 - Khachaturian - Piano Concerto - I. Allegro ma non troppo e maestoso
05 - Khachaturian - Piano Concerto - II. Andante con anima
06 - Khachaturian - Piano Concerto - III. Allegro brillante
07 - Ravel - Piano Concerto for the left hand

Exact Audio Copy V1.1 from 23. June 2015

EAC extraction logfile from 16. June 2016, 19:27

Alicia de Larrocha / The Art of Alicia de Larrocha (CD1)

Used drive : ASUS DRW-24B1ST i Adapter: 1 ID: 0

Read mode : Secure
Utilize accurate stream : Yes
Defeat audio cache : Yes
Make use of C2 pointers : No

Read offset correction : 6
Overread into Lead-In and Lead-Out : No
Fill up missing offset samples with silence : Yes
Delete leading and trailing silent blocks : No
Null samples used in CRC calculations : Yes
Used interface : Native Win32 interface for Win NT & 2000
Gap handling : Appended to previous track

Used output format : User Defined Encoder
Selected bitrate : 128 kBit/s
Quality : High
Add ID3 tag : No
Command line compressor : C:\Program Files (x86)\Exact Audio Copy\Flac\flac.exe
Additional command line options : -8 -V -T "ARTIST=%artist%" -T "TITLE=%title%" -T "ALBUM=%albumtitle%" -T "DATE=%year%" -T "TRACKNUMBER=%tracknr%" -T "TOTALTRACKS=%numtracks%" -T "GENRE=%genre%" -T "ALBUMARTIST=%albumartist%" -T "ALBUM ARTIST=%albumartist%" -T "COMMENT=EAC Secure Mode, Test & Copy, AccurateRip, FLAC -8" %source%


TOC of the extracted CD

Track | Start | Length | Start sector | End sector
––––––––––––––––––––––––––––-
1 | 0:00.00 | 3:57.46 | 0 | 17820
2 | 3:57.46 | 5:08.56 | 17821 | 40976
3 | 9:06.27 | 3:45.34 | 40977 | 57885
4 | 12:51.61 | 2:22.71 | 57886 | 68606
5 | 15:14.57 | 1:28.31 | 68607 | 75237
6 | 16:43.13 | 3:03.10 | 75238 | 88972
7 | 19:46.23 | 1:09.54 | 88973 | 94201
8 | 20:56.02 | 1:26.30 | 94202 | 100681
9 | 22:22.32 | 1:22.64 | 100682 | 106895
10 | 23:45.21 | 1:27.11 | 106896 | 113431
11 | 25:12.32 | 2:19.32 | 113432 | 123888
12 | 27:31.64 | 3:36.00 | 123889 | 140088
13 | 31:07.64 | 3:15.61 | 140089 | 154774
14 | 34:23.50 | 14:06.37 | 154775 | 218261
15 | 48:30.12 | 3:39.52 | 218262 | 234738
16 | 52:09.64 | 3:25.27 | 234739 | 250140
17 | 55:35.16 | 3:42.03 | 250141 | 266793
18 | 59:17.19 | 7:31.04 | 266794 | 300622
19 | 66:48.23 | 7:10.37 | 300623 | 332909
20 | 73:58.60 | 4:17.11 | 332910 | 352195


Track 1

Filename D:\_Post\Larrocha\CD1\01 - Bach - Concerto in the Italian Style, BWV 971 - I. Allegro.wav

Pre-gap length 0:00:02.00

Peak level 71.8 %
Extraction speed 2.1 X
Track quality 100.0 %
Test CRC 32419B94
Copy CRC 32419B94
Accurately ripped (confidence 9) [A313645B] (AR v2)
Copy OK

Track 2

Filename D:\_Post\Larrocha\CD1\02 - Bach - Concerto in the Italian Style, BWV 971 - II. Andante.wav

Pre-gap length 0:00:01.64

Peak level 42.7 %
Extraction speed 1.9 X
Track quality 99.9 %
Test CRC B81BE7A4
Copy CRC B81BE7A4
Accurately ripped (confidence 9) [FBEB926A] (AR v2)
Copy OK

Track 3

Filename D:\_Post\Larrocha\CD1\03 - Bach - Concerto in the Italian Style, BWV 971 - III. Presto.wav

Peak level 98.7 %
Extraction speed 1.8 X
Track quality 99.9 %
Test CRC 81235288
Copy CRC 81235288
Accurately ripped (confidence 9) [6584CCE8] (AR v2)
Copy OK

Track 4

Filename D:\_Post\Larrocha\CD1\04 - Bach - French Suite No. 6 in E major, BWV 817 - I. Allemande.wav

Pre-gap length 0:00:06.64

Peak level 90.1 %
Extraction speed 2.4 X
Track quality 100.0 %
Test CRC DEF91916
Copy CRC DEF91916
Accurately ripped (confidence 9) [C7F233BF] (AR v2)
Copy OK

Track 5

Filename D:\_Post\Larrocha\CD1\05 - Bach - French Suite No. 6 in E major, BWV 817 - II. Courante.wav

Peak level 99.4 %
Extraction speed 2.2 X
Track quality 100.0 %
Test CRC 362E6527
Copy CRC 362E6527
Accurately ripped (confidence 9) [D987F5D2] (AR v2)
Copy OK

Track 6

Filename D:\_Post\Larrocha\CD1\06 - Bach - French Suite No. 6 in E major, BWV 817 - III. Sarabande.wav

Peak level 74.9 %
Extraction speed 2.7 X
Track quality 100.0 %
Test CRC C437ADEF
Copy CRC C437ADEF
Accurately ripped (confidence 9) [49F8D460] (AR v2)
Copy OK

Track 7

Filename D:\_Post\Larrocha\CD1\07 - Bach - French Suite No. 6 in E major, BWV 817 - IV. Gavotte.wav

Peak level 81.7 %
Extraction speed 1.1 X
Track quality 99.8 %
Test CRC BCBDF3B0
Copy CRC BCBDF3B0
Accurately ripped (confidence 9) [D0D9C656] (AR v2)
Copy OK

Track 8

Filename D:\_Post\Larrocha\CD1\08 - Bach - French Suite No. 6 in E major, BWV 817 - V. Polonaise.wav

Peak level 65.0 %
Extraction speed 2.4 X
Track quality 100.0 %
Test CRC 569C4E23
Copy CRC 569C4E23
Accurately ripped (confidence 9) [8D55744F] (AR v2)
Copy OK

Track 9

Filename D:\_Post\Larrocha\CD1\09 - Bach - French Suite No. 6 in E major, BWV 817 - VI. Bourree.wav

Peak level 99.4 %
Extraction speed 2.4 X
Track quality 100.0 %
Test CRC C7ADBBDD
Copy CRC C7ADBBDD
Accurately ripped (confidence 9) [C100376F] (AR v2)
Copy OK

Track 10

Filename D:\_Post\Larrocha\CD1\10 - Bach - French Suite No. 6 in E major, BWV 817 - VII. Menuet.wav

Peak level 67.6 %
Extraction speed 2.4 X
Track quality 100.0 %
Test CRC 174CC5F9
Copy CRC 174CC5F9
Accurately ripped (confidence 9) [3D01B920] (AR v2)
Copy OK

Track 11

Filename D:\_Post\Larrocha\CD1\11 - Bach - French Suite No. 6 in E major, BWV 817 - VIII. Gigue.wav

Peak level 93.4 %
Extraction speed 1.8 X
Track quality 99.9 %
Test CRC 8B83716E
Copy CRC 8B83716E
Accurately ripped (confidence 9) [F5840DDE] (AR v2)
Copy OK

Track 12

Filename D:\_Post\Larrocha\CD1\12 - Bach - Beloved Jesu, we are here (arr. Cohen).wav

Pre-gap length 0:00:06.63

Peak level 69.3 %
Extraction speed 3.1 X
Track quality 100.0 %
Test CRC 82E4D327
Copy CRC 82E4D327
Accurately ripped (confidence 9) [EB214355] (AR v2)
Copy OK

Track 13

Filename D:\_Post\Larrocha\CD1\13 - Bach - Sanctify us by thy goodness (arr. Cohen).wav

Pre-gap length 0:00:03.63

Peak level 98.4 %
Extraction speed 3.2 X
Track quality 100.0 %
Test CRC 6B8C53C0
Copy CRC 6B8C53C0
Accurately ripped (confidence 9) [DE1FBD3B] (AR v2)
Copy OK

Track 14

Filename D:\_Post\Larrocha\CD1\14 - Bach - Chaconne in D minor, BWV 1004 (arr. Busoni).wav

Pre-gap length 0:00:03.63

Peak level 85.1 %
Extraction speed 3.9 X
Track quality 100.0 %
Test CRC 47DF8AA1
Copy CRC 47DF8AA1
Accurately ripped (confidence 9) [E3469318] (AR v2)
Copy OK

Track 15

Filename D:\_Post\Larrocha\CD1\15 - Bach - Concerto No. 5 in F minor, BWV 1056 - I. Allegro.wav

Pre-gap length 0:00:04.64

Peak level 68.9 %
Extraction speed 3.7 X
Track quality 100.0 %
Test CRC 0EB8E574
Copy CRC 0EB8E574
Accurately ripped (confidence 9) [489B291D] (AR v2)
Copy OK

Track 16

Filename D:\_Post\Larrocha\CD1\16 - Bach - Concerto No. 5 in F minor, BWV 1056 - II. Largo.wav

Pre-gap length 0:00:02.64

Peak level 31.6 %
Extraction speed 3.8 X
Track quality 100.0 %
Test CRC 38134F92
Copy CRC 38134F92
Accurately ripped (confidence 9) [6FF8204F] (AR v2)
Copy OK

Track 17

Filename D:\_Post\Larrocha\CD1\17 - Bach - Concerto No. 5 in F minor, BWV 1056 - III. Presto.wav

Peak level 90.1 %
Extraction speed 3.9 X
Track quality 100.0 %
Test CRC 9E0287FF
Copy CRC 9E0287FF
Accurately ripped (confidence 9) [6DA16E8B] (AR v2)
Copy OK

Track 18

Filename D:\_Post\Larrocha\CD1\18 - Haydn - Concerto in D major, Hob.XVIII.2 - I. Vivace.wav

Pre-gap length 0:00:03.63

Peak level 80.2 %
Extraction speed 4.4 X
Track quality 100.0 %
Test CRC 641DBA34
Copy CRC 641DBA34
Accurately ripped (confidence 8) [3F51E90F] (AR v2)
Copy OK

Track 19

Filename D:\_Post\Larrocha\CD1\19 - Haydn - Concerto in D major, Hob.XVIII.2 - II. Un poco adagio.wav

Pre-gap length 0:00:01.64

Peak level 47.3 %
Extraction speed 4.5 X
Track quality 100.0 %
Test CRC 6BB18421
Copy CRC 6BB18421
Accurately ripped (confidence 8) [0BDF51D7] (AR v2)
Copy OK

Track 20

Filename D:\_Post\Larrocha\CD1\20 - Haydn - Concerto in D major, Hob.XVIII.2 - III. Rondo all'ungherese. Allegro assai.wav

Pre-gap length 0:00:01.64

Peak level 85.3 %
Extraction speed 4.4 X
Track quality 100.0 %
Test CRC 23E77380
Copy CRC 23E77380
Accurately ripped (confidence 8) [1561517D] (AR v2)
Copy OK


All tracks accurately ripped

No errors occurred

End of status report

–– CUETools DB Plugin V2.1.6

[CTDB TOCID: zflKY8wCaXqNotStmDdv3990gKc-] found
Submit result: zflKY8wCaXqNotStmDdv3990gKc- has been confirmed
Track | CTDB Status
1 | (4/4) Accurately ripped
2 | (4/4) Accurately ripped
3 | (4/4) Accurately ripped
4 | (4/4) Accurately ripped
5 | (4/4) Accurately ripped
6 | (4/4) Accurately ripped
7 | (4/4) Accurately ripped
8 | (4/4) Accurately ripped
9 | (4/4) Accurately ripped
10 | (4/4) Accurately ripped
11 | (4/4) Accurately ripped
12 | (4/4) Accurately ripped
13 | (4/4) Accurately ripped
14 | (4/4) Accurately ripped
15 | (4/4) Accurately ripped
16 | (4/4) Accurately ripped
17 | (4/4) Accurately ripped
18 | (4/4) Accurately ripped
19 | (4/4) Accurately ripped
20 | (4/4) Accurately ripped


==== Log checksum 63A8BC0A490ABC5FCFE5C0A6A97D4A8F84867F3587E9EED1A599F68DA2FE120F ====
Exact Audio Copy V1.1 from 23. June 2015

EAC extraction logfile from 17. June 2016, 7:56

Alicia de Larrocha / The Art of Alicia de Larrocha (CD2)

Used drive : ASUS DRW-24B1ST i Adapter: 1 ID: 0

Read mode : Secure
Utilize accurate stream : Yes
Defeat audio cache : Yes
Make use of C2 pointers : No

Read offset correction : 6
Overread into Lead-In and Lead-Out : No
Fill up missing offset samples with silence : Yes
Delete leading and trailing silent blocks : No
Null samples used in CRC calculations : Yes
Used interface : Native Win32 interface for Win NT & 2000
Gap handling : Appended to previous track

Used output format : User Defined Encoder
Selected bitrate : 128 kBit/s
Quality : High
Add ID3 tag : No
Command line compressor : C:\Program Files (x86)\Exact Audio Copy\Flac\flac.exe
Additional command line options : -8 -V -T "ARTIST=%artist%" -T "TITLE=%title%" -T "ALBUM=%albumtitle%" -T "DATE=%year%" -T "TRACKNUMBER=%tracknr%" -T "TOTALTRACKS=%numtracks%" -T "GENRE=%genre%" -T "ALBUMARTIST=%albumartist%" -T "ALBUM ARTIST=%albumartist%" -T "COMMENT=EAC Secure Mode, Test & Copy, AccurateRip, FLAC -8" %source%


TOC of the extracted CD

Track | Start | Length | Start sector | End sector
––––––––––––––––––––––––––––-
1 | 0:00.00 | 13:19.71 | 0 | 59995
2 | 13:19.71 | 1:53.51 | 59996 | 68521
3 | 15:13.47 | 1:09.20 | 68522 | 73716
4 | 16:22.67 | 1:09.06 | 73717 | 78897
5 | 17:31.73 | 1:33.02 | 78898 | 85874
6 | 19:05.00 | 1:16.48 | 85875 | 91622
7 | 20:21.48 | 2:44.01 | 91623 | 103923
8 | 23:05.49 | 1:02.47 | 103924 | 108620
9 | 24:08.21 | 6:03.39 | 108621 | 135884
10 | 30:11.60 | 3:21.49 | 135885 | 151008
11 | 33:33.34 | 4:52.34 | 151009 | 172942
12 | 38:25.68 | 5:51.68 | 172943 | 199335
13 | 44:17.61 | 4:13.00 | 199336 | 218310
14 | 48:30.61 | 3:52.69 | 218311 | 235779
15 | 52:23.55 | 2:50.72 | 235780 | 248601
16 | 55:14.52 | 2:04.22 | 248602 | 257923
17 | 57:18.74 | 3:30.27 | 257924 | 273700
18 | 60:49.26 | 3:08.11 | 273701 | 287811
19 | 63:57.37 | 2:52.09 | 287812 | 300720
20 | 66:49.46 | 2:18.53 | 300721 | 311123
21 | 69:08.24 | 11:34.04 | 311124 | 363177


Track 1

Filename D:\_Post\Larrocha\CD2\01 - Haydn - Andante con variazioni in F minor, Hob.XVII.6.wav

Pre-gap length 0:00:02.00

Peak level 99.4 %
Extraction speed 6.8 X
Track quality 100.0 %
Test CRC 29DE25DB
Copy CRC 29DE25DB
Accurately ripped (confidence 8) [CD8124B1] (AR v2)
Copy OK

Track 2

Filename D:\_Post\Larrocha\CD2\02 - Mozart - Piano Sonata No. 11 in A major, K. 300i.331 - I. Thema. Andante grazioso.wav

Pre-gap length 0:00:05.64

Peak level 46.0 %
Extraction speed 5.9 X
Track quality 100.0 %
Test CRC 82215F9F
Copy CRC 82215F9F
Accurately ripped (confidence 8) [5479BE7B] (AR v2)
Copy OK

Track 3

Filename D:\_Post\Larrocha\CD2\03 - Mozart - Piano Sonata No. 11 in A major, K. 300i.331 - I. Variation 1.wav

Peak level 54.0 %
Extraction speed 5.4 X
Track quality 100.0 %
Test CRC 387DE9F6
Copy CRC 387DE9F6
Accurately ripped (confidence 8) [C1AF7C50] (AR v2)
Copy OK

Track 4

Filename D:\_Post\Larrocha\CD2\04 - Mozart - Piano Sonata No. 11 in A major, K. 300i.331 - I. Variation 2.wav

Peak level 54.4 %
Extraction speed 5.4 X
Track quality 100.0 %
Test CRC 21DEB244
Copy CRC 21DEB244
Accurately ripped (confidence 8) [286D08A3] (AR v2)
Copy OK

Track 5

Filename D:\_Post\Larrocha\CD2\05 - Mozart - Piano Sonata No. 11 in A major, K. 300i.331 - I. Variation 3.wav

Peak level 53.8 %
Extraction speed 6.3 X
Track quality 100.0 %
Test CRC 3D4715D1
Copy CRC 3D4715D1
Accurately ripped (confidence 8) [ABA2D691] (AR v2)
Copy OK

Track 6

Filename D:\_Post\Larrocha\CD2\06 - Mozart - Piano Sonata No. 11 in A major, K. 300i.331 - I. Variation 4.wav

Peak level 50.7 %
Extraction speed 5.8 X
Track quality 100.0 %
Test CRC C5EEC32A
Copy CRC C5EEC32A
Accurately ripped (confidence 8) [1174B939] (AR v2)
Copy OK

Track 7

Filename D:\_Post\Larrocha\CD2\07 - Mozart - Piano Sonata No. 11 in A major, K. 300i.331 - I. Variation 5.wav

Peak level 50.2 %
Extraction speed 5.8 X
Track quality 99.9 %
Test CRC 55271137
Copy CRC 55271137
Accurately ripped (confidence 8) [717E2C99] (AR v2)
Copy OK

Track 8

Filename D:\_Post\Larrocha\CD2\08 - Mozart - Piano Sonata No. 11 in A major, K. 300i.331 - I. Variation 6.wav

Peak level 90.4 %
Extraction speed 5.4 X
Track quality 100.0 %
Test CRC 752368AC
Copy CRC 752368AC
Accurately ripped (confidence 8) [4EDB67E2] (AR v2)
Copy OK

Track 9

Filename D:\_Post\Larrocha\CD2\09 - Mozart - Piano Sonata No. 11 in A major, K. 300i.331 - II. Menuetto.wav

Peak level 63.7 %
Extraction speed 7.6 X
Track quality 99.9 %
Test CRC FEFBB3BA
Copy CRC FEFBB3BA
Accurately ripped (confidence 8) [5F838834] (AR v2)
Copy OK

Track 10

Filename D:\_Post\Larrocha\CD2\10 - Mozart - Piano Sonata No. 11 in A major, K. 300i.331 - III. Alla turca. Allegretto.wav

Peak level 99.4 %
Extraction speed 8.3 X
Track quality 100.0 %
Test CRC 02D87015
Copy CRC 02D87015
Accurately ripped (confidence 8) [D5348212] (AR v2)
Copy OK

Track 11

Filename D:\_Post\Larrocha\CD2\11 - Mozart - Piano Sonata No. 18 in D major, K. 576 - I. Allegro.wav

Pre-gap length 0:00:05.64

Peak level 97.9 %
Extraction speed 9.1 X
Track quality 100.0 %
Test CRC E5FD40EB
Copy CRC E5FD40EB
Accurately ripped (confidence 8) [63F8ABAD] (AR v2)
Copy OK

Track 12

Filename D:\_Post\Larrocha\CD2\12 - Mozart - Piano Sonata No. 18 in D major, K. 576 - II. Adagio.wav

Peak level 63.1 %
Extraction speed 8.5 X
Track quality 99.9 %
Test CRC 95A31285
Copy CRC 95A31285
Accurately ripped (confidence 8) [3556E8AF] (AR v2)
Copy OK

Track 13

Filename D:\_Post\Larrocha\CD2\13 - Mozart - Piano Sonata No. 18 in D major, K. 576 - III. Allegretto.wav

Peak level 99.4 %
Extraction speed 9.5 X
Track quality 100.0 %
Test CRC D639D669
Copy CRC D639D669
Accurately ripped (confidence 8) [3F9BA6BE] (AR v2)
Copy OK

Track 14

Filename D:\_Post\Larrocha\CD2\14 - Beethoven - Bagatelles, Op. 33 No. 1 in E-flat major - Andante grazioso, quasi allegretto.wav

Pre-gap length 0:00:05.64

Peak level 73.5 %
Extraction speed 9.5 X
Track quality 100.0 %
Test CRC CF2905E2
Copy CRC CF2905E2
Accurately ripped (confidence 8) [8A735801] (AR v2)
Copy OK

Track 15

Filename D:\_Post\Larrocha\CD2\15 - Beethoven - Bagatelles, Op. 33 No. 2 in C major - Scherzo.wav

Peak level 85.6 %
Extraction speed 7.6 X
Track quality 99.9 %
Test CRC A14365B2
Copy CRC A14365B2
Accurately ripped (confidence 8) [BF95A592] (AR v2)
Copy OK

Track 16

Filename D:\_Post\Larrocha\CD2\16 - Beethoven - Bagatelles, Op. 33 No. 3 in F major - Allegretto.wav

Peak level 68.5 %
Extraction speed 8.7 X
Track quality 100.0 %
Test CRC 8A72A02E
Copy CRC 8A72A02E
Accurately ripped (confidence 8) [98D44CA9] (AR v2)
Copy OK

Track 17

Filename D:\_Post\Larrocha\CD2\17 - Beethoven - Bagatelles, Op. 33 No. 4 in A major - Andante.wav

Peak level 39.3 %
Extraction speed 10.3 X
Track quality 100.0 %
Test CRC 347AEECA
Copy CRC 347AEECA
Accurately ripped (confidence 8) [B69C54F2] (AR v2)
Copy OK

Track 18

Filename D:\_Post\Larrocha\CD2\18 - Beethoven - Bagatelles, Op. 33 No. 5 in C major - Allegro, ma non troppo.wav

Peak level 96.7 %
Extraction speed 10.3 X
Track quality 100.0 %
Test CRC B3E9E9CB
Copy CRC B3E9E9CB
Accurately ripped (confidence 8) [FEDDBBA7] (AR v2)
Copy OK

Track 19

Filename D:\_Post\Larrocha\CD2\19 - Beethoven - Bagatelles, Op. 33 No. 6 in D major - Allegretto quasi andante.wav

Peak level 54.5 %
Extraction speed 10.4 X
Track quality 100.0 %
Test CRC E1328A6D
Copy CRC E1328A6D
Accurately ripped (confidence 8) [9E11CF26] (AR v2)
Copy OK

Track 20

Filename D:\_Post\Larrocha\CD2\20 - Beethoven - Bagatelles, Op. 33 No. 7 in A flat major - Presto.wav

Peak level 99.4 %
Extraction speed 10.1 X
Track quality 100.0 %
Test CRC 719D099F
Copy CRC 719D099F
Accurately ripped (confidence 8) [E33D8EC4] (AR v2)
Copy OK

Track 21

Filename D:\_Post\Larrocha\CD2\21 - Mendelssohn - Variations serieuses, Op. 54.wav

Pre-gap length 0:00:05.65

Peak level 93.2 %
Extraction speed 12.2 X
Track quality 100.0 %
Test CRC 7E725944
Copy CRC 7E725944
Accurately ripped (confidence 8) [033D93A0] (AR v2)
Copy OK


All tracks accurately ripped

No errors occurred

End of status report

–– CUETools DB Plugin V2.1.6

[CTDB TOCID: L12Uo8Z8sj3wm2.ScXjk4PD1lpg-] found
Submit result: L12Uo8Z8sj3wm2.ScXjk4PD1lpg- has been confirmed
Track | CTDB Status
1 | (4/4) Accurately ripped
2 | (4/4) Accurately ripped
3 | (4/4) Accurately ripped
4 | (4/4) Accurately ripped
5 | (4/4) Accurately ripped
6 | (4/4) Accurately ripped
7 | (4/4) Accurately ripped
8 | (4/4) Accurately ripped
9 | (4/4) Accurately ripped
10 | (4/4) Accurately ripped
11 | (4/4) Accurately ripped
12 | (4/4) Accurately ripped
13 | (4/4) Accurately ripped
14 | (4/4) Accurately ripped
15 | (4/4) Accurately ripped
16 | (4/4) Accurately ripped
17 | (4/4) Accurately ripped
18 | (4/4) Accurately ripped
19 | (4/4) Accurately ripped
20 | (4/4) Accurately ripped
21 | (4/4) Accurately ripped


==== Log checksum B566605AB37D2BC2E644BE6B114D59AFB0C0EDDDA32377AD382F40F9EF3C7069 ====
Exact Audio Copy V1.1 from 23. June 2015

EAC extraction logfile from 17. June 2016, 18:19

Alicia de Larrocha / The Art of Alicia de Larrocha (CD3)

Used drive : ASUS DRW-24B1ST i Adapter: 1 ID: 0

Read mode : Secure
Utilize accurate stream : Yes
Defeat audio cache : Yes
Make use of C2 pointers : No

Read offset correction : 6
Overread into Lead-In and Lead-Out : No
Fill up missing offset samples with silence : Yes
Delete leading and trailing silent blocks : No
Null samples used in CRC calculations : Yes
Used interface : Native Win32 interface for Win NT & 2000
Gap handling : Appended to previous track

Used output format : User Defined Encoder
Selected bitrate : 128 kBit/s
Quality : High
Add ID3 tag : No
Command line compressor : C:\Program Files (x86)\Exact Audio Copy\Flac\flac.exe
Additional command line options : -8 -V -T "ARTIST=%artist%" -T "TITLE=%title%" -T "ALBUM=%albumtitle%" -T "DATE=%year%" -T "TRACKNUMBER=%tracknr%" -T "TOTALTRACKS=%numtracks%" -T "GENRE=%genre%" -T "ALBUMARTIST=%albumartist%" -T "ALBUM ARTIST=%albumartist%" -T "COMMENT=EAC Secure Mode, Test & Copy, AccurateRip, FLAC -8" %source%


TOC of the extracted CD

Track | Start | Length | Start sector | End sector
––––––––––––––––––––––––––––-
1 | 0:00.00 | 0:40.42 | 0 | 3041
2 | 0:40.42 | 2:13.02 | 3042 | 13018
3 | 2:53.44 | 0:51.68 | 13019 | 16911
4 | 3:45.37 | 1:55.25 | 16912 | 25561
5 | 5:40.62 | 0:36.08 | 25562 | 28269
6 | 6:16.70 | 2:12.48 | 28270 | 38217
7 | 8:29.43 | 0:46.32 | 38218 | 41699
8 | 9:16.00 | 1:48.52 | 41700 | 49851
9 | 11:04.52 | 1:34.30 | 49852 | 56931
10 | 12:39.07 | 0:29.71 | 56932 | 59177
11 | 13:09.03 | 0:46.67 | 59178 | 62694
12 | 13:55.70 | 1:08.48 | 62695 | 67842
13 | 15:04.43 | 3:10.53 | 67843 | 82145
14 | 18:15.21 | 0:29.16 | 82146 | 84336
15 | 18:44.37 | 5:42.35 | 84337 | 110021
16 | 24:26.72 | 1:09.01 | 110022 | 115197
17 | 25:35.73 | 3:39.12 | 115198 | 131634
18 | 29:15.10 | 1:00.63 | 131635 | 136197
19 | 30:15.73 | 1:13.34 | 136198 | 141706
20 | 31:29.32 | 2:01.14 | 141707 | 150795
21 | 33:30.46 | 2:04.34 | 150796 | 160129
22 | 35:35.05 | 0:44.18 | 160130 | 163447
23 | 36:19.23 | 1:00.71 | 163448 | 168018
24 | 37:20.19 | 2:42.07 | 168019 | 180175
25 | 40:02.26 | 4:50.15 | 180176 | 201940
26 | 44:52.41 | 15:24.06 | 201941 | 271246
27 | 60:16.47 | 9:35.42 | 271247 | 314413
28 | 69:52.14 | 8:47.42 | 314414 | 353980


Track 1

Filename D:\_Post\Larrocha\CD3\01 - Chopin - 24 Preludes, Op. 28 No. 1 in C major - Agitato.wav

Pre-gap length 0:00:02.00

Peak level 55.1 %
Extraction speed 1.2 X
Track quality 100.0 %
Test CRC A9CD0B73
Copy CRC A9CD0B73
Accurately ripped (confidence 6) [2C11B0E0] (AR v2)
Copy OK

Track 2

Filename D:\_Post\Larrocha\CD3\02 - Chopin - 24 Preludes, Op. 28 No. 2 in A minor - Lento.wav

Peak level 18.1 %
Extraction speed 1.9 X
Track quality 100.0 %
Test CRC 1A6F7A71
Copy CRC 1A6F7A71
Accurately ripped (confidence 6) [4FCA71BE] (AR v2)
Copy OK

Track 3

Filename D:\_Post\Larrocha\CD3\03 - Chopin- 24 Preludes, Op. 28 No. 3 in G major - Vivace.wav

Peak level 42.5 %
Extraction speed 1.5 X
Track quality 100.0 %
Test CRC 9A81D275
Copy CRC 9A81D275
Accurately ripped (confidence 6) [CEF6DEBB] (AR v2)
Copy OK

Track 4

Filename D:\_Post\Larrocha\CD3\04 - Chopin - 24 Preludes, Op. 28 No. 4 in E minor - Largo.wav

Peak level 51.1 %
Extraction speed 1.9 X
Track quality 100.0 %
Test CRC A901AD5D
Copy CRC A901AD5D
Accurately ripped (confidence 6) [EEF391FA] (AR v2)
Copy OK

Track 5

Filename D:\_Post\Larrocha\CD3\05 - Chopin - 24 Preludes, Op. 28 No. 5 in D major - Allegro molto.wav

Peak level 53.9 %
Extraction speed 1.3 X
Track quality 100.0 %
Test CRC 6C507BCC
Copy CRC 6C507BCC
Accurately ripped (confidence 6) [4D9BFE0A] (AR v2)
Copy OK

Track 6

Filename D:\_Post\Larrocha\CD3\06 - Chopin - 24 Preludes, Op. 28 No. 6 in B minor - Lento assai.wav

Peak level 34.9 %
Extraction speed 2.1 X
Track quality 100.0 %
Test CRC 667C50C9
Copy CRC 667C50C9
Accurately ripped (confidence 6) [6E8E192A] (AR v2)
Copy OK

Track 7

Filename D:\_Post\Larrocha\CD3\07 - Chopin - 24 Preludes, Op. 28 No. 7 in A major - Andantino.wav

Peak level 35.8 %
Extraction speed 1.5 X
Track quality 100.0 %
Test CRC 03A91256
Copy CRC 03A91256
Accurately ripped (confidence 6) [70517BD0] (AR v2)
Copy OK

Track 8

Filename D:\_Post\Larrocha\CD3\08 - Chopin - 24 Preludes, Op. 28 No. 8 in F-sharp minor - Molto agitato.wav

Peak level 63.3 %
Extraction speed 2.1 X
Track quality 100.0 %
Test CRC 1AE91C6B
Copy CRC 1AE91C6B
Accurately ripped (confidence 6) [6AA08E72] (AR v2)
Copy OK

Track 9

Filename D:\_Post\Larrocha\CD3\09 - Chopin - 24 Preludes, Op. 28 No. 9 in E major - Largo.wav

Peak level 69.3 %
Extraction speed 2.1 X
Track quality 100.0 %
Test CRC AC648C59
Copy CRC AC648C59
Accurately ripped (confidence 6) [B3099993] (AR v2)
Copy OK

Track 10

Filename D:\_Post\Larrocha\CD3\10 - Chopin - 24 Preludes, Op. 28 No. 10 in C-sharp minor - Allegro molto.wav

Peak level 45.9 %
Extraction speed 1.3 X
Track quality 100.0 %
Test CRC 19611AF6
Copy CRC 19611AF6
Accurately ripped (confidence 6) [73DA9E5A] (AR v2)
Copy OK

Track 11

Filename D:\_Post\Larrocha\CD3\11 - Chopin - 24 Preludes, Op. 28 No. 11 in B major - Vivace.wav

Peak level 52.7 %
Extraction speed 1.7 X
Track quality 100.0 %
Test CRC 5588ABF0
Copy CRC 5588ABF0
Accurately ripped (confidence 6) [25FBC8F5] (AR v2)
Copy OK

Track 12

Filename D:\_Post\Larrocha\CD3\12 - Chopin - 24 Preludes, Op. 28 No. 12 in G-sharp minor - Presto.wav

Peak level 95.8 %
Extraction speed 2.0 X
Track quality 100.0 %
Test CRC 14799467
Copy CRC 14799467
Accurately ripped (confidence 6) [3866BB3C] (AR v2)
Copy OK

Track 13

Filename D:\_Post\Larrocha\CD3\13 - Chopin - 24 Preludes, Op. 28 No. 13 in F-sharp minor - Lento.wav

Peak level 24.9 %
Extraction speed 2.6 X
Track quality 100.0 %
Test CRC 8316F109
Copy CRC 8316F109
Accurately ripped (confidence 6) [7EA5D63C] (AR v2)
Copy OK

Track 14

Filename D:\_Post\Larrocha\CD3\14 - Chopin - 24 Preludes, Op. 28 No. 14 in E-flat minor - Allegro.wav

Peak level 67.3 %
Extraction speed 0.5 X
Track quality 99.6 %
Test CRC 7C9CC3D0
Copy CRC 7C9CC3D0
Accurately ripped (confidence 6) [669C0A31] (AR v2)
Copy OK

Track 15

Filename D:\_Post\Larrocha\CD3\15 - Chopin - 24 Preludes, Op. 28 No. 15 in D-flat major - Sostenuto.wav

Peak level 76.4 %
Extraction speed 3.1 X
Track quality 100.0 %
Test CRC 87F60764
Copy CRC 87F60764
Accurately ripped (confidence 6) [377A22E7] (AR v2)
Copy OK

Track 16

Filename D:\_Post\Larrocha\CD3\16 - Chopin - 24 Preludes, Op. 28 No. 16 in B-flat minor - Presto con fuoco.wav

Peak level 68.9 %
Extraction speed 1.1 X
Track quality 99.8 %
Test CRC 8E3E20F2
Copy CRC 8E3E20F2
Accurately ripped (confidence 6) [9FC5CE28] (AR v2)
Copy OK

Track 17

Filename D:\_Post\Larrocha\CD3\17 - Chopin - 24 Preludes, Op. 28 No. 17 in A-flat major - Allegretto.wav

Peak level 45.8 %
Extraction speed 3.1 X
Track quality 100.0 %
Test CRC C57E51FC
Copy CRC C57E51FC
Accurately ripped (confidence 6) [486B64B2] (AR v2)
Copy OK

Track 18

Filename D:\_Post\Larrocha\CD3\18 - Chopin - 24 Preludes, Op. 28 No. 18 in F minor - Allegro molto.wav

Peak level 84.0 %
Extraction speed 2.3 X
Track quality 100.0 %
Test CRC EC6D99DC
Copy CRC EC6D99DC
Accurately ripped (confidence 6) [FA0CF19F] (AR v2)
Copy OK

Track 19

Filename D:\_Post\Larrocha\CD3\19 - Chopin - 24 Preludes, Op. 28 No. 19 in E-flat major - Vivace.wav

Peak level 58.1 %
Extraction speed 2.5 X
Track quality 100.0 %
Test CRC DAB52D3F
Copy CRC DAB52D3F
Accurately ripped (confidence 6) [A75554DE] (AR v2)
Copy OK

Track 20

Filename D:\_Post\Larrocha\CD3\20 - Chopin - 24 Preludes, Op. 28 No. 20 in C minor - Largo.wav

Peak level 39.0 %
Extraction speed 1.7 X
Track quality 99.9 %
Test CRC E3F5E8B2
Copy CRC E3F5E8B2
Accurately ripped (confidence 6) [A00253E0] (AR v2)
Copy OK

Track 21

Filename D:\_Post\Larrocha\CD3\21 - Chopin - 24 Preludes, Op. 28 No. 21 in B-flat major - Cantabile.wav

Peak level 64.6 %
Extraction speed 3.0 X
Track quality 100.0 %
Test CRC 765F294F
Copy CRC 765F294F
Accurately ripped (confidence 6) [54F4D3F5] (AR v2)
Copy OK

Track 22

Filename D:\_Post\Larrocha\CD3\22 - Chopin - 24 Preludes, Op. 28 No. 22 in G minor - Molto agitato.wav

Peak level 64.2 %
Extraction speed 2.1 X
Track quality 100.0 %
Test CRC 8F1D30B7
Copy CRC 8F1D30B7
Accurately ripped (confidence 6) [2C62DF91] (AR v2)
Copy OK

Track 23

Filename D:\_Post\Larrocha\CD3\23 - Chopin - 24 Preludes, Op. 28 No. 23 in F major - Moderato.wav

Peak level 23.4 %
Extraction speed 2.4 X
Track quality 100.0 %
Test CRC F839A467
Copy CRC F839A467
Accurately ripped (confidence 6) [118F386D] (AR v2)
Copy OK

Track 24

Filename D:\_Post\Larrocha\CD3\24 - Chopin - 24 Preludes, Op. 28 No. 24 in D minor - Allegro appassionato.wav

Peak level 72.1 %
Extraction speed 3.3 X
Track quality 100.0 %
Test CRC 67A3B413
Copy CRC 67A3B413
Accurately ripped (confidence 6) [2B67283E] (AR v2)
Copy OK

Track 25

Filename D:\_Post\Larrocha\CD3\25 - Chopin - Berceuse, Op. 57.wav

Pre-gap length 0:00:05.24

Peak level 27.5 %
Extraction speed 3.7 X
Track quality 100.0 %
Test CRC 437966BB
Copy CRC 437966BB
Accurately ripped (confidence 6) [0AF0972F] (AR v2)
Copy OK

Track 26

Filename D:\_Post\Larrocha\CD3\26 - Chopin - Piano Concerto No. 2 in F minor, Op. 21 - I. Maestoso.wav

Pre-gap length 0:00:00.37

Peak level 81.5 %
Extraction speed 4.3 X
Track quality 100.0 %
Test CRC A1977BBD
Copy CRC A1977BBD
Accurately ripped (confidence 6) [50124076] (AR v2)
Copy OK

Track 27

Filename D:\_Post\Larrocha\CD3\27 - Chopin - Piano Concerto No. 2 in F minor, Op. 21 - II. Larghetto.wav

Peak level 63.4 %
Extraction speed 4.5 X
Track quality 100.0 %
Test CRC 339E2D81
Copy CRC 339E2D81
Accurately ripped (confidence 6) [8E95600E] (AR v2)
Copy OK

Track 28

Filename D:\_Post\Larrocha\CD3\28 - Chopin - Piano Concerto No. 2 in F minor, Op. 21 - III. Allegro vivace.wav

Peak level 90.0 %
Extraction speed 4.1 X
Track quality 99.9 %
Test CRC 388C2827
Copy CRC 388C2827
Accurately ripped (confidence 6) [33066D2B] (AR v2)
Copy OK


All tracks accurately ripped

No errors occurred

End of status report

–– CUETools DB Plugin V2.1.6

[CTDB TOCID: rOk9MgYnMjuLu8uD93XLNpJov8w-] found
Submit result: already submitted
Track | CTDB Status
1 | (6/6) Accurately ripped
2 | (6/6) Accurately ripped
3 | (6/6) Accurately ripped
4 | (6/6) Accurately ripped
5 | (6/6) Accurately ripped
6 | (6/6) Accurately ripped
7 | (6/6) Accurately ripped
8 | (6/6) Accurately ripped
9 | (6/6) Accurately ripped
10 | (6/6) Accurately ripped
11 | (6/6) Accurately ripped
12 | (6/6) Accurately ripped
13 | (6/6) Accurately ripped
14 | (6/6) Accurately ripped
15 | (6/6) Accurately ripped
16 | (6/6) Accurately ripped
17 | (6/6) Accurately ripped
18 | (6/6) Accurately ripped
19 | (6/6) Accurately ripped
20 | (6/6) Accurately ripped
21 | (6/6) Accurately ripped
22 | (6/6) Accurately ripped
23 | (6/6) Accurately ripped
24 | (6/6) Accurately ripped
25 | (6/6) Accurately ripped
26 | (6/6) Accurately ripped
27 | (6/6) Accurately ripped
28 | (6/6) Accurately ripped


==== Log checksum F91AAC82F43BAAF45C06C03571F7372CB47D41C20CB50F404D2DCC0C804FD5D8 ====
Exact Audio Copy V1.1 from 23. June 2015

EAC extraction logfile from 17. June 2016, 19:09

Alicia de Larrocha / The Art of Alicia de Larrocha (CD4)

Used drive : ASUS DRW-24B1ST i Adapter: 1 ID: 0

Read mode : Secure
Utilize accurate stream : Yes
Defeat audio cache : Yes
Make use of C2 pointers : No

Read offset correction : 6
Overread into Lead-In and Lead-Out : No
Fill up missing offset samples with silence : Yes
Delete leading and trailing silent blocks : No
Null samples used in CRC calculations : Yes
Used interface : Native Win32 interface for Win NT & 2000
Gap handling : Appended to previous track

Used output format : User Defined Encoder
Selected bitrate : 128 kBit/s
Quality : High
Add ID3 tag : No
Command line compressor : C:\Program Files (x86)\Exact Audio Copy\Flac\flac.exe
Additional command line options : -8 -V -T "ARTIST=%artist%" -T "TITLE=%title%" -T "ALBUM=%albumtitle%" -T "DATE=%year%" -T "TRACKNUMBER=%tracknr%" -T "TOTALTRACKS=%numtracks%" -T "GENRE=%genre%" -T "ALBUMARTIST=%albumartist%" -T "ALBUM ARTIST=%albumartist%" -T "COMMENT=EAC Secure Mode, Test & Copy, AccurateRip, FLAC -8" %source%


TOC of the extracted CD

Track | Start | Length | Start sector | End sector
––––––––––––––––––––––––––––-
1 | 0:00.00 | 19:13.61 | 0 | 86535
2 | 19:13.61 | 8:32.43 | 86536 | 124978
3 | 27:46.29 | 4:06.46 | 124979 | 143474
4 | 31:53.00 | 8:14.63 | 143475 | 180587
5 | 40:07.63 | 7:43.74 | 180588 | 215386
6 | 47:51.62 | 12:10.46 | 215387 | 270182
7 | 60:02.33 | 6:59.64 | 270183 | 301671
8 | 67:02.22 | 10:51.53 | 301672 | 350549


Track 1

Filename D:\_Post\Larrocha\CD4\01 - Schubert - Piano Sonata in B flat major, D960 - I. Molto moderato.wav

Pre-gap length 0:00:02.00

Peak level 99.4 %
Extraction speed 2.7 X
Track quality 100.0 %
Test CRC CEBF0F0F
Copy CRC CEBF0F0F
Accurately ripped (confidence 7) [61D6B7F9] (AR v2)
Copy OK

Track 2

Filename D:\_Post\Larrocha\CD4\02 - Schubert - Piano Sonata in B flat major, D960 - II. Andante sostenuto.wav

Peak level 34.2 %
Extraction speed 2.8 X
Track quality 99.9 %
Test CRC A2A148AE
Copy CRC A2A148AE
Accurately ripped (confidence 7) [9596CE4C] (AR v2)
Copy OK

Track 3

Filename D:\_Post\Larrocha\CD4\03 - Schubert - Piano Sonata in B flat major, D960 - III. Scherzo. Allegro vivace con delicatezza.wav

Peak level 47.7 %
Extraction speed 3.2 X
Track quality 100.0 %
Test CRC D2C2B5EA
Copy CRC D2C2B5EA
Accurately ripped (confidence 7) [C02DD823] (AR v2)
Copy OK

Track 4

Filename D:\_Post\Larrocha\CD4\04 - Schubert - Piano Sonata in B flat major, D960 - IV. Allegro, ma non troppo.wav

Peak level 99.4 %
Extraction speed 3.7 X
Track quality 100.0 %
Test CRC C03CF96B
Copy CRC C03CF96B
Accurately ripped (confidence 7) [5EAB1444] (AR v2)
Copy OK

Track 5

Filename D:\_Post\Larrocha\CD4\05 - Schubert - Impromptu in A flat major, D899-4.wav

Pre-gap length 0:00:06.64

Peak level 99.4 %
Extraction speed 3.9 X
Track quality 100.0 %
Test CRC C3CCA9A7
Copy CRC C3CCA9A7
Accurately ripped (confidence 7) [CAF0C8E5] (AR v2)
Copy OK

Track 6

Filename D:\_Post\Larrocha\CD4\06 - Liszt - Piano Sonata in B minor - I. Lento assai - Allegro energico - Grandioso - Recitativo.wav

Pre-gap length 0:00:05.64

Peak level 90.8 %
Extraction speed 4.3 X
Track quality 100.0 %
Test CRC 1207A561
Copy CRC 1207A561
Accurately ripped (confidence 7) [D58A65E6] (AR v2)
Copy OK

Track 7

Filename D:\_Post\Larrocha\CD4\07 - Liszt - Piano Sonata in B minor - II. Andante sostenuto.wav

Peak level 96.2 %
Extraction speed 4.3 X
Track quality 100.0 %
Test CRC DF2C6FB4
Copy CRC DF2C6FB4
Accurately ripped (confidence 7) [DCBEEE46] (AR v2)
Copy OK

Track 8

Filename D:\_Post\Larrocha\CD4\08 - Liszt - Piano Sonata in B minor - III. Allegro energico - Andante sostenuto - Lento assai.wav

Peak level 98.3 %
Extraction speed 4.1 X
Track quality 99.9 %
Test CRC 16C32A16
Copy CRC 16C32A16
Accurately ripped (confidence 7) [7FC21834] (AR v2)
Copy OK


All tracks accurately ripped

No errors occurred

End of status report

–– CUETools DB Plugin V2.1.6

[CTDB TOCID: rhrWXfanKbW6gyHBK4.mZHARklY-] found
Submit result: rhrWXfanKbW6gyHBK4.mZHARklY- has been confirmed
Track | CTDB Status
1 | (1/1) Accurately ripped
2 | (1/1) Accurately ripped
3 | (1/1) Accurately ripped
4 | (1/1) Accurately ripped
5 | (1/1) Accurately ripped
6 | (1/1) Accurately ripped
7 | (1/1) Accurately ripped
8 | (1/1) Accurately ripped


==== Log checksum 65607B78546DA106BDAE2284429B7007F14F42BFE78FED8D003799813C38E554 ====
Exact Audio Copy V1.1 from 23. June 2015

EAC extraction logfile from 17. June 2016, 20:00

Alicia de Larrocha / The Art of Alicia de Larrocha (CD5)

Used drive : ASUS DRW-24B1ST i Adapter: 1 ID: 0

Read mode : Secure
Utilize accurate stream : Yes
Defeat audio cache : Yes
Make use of C2 pointers : No

Read offset correction : 6
Overread into Lead-In and Lead-Out : No
Fill up missing offset samples with silence : Yes
Delete leading and trailing silent blocks : No
Null samples used in CRC calculations : Yes
Used interface : Native Win32 interface for Win NT & 2000
Gap handling : Appended to previous track

Used output format : User Defined Encoder
Selected bitrate : 128 kBit/s
Quality : High
Add ID3 tag : No
Command line compressor : C:\Program Files (x86)\Exact Audio Copy\Flac\flac.exe
Additional command line options : -8 -V -T "ARTIST=%artist%" -T "TITLE=%title%" -T "ALBUM=%albumtitle%" -T "DATE=%year%" -T "TRACKNUMBER=%tracknr%" -T "TOTALTRACKS=%numtracks%" -T "GENRE=%genre%" -T "ALBUMARTIST=%albumartist%" -T "ALBUM ARTIST=%albumartist%" -T "COMMENT=EAC Secure Mode, Test & Copy, AccurateRip, FLAC -8" %source%


TOC of the extracted CD

Track | Start | Length | Start sector | End sector
––––––––––––––––––––––––––––-
1 | 0:00.00 | 13:35.06 | 0 | 61130
2 | 13:35.06 | 8:13.20 | 61131 | 98125
3 | 21:48.26 | 10:13.49 | 98126 | 144149
4 | 32:02.00 | 9:59.72 | 144150 | 189146
5 | 42:01.72 | 3:34.58 | 189147 | 205254
6 | 45:36.55 | 16:09.11 | 205255 | 277940
7 | 61:45.66 | 5:23.22 | 277941 | 302187
8 | 67:09.13 | 11:45.33 | 302188 | 355095


Track 1

Filename D:\_Post\Larrocha\CD5\01 - Schumann - Fantasie in C major, Op. 17 - I. Durchaus phantastisch und leidenschaftlich vorzutragen.wav

Pre-gap length 0:00:02.00

Peak level 99.4 %
Extraction speed 2.3 X
Track quality 99.9 %
Test CRC C358D291
Copy CRC C358D291
Accurately ripped (confidence 18) [83C1DA88] (AR v2)
Copy OK

Track 2

Filename D:\_Post\Larrocha\CD5\02 - Schumann - Fantasie in C major, Op. 17 - II. Massig. Durchaus energisch.wav

Peak level 86.1 %
Extraction speed 3.0 X
Track quality 100.0 %
Test CRC 3D3D1FF3
Copy CRC 3D3D1FF3
Accurately ripped (confidence 18) [CAF15CB0] (AR v2)
Copy OK

Track 3

Filename D:\_Post\Larrocha\CD5\03 - Schumann - Fantasie in C major, Op. 17 - III. Langsam getragen. Durchweg leise zu halten.wav

Peak level 99.4 %
Extraction speed 3.4 X
Track quality 100.0 %
Test CRC F98F4A0D
Copy CRC F98F4A0D
Accurately ripped (confidence 18) [2C8B2338] (AR v2)
Copy OK

Track 4

Filename D:\_Post\Larrocha\CD5\04 - Schumann - Allegro, Op. 8.wav

Pre-gap length 0:00:06.64

Peak level 99.4 %
Extraction speed 3.7 X
Track quality 100.0 %
Test CRC 14EB74CB
Copy CRC 14EB74CB
Accurately ripped (confidence 18) [F8C9FCC5] (AR v2)
Copy OK

Track 5

Filename D:\_Post\Larrocha\CD5\05 - Schumann - Romance, Op. 28 No. 2.wav

Pre-gap length 0:00:04.64

Peak level 47.5 %
Extraction speed 2.5 X
Track quality 99.9 %
Test CRC 62CD3D12
Copy CRC 62CD3D12
Accurately ripped (confidence 18) [E908C1CD] (AR v2)
Copy OK

Track 6

Filename D:\_Post\Larrocha\CD5\06 - Schumann - Piano Concerto in A minor, Op. 54 - I. Allegro affettuoso.wav

Pre-gap length 0:00:06.63

Peak level 99.4 %
Extraction speed 4.3 X
Track quality 100.0 %
Test CRC 398A6B74
Copy CRC 398A6B74
Accurately ripped (confidence 18) [4F1C90C5] (AR v2)
Copy OK

Track 7

Filename D:\_Post\Larrocha\CD5\07 - Schumann - Piano Concerto in A minor, Op. 54 - II. Intermezzo. Andantino grazioso.wav

Peak level 33.5 %
Extraction speed 4.3 X
Track quality 100.0 %
Test CRC C9770F20
Copy CRC C9770F20
Accurately ripped (confidence 18) [46859009] (AR v2)
Copy OK

Track 8

Filename D:\_Post\Larrocha\CD5\08 - Schumann - Piano Concerto in A minor, Op. 54 - III. Allegro vivace.wav

Peak level 99.0 %
Extraction speed 4.7 X
Track quality 100.0 %
Test CRC EAA14617
Copy CRC EAA14617
Accurately ripped (confidence 18) [3679C770] (AR v2)
Copy OK


All tracks accurately ripped

No errors occurred

End of status report

–– CUETools DB Plugin V2.1.6

[CTDB TOCID: chn3xgr4.JJkQ51VXKAEX1frBgo-] found
Submit result: chn3xgr4.JJkQ51VXKAEX1frBgo- has been confirmed
Track | CTDB Status
1 | (22/22) Accurately ripped
2 | (22/22) Accurately ripped
3 | (22/22) Accurately ripped
4 | (22/22) Accurately ripped
5 | (22/22) Accurately ripped
6 | (22/22) Accurately ripped
7 | (22/22) Accurately ripped
8 | (20/22) Accurately ripped, or (1/22) differs in 4693 samples @10:41:11-10:41:12,10:41:33,10:41:56-10:41:57,10:42:04,10:42:26-10:42:27,10:42:71-10:42:72,10:43:19-10:43:20,10:43:64-10:43:65,10:44:12,10:44:34-10:44:35,10:44:57-10:44:58,10:45:27-10:45:28,10:45:50,10:45:72-10:45:73,10:46:20-10:46:21,10:46:42-10:46:43,10:46:65-10:46:66,10:47:12-10:47:13,10:47:35-10:47:36,10:47:58,10:48:05-10:48:06,10:48:28-10:48:29,10:48:50-10:48:51,10:48:73-10:48:74,10:49:21-10:49:22,10:49:43-10:49:44,10:49:66-10:49:67,10:50:13-10:50:14,10:50:36-10:50:37,10:50:59-10:50:60,10:51:06-10:51:07,10:51:29,10:51:51-10:51:52,10:51:74-10:52:00,10:52:22-10:52:23,10:52:44-10:52:45,10:52:67-10:52:68,10:53:14-10:53:15,10:53:37-10:53:38,10:53:60-10:53:61,10:54:07-10:54:08,10:54:30-10:54:31,10:54:53,10:55:00-10:55:01,10:55:23-10:55:24,10:55:45-10:55:46,10:55:68,10:56:16,10:56:38-10:56:39,10:56:61-10:56:62,10:57:08-10:57:09,10:57:31-10:57:32,10:57:54,10:58:01-10:58:02,10:58:24-10:58:25,10:58:46-10:58:47,10:58:69-10:58:70,10:59:17-10:59:18,10:59:39-10:59:40,10:59:62-10:59:63,11:00:10,11:00:32-11:00:33,11:00:55-11:00:56,11:01:02,11:01:25,11:01:48,11:01:70-11:01:71,11:02:18,11:02:41,11:02:63-11:02:64,11:03:11-11:03:12,11:03:33-11:03:34,11:03:56-11:03:57,11:04:04,11:04:26-11:04:27,11:04:49-11:04:50,11:04:72,11:05:19-11:05:20,11:05:42-11:05:43,11:05:64-11:05:65,11:06:12-11:06:13,11:06:57-11:06:58,11:07:05-11:07:06,11:07:28,11:07:50-11:07:51,11:07:73-11:07:74,11:08:20-11:08:21,11:08:43-11:08:44,11:08:66-11:08:67,11:09:13-11:09:14,11:09:36-11:09:37,11:09:59-11:09:60,11:10:06-11:10:07,11:10:29-11:10:30,11:10:52,11:10:74-11:11:00,11:11:22-11:11:23,11:11:44-11:11:45,11:11:67-11:11:68,11:12:15,11:12:37-11:12:38,11:13:08,11:13:30-11:13:31,11:13:53-11:13:54,11:14:23-11:14:24,11:14:46-11:14:47,11:16:09-11:16:10,11:16:55,11:17:02-11:17:03,11:17:25,11:17:48,11:17:70-11:17:71,11:18:18,11:18:41,11:18:63,11:19:33-11:19:34,11:19:56-11:19:57,11:23:73-11:23:74


==== Log checksum 64CDE1278BB84E2AD33F090B3BB12852E44B839C97408003561BF8215B493A08 ====
Exact Audio Copy V1.1 from 23. June 2015

EAC extraction logfile from 17. June 2016, 21:10

Alicia de Larrocha / The Art of Alicia de Larrocha (CD6)

Used drive : ASUS DRW-24B1ST i Adapter: 1 ID: 0

Read mode : Secure
Utilize accurate stream : Yes
Defeat audio cache : Yes
Make use of C2 pointers : No

Read offset correction : 6
Overread into Lead-In and Lead-Out : No
Fill up missing offset samples with silence : Yes
Delete leading and trailing silent blocks : No
Null samples used in CRC calculations : Yes
Used interface : Native Win32 interface for Win NT & 2000
Gap handling : Appended to previous track

Used output format : User Defined Encoder
Selected bitrate : 128 kBit/s
Quality : High
Add ID3 tag : No
Command line compressor : C:\Program Files (x86)\Exact Audio Copy\Flac\flac.exe
Additional command line options : -8 -V -T "ARTIST=%artist%" -T "TITLE=%title%" -T "ALBUM=%albumtitle%" -T "DATE=%year%" -T "TRACKNUMBER=%tracknr%" -T "TOTALTRACKS=%numtracks%" -T "GENRE=%genre%" -T "ALBUMARTIST=%albumartist%" -T "ALBUM ARTIST=%albumartist%" -T "COMMENT=EAC Secure Mode, Test & Copy, AccurateRip, FLAC -8" %source%


TOC of the extracted CD

Track | Start | Length | Start sector | End sector
––––––––––––––––––––––––––––-
1 | 0:00.00 | 4:05.32 | 0 | 18406
2 | 4:05.32 | 4:35.42 | 18407 | 39073
3 | 8:40.74 | 3:26.69 | 39074 | 54592
4 | 12:07.68 | 4:03.09 | 54593 | 72826
5 | 16:11.02 | 5:53.11 | 72827 | 99312
6 | 22:04.13 | 4:23.31 | 99313 | 119068
7 | 26:27.44 | 3:49.21 | 119069 | 136264
8 | 30:16.65 | 4:35.06 | 136265 | 156895
9 | 34:51.71 | 3:32.07 | 156896 | 172802
10 | 38:24.03 | 4:08.10 | 172803 | 191412
11 | 42:32.13 | 2:13.29 | 191413 | 201416
12 | 44:45.42 | 2:22.21 | 201417 | 212087
13 | 47:07.63 | 2:41.15 | 212088 | 224177
14 | 49:49.03 | 5:47.49 | 224178 | 250251
15 | 55:36.52 | 4:07.15 | 250252 | 268791
16 | 59:43.67 | 8:42.48 | 268792 | 307989
17 | 68:26.40 | 12:43.40 | 307990 | 365254


Track 1

Filename D:\_Post\Larrocha\CD6\01 - Soler - Sonata in G minor, SR 42 - Allegro.wav

Pre-gap length 0:00:02.00

Peak level 82.7 %
Extraction speed 5.7 X
Track quality 100.0 %
Test CRC 9E11DE87
Copy CRC 9E11DE87
Accurately ripped (confidence 3) [6CCE3303] (AR v2)
Copy OK

Track 2

Filename D:\_Post\Larrocha\CD6\02 - Soler - Sonata in D minor, SR 15 - Allegretto mosso.wav

Peak level 65.0 %
Extraction speed 5.5 X
Track quality 99.9 %
Test CRC 14D033E4
Copy CRC 14D033E4
Accurately ripped (confidence 3) [AF5D2E8A] (AR v2)
Copy OK

Track 3

Filename D:\_Post\Larrocha\CD6\03 - Soler - Sonata in F major, SR 89 - Allegro.wav

Peak level 63.9 %
Extraction speed 6.5 X
Track quality 100.0 %
Test CRC 221E4AF7
Copy CRC 221E4AF7
Accurately ripped (confidence 3) [F114EDD5] (AR v2)
Copy OK

Track 4

Filename D:\_Post\Larrocha\CD6\04 - Turina - Zapateado (No.3 from Tres danzas andaluzas, op.8).wav

Pre-gap length 0:00:01.73

Peak level 86.0 %
Extraction speed 7.1 X
Track quality 100.0 %
Test CRC 1BAA637A
Copy CRC 1BAA637A
Accurately ripped (confidence 3) [2FCA4168] (AR v2)
Copy OK

Track 5

Filename D:\_Post\Larrocha\CD6\05 - Granados - Danzas espanolas, book 2, op.37 No.4 - Villanesca.wav

Pre-gap length 0:00:01.06

Peak level 55.3 %
Extraction speed 7.9 X
Track quality 100.0 %
Test CRC 803AF66C
Copy CRC 803AF66C
Accurately ripped (confidence 3) [36A85028] (AR v2)
Copy OK

Track 6

Filename D:\_Post\Larrocha\CD6\06 - Granados - Danzas espanolas, book 2, op.37 No.5 - Andaluza.wav

Peak level 76.0 %
Extraction speed 8.0 X
Track quality 100.0 %
Test CRC 226A0CB9
Copy CRC 226A0CB9
Accurately ripped (confidence 3) [3916B89C] (AR v2)
Copy OK

Track 7

Filename D:\_Post\Larrocha\CD6\07 - Granados - Danzas espanolas, book 2, op.37 No.6 - Rondalla aragonesa.wav

Peak level 93.9 %
Extraction speed 8.3 X
Track quality 100.0 %
Test CRC C296EECF
Copy CRC C296EECF
Accurately ripped (confidence 3) [D3EAC804] (AR v2)
Copy OK

Track 8

Filename D:\_Post\Larrocha\CD6\08 - Granados - El pelele.wav

Pre-gap length 0:00:02.00

Peak level 90.2 %
Extraction speed 8.7 X
Track quality 100.0 %
Test CRC A73E6F01
Copy CRC A73E6F01
Accurately ripped (confidence 3) [0A7F9FA4] (AR v2)
Copy OK

Track 9

Filename D:\_Post\Larrocha\CD6\09 - Montsalvatge - Sonatina para Yvette - I. Vivo e spiritoso.wav

Pre-gap length 0:00:02.60

Peak level 86.0 %
Extraction speed 8.8 X
Track quality 100.0 %
Test CRC 3F404B40
Copy CRC 3F404B40
Accurately ripped (confidence 3) [B4A620BA] (AR v2)
Copy OK

Track 10

Filename D:\_Post\Larrocha\CD6\10 - Montsalvatge - Sonatina para Yvette - II. Moderato molto.wav

Peak level 53.9 %
Extraction speed 9.2 X
Track quality 100.0 %
Test CRC 62E208C6
Copy CRC 62E208C6
Accurately ripped (confidence 3) [8901249F] (AR v2)
Copy OK

Track 11

Filename D:\_Post\Larrocha\CD6\11 - Montsalvatge - Sonatina para Yvette - III. Allegretto.wav

Peak level 70.8 %
Extraction speed 8.5 X
Track quality 100.0 %
Test CRC 2D983BDC
Copy CRC 2D983BDC
Accurately ripped (confidence 3) [BF7ABEC9] (AR v2)
Copy OK

Track 12

Filename D:\_Post\Larrocha\CD6\12 - Mompou- Prelude VII (a Alicia de Larrocha).wav

Pre-gap length 0:00:03.43

Peak level 21.7 %
Extraction speed 8.7 X
Track quality 100.0 %
Test CRC 94C54E3F
Copy CRC 94C54E3F
Accurately ripped (confidence 3) [75DA4DF9] (AR v2)
Copy OK

Track 13

Filename D:\_Post\Larrocha\CD6\13 - Albaniz - Tango (No.2 from Espana, op.165).wav

Pre-gap length 0:00:07.07

Peak level 31.5 %
Extraction speed 9.1 X
Track quality 100.0 %
Test CRC 5C06BB29
Copy CRC 5C06BB29
Accurately ripped (confidence 3) [4E33E29C] (AR v2)
Copy OK

Track 14

Filename D:\_Post\Larrocha\CD6\14 - Albaniz - Iberia, book 1 - I. Evocacion.wav

Pre-gap length 0:00:01.72

Peak level 85.0 %
Extraction speed 10.2 X
Track quality 100.0 %
Test CRC 9287A021
Copy CRC 9287A021
Accurately ripped (confidence 3) [515CFDAD] (AR v2)
Copy OK

Track 15

Filename D:\_Post\Larrocha\CD6\15 - Albaniz - Iberia, book 1 - II. El puerto.wav

Peak level 74.1 %
Extraction speed 10.2 X
Track quality 100.0 %
Test CRC 627DB943
Copy CRC 627DB943
Accurately ripped (confidence 3) [C4D2DC18] (AR v2)
Copy OK

Track 16

Filename D:\_Post\Larrocha\CD6\16 - Albaniz - Iberia, book 1 - III. El Corpus Christi en Sevilla.wav

Peak level 97.7 %
Extraction speed 11.3 X
Track quality 100.0 %
Test CRC F8542B22
Copy CRC F8542B22
Accurately ripped (confidence 3) [63E10D7C] (AR v2)
Copy OK

Track 17

Filename D:\_Post\Larrocha\CD6\17 - Falla - Fantasia betica.wav

Pre-gap length 0:00:02.00

Peak level 86.0 %
Extraction speed 12.2 X
Track quality 100.0 %
Test CRC 3B3CE510
Copy CRC 3B3CE510
Accurately ripped (confidence 3) [E6FA472D] (AR v2)
Copy OK


All tracks accurately ripped

No errors occurred

End of status report

–– CUETools DB Plugin V2.1.6

[CTDB TOCID: R0EX9918w4K8qaqi5AiFXLDD0Wc-] found
Submit result: R0EX9918w4K8qaqi5AiFXLDD0Wc- has been confirmed
Track | CTDB Status
1 | (3/3) Accurately ripped
2 | (3/3) Accurately ripped
3 | (3/3) Accurately ripped
4 | (3/3) Accurately ripped
5 | (3/3) Accurately ripped
6 | (3/3) Accurately ripped
7 | (3/3) Accurately ripped
8 | (3/3) Accurately ripped
9 | (3/3) Accurately ripped
10 | (3/3) Accurately ripped
11 | (3/3) Accurately ripped
12 | (3/3) Accurately ripped
13 | (3/3) Accurately ripped
14 | (3/3) Accurately ripped
15 | (3/3) Accurately ripped
16 | (3/3) Accurately ripped
17 | (3/3) Accurately ripped


==== Log checksum D6BDFDD52D0626CBCA242422DDDD449AFF33E9FA09759D32A3A3E56B670D30F3 ====
Exact Audio Copy V1.1 from 23. June 2015

EAC extraction logfile from 18. June 2016, 5:30

Alicia de Larrocha / The Art of Alicia de Larrocha (CD7)

Used drive : ASUS DRW-24B1ST i Adapter: 1 ID: 0

Read mode : Secure
Utilize accurate stream : Yes
Defeat audio cache : Yes
Make use of C2 pointers : No

Read offset correction : 6
Overread into Lead-In and Lead-Out : No
Fill up missing offset samples with silence : Yes
Delete leading and trailing silent blocks : No
Null samples used in CRC calculations : Yes
Used interface : Native Win32 interface for Win NT & 2000
Gap handling : Appended to previous track

Used output format : User Defined Encoder
Selected bitrate : 128 kBit/s
Quality : High
Add ID3 tag : No
Command line compressor : C:\Program Files (x86)\Exact Audio Copy\Flac\flac.exe
Additional command line options : -8 -V -T "ARTIST=%artist%" -T "TITLE=%title%" -T "ALBUM=%albumtitle%" -T "DATE=%year%" -T "TRACKNUMBER=%tracknr%" -T "TOTALTRACKS=%numtracks%" -T "GENRE=%genre%" -T "ALBUMARTIST=%albumartist%" -T "ALBUM ARTIST=%albumartist%" -T "COMMENT=EAC Secure Mode, Test & Copy, AccurateRip, FLAC -8" %source%


TOC of the extracted CD

Track | Start | Length | Start sector | End sector
––––––––––––––––––––––––––––-
1 | 0:00.00 | 10:20.30 | 0 | 46529
2 | 10:20.30 | 5:19.41 | 46530 | 70495
3 | 15:39.71 | 8:58.43 | 70496 | 110888
4 | 24:38.39 | 15:35.74 | 110889 | 181087
5 | 40:14.38 | 10:44.05 | 181088 | 229392
6 | 50:58.43 | 10:25.45 | 229393 | 276312
7 | 61:24.13 | 18:46.08 | 276313 | 360770


Track 1

Filename D:\_Post\Larrocha\CD7\01 - Falla - Noches en los jardines de Espana - I. En el Generalife.wav

Pre-gap length 0:00:02.00

Peak level 90.6 %
Extraction speed 6.6 X
Track quality 100.0 %
Test CRC 31D348D7
Copy CRC 31D348D7
Accurately ripped (confidence 8) [F1CE4D5B] (AR v2)
Copy OK

Track 2

Filename D:\_Post\Larrocha\CD7\02 - Falla - Noches en los jardines de Espana - II. Danza lejana.wav

Peak level 76.5 %
Extraction speed 7.1 X
Track quality 100.0 %
Test CRC 08403A0B
Copy CRC 08403A0B
Accurately ripped (confidence 8) [DB3401BC] (AR v2)
Copy OK

Track 3

Filename D:\_Post\Larrocha\CD7\03 - Falla - Noches en los jardines de Espana - III. En los jardines de la Sierra de Cordoba.wav

Peak level 91.8 %
Extraction speed 8.1 X
Track quality 100.0 %
Test CRC F1F5264F
Copy CRC F1F5264F
Accurately ripped (confidence 8) [CE8A3A73] (AR v2)
Copy OK

Track 4

Filename D:\_Post\Larrocha\CD7\04 - Khachaturian - Piano Concerto - I. Allegro ma non troppo e maestoso.wav

Pre-gap length 0:00:06.64

Peak level 99.4 %
Extraction speed 9.4 X
Track quality 100.0 %
Test CRC 6B9F6ED8
Copy CRC 6B9F6ED8
Accurately ripped (confidence 8) [5F16E97A] (AR v2)
Copy OK

Track 5

Filename D:\_Post\Larrocha\CD7\05 - Khachaturian - Piano Concerto - II. Andante con anima.wav

Peak level 96.6 %
Extraction speed 9.6 X
Track quality 99.9 %
Test CRC 12FEA3B6
Copy CRC 12FEA3B6
Accurately ripped (confidence 8) [14823D8A] (AR v2)
Copy OK

Track 6

Filename D:\_Post\Larrocha\CD7\06 - Khachaturian - Piano Concerto - III. Allegro brillante.wav

Peak level 99.4 %
Extraction speed 10.9 X
Track quality 100.0 %
Test CRC F4B2D8BC
Copy CRC F4B2D8BC
Accurately ripped (confidence 8) [3F871FE7] (AR v2)
Copy OK

Track 7

Filename D:\_Post\Larrocha\CD7\07 - Ravel - Piano Concerto for the left hand.wav

Pre-gap length 0:00:06.64

Peak level 99.4 %
Extraction speed 12.0 X
Track quality 100.0 %
Test CRC C8F99003
Copy CRC C8F99003
Accurately ripped (confidence 7) [0A6BBF27] (AR v2)
Copy OK


All tracks accurately ripped

No errors occurred

End of status report

–– CUETools DB Plugin V2.1.6

[CTDB TOCID: z5ven.Tn.S.LLTtjaUBTlTyIlIE-] found
Submit result: z5ven.Tn.S.LLTtjaUBTlTyIlIE- has been confirmed
Track | CTDB Status
1 | (4/4) Accurately ripped
2 | (4/4) Accurately ripped
3 | (4/4) Accurately ripped
4 | (4/4) Accurately ripped
5 | (4/4) Accurately ripped
6 | (4/4) Accurately ripped
7 | (4/4) Accurately ripped


==== Log checksum BBB3CC782254F9FF6E4D71E0139F15BFAF24FC5E76E95B7D845D9FB1EB6FD474 ====



Alicia De Larrocha - The Art of Alicia De Larrocha (2003) {7CD Box Set Decca 473 813-2}

Alicia De Larrocha - The Art of Alicia De Larrocha (2003) {7CD Box Set Decca 473 813-2}

Alicia De Larrocha - The Art of Alicia De Larrocha (2003) {7CD Box Set Decca 473 813-2}



===