Subcategories

Norman Granz - The Complete Norman Granz Jam Sessions (1952-1954) [Remastered 2004]

Posted By: Bezz
Norman Granz - The Complete Norman Granz Jam Sessions (1952-1954) [Remastered 2004]

Norman Granz - The Complete Norman Granz Jam Sessions (1952-1954) [Remastered 2004]
EAC rip | FLAC+CUE+LOG | Scans | 5 CDs | 1010 Mb(Incl. Recovery)
Genre ~ Bop | Label ~ Verve Music group

The historic Norman Granz Jam Sessions, recorded between 1952-1954 for Clef and Mercury, are among the most treasured jam sets of all time. The nine separate albums featured the crème de la crème of New York's jazz community from Charlie Parker to Roy Eldridge, Ben Webster, Johnny Hodges, Oscar Peterson, Lionel Hampton and Max Roach and dozens of others. This box set simply collects all nine LPs on five remastered CDs, containing original artwork in a slipcase that fits inside a handsome metal display box. The individual volumes are of consistently very high quality and are utterly indispensable to jazz aficionados. For those who already have the discs, this is merely superfluous. For those who don't, this is a pricey buy but a hell of a way to begin a jazz education. ~ AllMusic
Norman Granz - The Complete Norman Granz Jam Sessions (1952-1954) [Remastered 2004]

01. Jam Blues (14:45)
02. Ballad Medley (17:26)
03. What Is This Thing Called Love? (15:54)
04. Funky Blues (13:27)

EAC extraction logfile from 23. February 2009, 5:23 for CD
The Complete Norman Granz Jam Sessions / Disc 1

Used drive : Optiarc DVD RW AD-7590A Adapter: 3 ID: 0
Read mode : Secure with NO C2, accurate stream, disable cache
Read offset correction : 48
Overread into Lead-In and Lead-Out : No

Used output format : C:\Program Files\Exact Audio Copy\Flac\flac.exe (User Defined Encoder)
192 kBit/s
Additional command line options : -8 -A tukey(0.25) -A gauss(0.1875) -b 4096 -V -T "artist=%a" -T "title=%t" -T "album=%g" -T "date=%y" -T "tracknumber=%n" -T "genre=%m" %s –sector-align

Other options :
Fill up missing offset samples with silence : Yes
Delete leading and trailing silent blocks : No
Native Win32 interface for Win NT & 2000

Track 1
Filename D:\flac\The Complete Norman Granz Jam Sessions\Disc 1\01 - Jam Blues.wav

Pre-gap length 0:00:02.00

Peak level 96.9 %
Track quality 100.0 %
Test CRC 16972F2B
Copy CRC 16972F2B
Copy OK

Track 2
Filename D:\flac\The Complete Norman Granz Jam Sessions\Disc 1\02 - Ballad Medley.wav

Pre-gap length 0:00:03.55

Peak level 100.0 %
Track quality 99.9 %
Test CRC E1FF8466
Copy CRC E1FF8466
Copy OK

Track 3
Filename D:\flac\The Complete Norman Granz Jam Sessions\Disc 1\03 - What Is This Thing Called Love .wav

Pre-gap length 0:00:03.55

Peak level 97.9 %
Track quality 100.0 %
Test CRC 2BA06691
Copy CRC 2BA06691
Copy OK

Track 4
Filename D:\flac\The Complete Norman Granz Jam Sessions\Disc 1\04 - Funky Blues.wav

Pre-gap length 0:00:03.55

Peak level 98.8 %
Track quality 100.0 %
Test CRC A33DBE7B
Copy CRC A33DBE7B
Copy OK

No errors occured

End of status report

Norman Granz - The Complete Norman Granz Jam Sessions (1952-1954) [Remastered 2004]

01. Apple Jam (12:01)
02. Ballad Medley (13:30)
03. Oh, Lady Be Good! (19:53)
04. Blues for the Count (15:43)

EAC extraction logfile from 23. February 2009, 5:50 for CD
The Complete Norman Granz Jam Sessions / Disc 2

Used drive : Optiarc DVD RW AD-7590A Adapter: 3 ID: 0
Read mode : Secure with NO C2, accurate stream, disable cache
Read offset correction : 48
Overread into Lead-In and Lead-Out : No

Used output format : C:\Program Files\Exact Audio Copy\Flac\flac.exe (User Defined Encoder)
192 kBit/s
Additional command line options : -8 -A tukey(0.25) -A gauss(0.1875) -b 4096 -V -T "artist=%a" -T "title=%t" -T "album=%g" -T "date=%y" -T "tracknumber=%n" -T "genre=%m" %s –sector-align

Other options :
Fill up missing offset samples with silence : Yes
Delete leading and trailing silent blocks : No
Native Win32 interface for Win NT & 2000

Track 1
Filename D:\flac\The Complete Norman Granz Jam Sessions\Disc 2\01 - Apple Jam.wav

Pre-gap length 0:00:02.00

Peak level 95.1 %
Track quality 100.0 %
Test CRC 2C82DFE8
Copy CRC 2C82DFE8
Copy OK

Track 2
Filename D:\flac\The Complete Norman Granz Jam Sessions\Disc 2\02 - Ballad Medley.wav

Pre-gap length 0:00:02.20

Peak level 100.0 %
Track quality 100.0 %
Test CRC 799C2188
Copy CRC 799C2188
Copy OK

Track 3
Filename D:\flac\The Complete Norman Granz Jam Sessions\Disc 2\03 - Oh, Lady Be Good!.wav

Pre-gap length 0:00:02.07

Peak level 88.4 %
Track quality 100.0 %
Test CRC E97727A3
Copy CRC E97727A3
Copy OK

Track 4
Filename D:\flac\The Complete Norman Granz Jam Sessions\Disc 2\04 - Blues for the Count.wav

Pre-gap length 0:00:02.14

Peak level 90.2 %
Track quality 100.0 %
Test CRC 550400E8
Copy CRC 550400E8
Copy OK

No errors occured

End of status report

Norman Granz - The Complete Norman Granz Jam Sessions (1952-1954) [Remastered 2004]

01. Jamming for Clef (13:43)
02. Rose Room (22:39)
03. Stompin' at the Savoy (Part 1) (12:22)
04. Stompin' at the Savoy (Part 2) (16:21)

EAC extraction logfile from 23. February 2009, 6:19 for CD
The Complete Norman Granz Jam Sessions / Disc 3

Used drive : Optiarc DVD RW AD-7590A Adapter: 3 ID: 0
Read mode : Secure with NO C2, accurate stream, disable cache
Read offset correction : 48
Overread into Lead-In and Lead-Out : No

Used output format : C:\Program Files\Exact Audio Copy\Flac\flac.exe (User Defined Encoder)
192 kBit/s
Additional command line options : -8 -A tukey(0.25) -A gauss(0.1875) -b 4096 -V -T "artist=%a" -T "title=%t" -T "album=%g" -T "date=%y" -T "tracknumber=%n" -T "genre=%m" %s –sector-align

Other options :
Fill up missing offset samples with silence : Yes
Delete leading and trailing silent blocks : No
Native Win32 interface for Win NT & 2000

Track 1
Filename D:\flac\The Complete Norman Granz Jam Sessions\Disc 3\01 - Jamming for Clef.wav

Pre-gap length 0:00:02.00

Peak level 98.5 %
Track quality 100.0 %
Test CRC 31A1FDFA
Copy CRC 31A1FDFA
Copy OK

Track 2
Filename D:\flac\The Complete Norman Granz Jam Sessions\Disc 3\02 - Rose Room.wav

Pre-gap length 0:00:03.06

Peak level 99.7 %
Track quality 100.0 %
Test CRC AD07B1A5
Copy CRC AD07B1A5
Copy OK

Track 3
Filename D:\flac\The Complete Norman Granz Jam Sessions\Disc 3\03 - Stompin' at the Savoy (Part 1).wav

Pre-gap length 0:00:02.70

Peak level 100.0 %
Track quality 100.0 %
Test CRC C2F5AAE7
Copy CRC C2F5AAE7
Copy OK

Track 4
Filename D:\flac\The Complete Norman Granz Jam Sessions\Disc 3\04 - Stompin' at the Savoy (Part 2).wav

Peak level 100.0 %
Track quality 100.0 %
Test CRC CFAEADFB
Copy CRC CFAEADFB
Copy OK

No errors occured

End of status report

Norman Granz - The Complete Norman Granz Jam Sessions (1952-1954) [Remastered 2004]

01. Blue Lou (13:20)
02. Just You, Just Me (23:43)
03. Jam Blues (17:43)
04. Ballad Medley (21:26)

EAC extraction logfile from 23. February 2009, 6:50 for CD
The Complete Norman Granz Jam Sessions / Disc 4

Used drive : Optiarc DVD RW AD-7590A Adapter: 3 ID: 0
Read mode : Secure with NO C2, accurate stream, disable cache
Read offset correction : 48
Overread into Lead-In and Lead-Out : No

Used output format : C:\Program Files\Exact Audio Copy\Flac\flac.exe (User Defined Encoder)
192 kBit/s
Additional command line options : -8 -A tukey(0.25) -A gauss(0.1875) -b 4096 -V -T "artist=%a" -T "title=%t" -T "album=%g" -T "date=%y" -T "tracknumber=%n" -T "genre=%m" %s –sector-align

Other options :
Fill up missing offset samples with silence : Yes
Delete leading and trailing silent blocks : No
Native Win32 interface for Win NT & 2000

Track 1
Filename D:\flac\The Complete Norman Granz Jam Sessions\Disc 4\01 - Blue Lou.wav

Pre-gap length 0:00:02.00

Peak level 100.0 %
Track quality 100.0 %
Test CRC 1AB4CC2C
Copy CRC 1AB4CC2C
Copy OK

Track 2
Filename D:\flac\The Complete Norman Granz Jam Sessions\Disc 4\02 - Just You, Just Me.wav

Pre-gap length 0:00:03.55

Peak level 96.1 %
Track quality 99.9 %
Test CRC AC3547EF
Copy CRC AC3547EF
Copy OK

Track 3
Filename D:\flac\The Complete Norman Granz Jam Sessions\Disc 4\03 - Jam Blues.wav

Pre-gap length 0:00:03.55

Peak level 92.0 %
Track quality 100.0 %
Test CRC B73FA8F9
Copy CRC B73FA8F9
Copy OK

Track 4
Filename D:\flac\The Complete Norman Granz Jam Sessions\Disc 4\04 - Ballad Medley.wav

Pre-gap length 0:00:03.55

Peak level 94.3 %
Track quality 99.9 %
Test CRC B15D2B10
Copy CRC B15D2B10
Copy OK

No errors occured

End of status report

Norman Granz - The Complete Norman Granz Jam Sessions (1952-1954) [Remastered 2004]

01. Funky Blues (27:38)
02. Lullaby in Rhythm (23:44)

EAC extraction logfile from 23. February 2009, 7:14 for CD
D:\flac\The Complete Norman Granz Jam Sessions / Disc 5

Used drive : Optiarc DVD RW AD-7590A Adapter: 3 ID: 0
Read mode : Secure with NO C2, accurate stream, disable cache
Read offset correction : 48
Overread into Lead-In and Lead-Out : No

Used output format : C:\Program Files\Exact Audio Copy\Flac\flac.exe (User Defined Encoder)
192 kBit/s
Additional command line options : -8 -A tukey(0.25) -A gauss(0.1875) -b 4096 -V -T "artist=%a" -T "title=%t" -T "album=%g" -T "date=%y" -T "tracknumber=%n" -T "genre=%m" %s –sector-align

Other options :
Fill up missing offset samples with silence : Yes
Delete leading and trailing silent blocks : No
Native Win32 interface for Win NT & 2000

Track 1
Filename D:\flac\D-\flac\The Complete Norman Granz Jam Sessions\Disc 5\01 - Funky Blues.wav

Pre-gap length 0:00:02.00

Peak level 95.0 %
Track quality 100.0 %
Test CRC 707B8EE5
Copy CRC 707B8EE5
Copy OK

Track 2
Filename D:\flac\D-\flac\The Complete Norman Granz Jam Sessions\Disc 5\02 - Lullaby in Rhythm.wav

Pre-gap length 0:00:02.59

Peak level 93.2 %
Track quality 100.0 %
Test CRC 366C90B9
Copy CRC 366C90B9
Copy OK

No errors occured

End of status report

Norman Granz - The Complete Norman Granz Jam Sessions (1952-1954) [Remastered 2004]

Special thanks to knttk and jazzio!

Welcome to my blog for more wonderful music

PLEASE DO NOT PROVIDE MIRROR LINKS!