Tags
Language
Tags

The Five Blind Boys Of Alabama - Deep River (1992) {Elektra Nonesuch 9 61441-2}

Posted By: ruskaval
The Five Blind Boys Of Alabama - Deep River (1992) {Elektra Nonesuch 9 61441-2}

The Five Blind Boys Of Alabama - Deep River (1992) {Elektra Nonesuch 9 61441-2}
EAC rip (secure mode) | FLAC (tracks)+CUE+LOG -> 342 Mb | MP3 @320 -> 126 Mb
Full Artwork @ 300 dpi (jpg) -> 19 Mb | 5% repair rar
© 1992 Elektra Nonesuch / Time Warner | 9 61441-2
Gospel / Black Gospel / Soul / Blues / Southern Gospel / Contemporary Gospel

On their umpteenth release, the Five Blind Boys of Alabama mix some modern blues and R&B into their core gospel sound. The rhythm section, led by the organ of the legendary Booker T. Jones, keeps the accompaniment simple as the group soars through some traditional material ("Closer Walk with Thee," "Every Time I Feel the Spirit, "), a few originals by lead vocalist Clarence Fountain, and a transcendent version of Bob Dylan's "I Believe in You."
1992's "Deep River" was a watershed of sorts for the Blind Boys; the support of a major label, terrific keyboards and production from legendary Stax sessionman Booker T. Jones, fine bass playing from James Jamerson Jr. (yes, son of the famed Motown session bassist of the '60s), and top-drawer material from Bob Dylan and others. At the end of the day, though, it's the Blind Boys themselves who deliver the goods, making "Deep River" one of the finest gospel albums of the '90s. Make no mistake–this isn't contemporary Christian pop in any way, shape, or form. "Deep River" is hardcore southern gospel of the old school: lots of shoutin', lots of testifyin', an in-the-pocket rhythm section, those deep, soulful harmonies, and the unbelievable power of lead vocalist Clarence Fountain; imitated by many and matched by none. I've had the album since it was released and it's one a short list of albums that I always reach for when I'm down, particular favorites being "God Said It," "Down On Bended Knee," "I'm Getting Better All the Time," and the version of that old staple "Just a Closer Walk With Thee." From start to finish "Deep River" will move the feet and feed the soul of even the most hardened agnostic.

Musicians
Group The Five Blind Boys Of Alabama
Vocals Clarence Fountain
Vocals George Scott
Vocals Johnny Fields
Vocals Jimmy Carter
Drums Leon "Ndugu" Chancler
Guitar Eric Gale
Piano Jerry Peters
Organ Booker T. Jones
Bass James Jamerson, Jr.
Tambourine Brenda King

tracklist:
01 Deep River. Pt. 1 01:01
02 Don't Play With God 05:21
03 Reminiscing 03:13
04 God Said It 04:38
05 Look Where He Brought Me From 03:35
06 Down On Bended Knees 04:07
07 I Believe In You 06:45
08 I'm Getting Better All the Time 06:58
09 Brother Moses 02:19
10 Every Time I Feel the Spirit 02:53
11 Just a Closer Walk Thee 04:07
12 I've Got the Love of Jesus 04:04
13 Deep River. Pt. 2 04:18

Exact Audio Copy V1.1 from 23. June 2015

EAC extraction logfile from 19. August 2016, 22:56

The Five Blind Boys Of Alabama / Deep River

Used drive : MATSHITADVD+-RW SW830 Adapter: 1 ID: 0

Read mode : Secure
Utilize accurate stream : Yes
Defeat audio cache : Yes
Make use of C2 pointers : No

Read offset correction : 6
Overread into Lead-In and Lead-Out : No
Fill up missing offset samples with silence : Yes
Delete leading and trailing silent blocks : No
Null samples used in CRC calculations : Yes
Used interface : Native Win32 interface for Win NT & 2000
Gap handling : Appended to previous track

Used output format : User Defined Encoder
Selected bitrate : 896 kBit/s
Quality : High
Add ID3 tag : No
Command line compressor : C:\Program Files (x86)\Exact Audio Copy\Flac\flac.exe
Additional command line options : -8 -V -T "ARTIST=%artist%" -T "TITLE=%title%" -T "ALBUM=%albumtitle%" -T "DATE=%year%" -T "TRACKNUMBER=%tracknr%" -T "TOTALTRACKS=%numtracks%" -T "GENRE=%genre%" -T "ALBUMARTIST=%albumartist%" -T "ALBUM ARTIST=%albumartist%" -T "COMMENT=EAC Secure Mode, Test & Copy, AccurateRip, FLAC -8" %source%


TOC of the extracted CD

Track | Start | Length | Start sector | End sector
––––––––––––––––––––––––––––-
1 | 0:00.00 | 1:03.12 | 0 | 4736
2 | 1:03.12 | 5:24.25 | 4737 | 29061
3 | 6:27.37 | 3:15.60 | 29062 | 43746
4 | 9:43.22 | 4:40.45 | 43747 | 64791
5 | 14:23.67 | 3:37.60 | 64792 | 81126
6 | 18:01.52 | 4:08.38 | 81127 | 99764
7 | 22:10.15 | 6:47.45 | 99765 | 130334
8 | 28:57.60 | 6:59.50 | 130335 | 161809
9 | 35:57.35 | 2:22.37 | 161810 | 172496
10 | 38:19.72 | 2:56.03 | 172497 | 185699
11 | 41:16.00 | 4:10.12 | 185700 | 204461
12 | 45:26.12 | 4:06.55 | 204462 | 222966
13 | 49:32.67 | 4:18.63 | 222967 | 242379


Track 1

Filename G:\New Rips\The Five Blind Boys Of Alabama - Deep River (1992) [FLAC]\01 - Deep River 01.wav

Pre-gap length 0:00:02.00

Peak level 64.1 %
Extraction speed 0.7 X
Track quality 100.0 %
Test CRC DF0E9146
Copy CRC DF0E9146
Accurately ripped (confidence 5) [E8AEB77F] (AR v2)
Copy OK

Track 2

Filename G:\New Rips\The Five Blind Boys Of Alabama - Deep River (1992) [FLAC]\02 - Don't Play With God.wav

Pre-gap length 0:00:05.58

Peak level 100.0 %
Extraction speed 1.0 X
Track quality 99.9 %
Test CRC 55B0C740
Copy CRC 55B0C740
Accurately ripped (confidence 5) [FE2DAB7A] (AR v2)
Copy OK

Track 3

Filename G:\New Rips\The Five Blind Boys Of Alabama - Deep River (1992) [FLAC]\03 - Reminiscing.wav

Pre-gap length 0:00:05.13

Peak level 100.0 %
Extraction speed 1.2 X
Track quality 100.0 %
Test CRC B16642D8
Copy CRC B16642D8
Accurately ripped (confidence 5) [DE458C6D] (AR v2)
Copy OK

Track 4

Filename G:\New Rips\The Five Blind Boys Of Alabama - Deep River (1992) [FLAC]\04 - God Said It.wav

Pre-gap length 0:00:04.61

Peak level 100.0 %
Extraction speed 1.4 X
Track quality 100.0 %
Test CRC 6BF287A7
Copy CRC 6BF287A7
Accurately ripped (confidence 5) [D07AC8BE] (AR v2)
Copy OK

Track 5

Filename G:\New Rips\The Five Blind Boys Of Alabama - Deep River (1992) [FLAC]\05 - Look Where He Brought Me From.wav

Pre-gap length 0:00:04.13

Peak level 100.0 %
Extraction speed 1.3 X
Track quality 99.9 %
Test CRC 43D26831
Copy CRC 43D26831
Accurately ripped (confidence 5) [F40AAA54] (AR v2)
Copy OK

Track 6

Filename G:\New Rips\The Five Blind Boys Of Alabama - Deep River (1992) [FLAC]\06 - Down On Bended Knees.wav

Pre-gap length 0:00:05.11

Peak level 99.9 %
Extraction speed 1.6 X
Track quality 100.0 %
Test CRC 6367BE05
Copy CRC 6367BE05
Accurately ripped (confidence 5) [38B794A7] (AR v2)
Copy OK

Track 7

Filename G:\New Rips\The Five Blind Boys Of Alabama - Deep River (1992) [FLAC]\07 - I Believe In You.wav

Pre-gap length 0:00:04.29

Peak level 95.6 %
Extraction speed 1.8 X
Track quality 100.0 %
Test CRC C47E582B
Copy CRC C47E582B
Accurately ripped (confidence 4) [786E6DC7] (AR v2)
Copy OK

Track 8

Filename G:\New Rips\The Five Blind Boys Of Alabama - Deep River (1992) [FLAC]\08 - I'm Getting Better All The Time.wav

Pre-gap length 0:00:04.26

Peak level 99.9 %
Extraction speed 1.9 X
Track quality 100.0 %
Test CRC 382309C7
Copy CRC 382309C7
Accurately ripped (confidence 5) [D1C94E78] (AR v2)
Copy OK

Track 9

Filename G:\New Rips\The Five Blind Boys Of Alabama - Deep River (1992) [FLAC]\09 - Brother Moses.wav

Pre-gap length 0:00:04.14

Peak level 86.7 %
Extraction speed 1.8 X
Track quality 100.0 %
Test CRC 48C367B8
Copy CRC 48C367B8
Accurately ripped (confidence 5) [4B42CBF7] (AR v2)
Copy OK

Track 10

Filename G:\New Rips\The Five Blind Boys Of Alabama - Deep River (1992) [FLAC]\10 - Every Time I Feel The Spirit.wav

Pre-gap length 0:00:04.26

Peak level 100.0 %
Extraction speed 1.9 X
Track quality 100.0 %
Test CRC 00C6B5E9
Copy CRC 00C6B5E9
Accurately ripped (confidence 5) [D742569E] (AR v2)
Copy OK

Track 11

Filename G:\New Rips\The Five Blind Boys Of Alabama - Deep River (1992) [FLAC]\11 - Just A Closer Walk With Thee.wav

Pre-gap length 0:00:05.59

Peak level 95.3 %
Extraction speed 2.0 X
Track quality 100.0 %
Test CRC E6328ABD
Copy CRC E6328ABD
Accurately ripped (confidence 5) [5892871C] (AR v2)
Copy OK

Track 12

Filename G:\New Rips\The Five Blind Boys Of Alabama - Deep River (1992) [FLAC]\12 - I've Got The Love Of Jesus.wav

Pre-gap length 0:00:05.26

Peak level 100.0 %
Extraction speed 2.1 X
Track quality 100.0 %
Test CRC 166624B1
Copy CRC 166624B1
Accurately ripped (confidence 5) [D0FBBD42] (AR v2)
Copy OK

Track 13

Filename G:\New Rips\The Five Blind Boys Of Alabama - Deep River (1992) [FLAC]\13 - Deep River 02.wav

Pre-gap length 0:00:04.01

Peak level 97.8 %
Extraction speed 2.2 X
Track quality 100.0 %
Test CRC 4FC8D17B
Copy CRC 4FC8D17B
Accurately ripped (confidence 5) [A3D81F06] (AR v2)
Copy OK


All tracks accurately ripped

No errors occurred

End of status report

–– CUETools DB Plugin V2.1.6

[CTDB TOCID: 7wtpyrjM3bZPrlW0p0LsaMKWngc-] found
Submit result: 7wtpyrjM3bZPrlW0p0LsaMKWngc- has been confirmed
Track | CTDB Status
1 | (4/4) Accurately ripped
2 | (4/4) Accurately ripped
3 | (4/4) Accurately ripped
4 | (4/4) Accurately ripped
5 | (4/4) Accurately ripped
6 | (4/4) Accurately ripped
7 | (3/4) Accurately ripped
8 | (4/4) Accurately ripped
9 | (4/4) Accurately ripped
10 | (4/4) Accurately ripped
11 | (4/4) Accurately ripped
12 | (4/4) Accurately ripped
13 | (4/4) Accurately ripped


==== Log checksum 2D9152B3F9A43E4A7C3569D4E425D4FE05D11163B2616C6B3E173AB5E4A44B71 ====


The Five Blind Boys Of Alabama - Deep River (1992) {Elektra Nonesuch 9 61441-2}

The Five Blind Boys Of Alabama - Deep River (1992) {Elektra Nonesuch 9 61441-2}


see also:
The Original Five Blind Boys O...eciality SPCD 7041-2 rel 1993}
The Blind Boys Of Alabama - I ...{House Of Blues Music Company}
The Blind Boys Of Alabama - Do...eans (2008) {Time Life M19548}


===