Tags
Language
Tags

The Flying Luttenbachers - Negative Infinity (2021)

Posted By: delpotro
The Flying Luttenbachers - Negative Infinity (2021)

The Flying Luttenbachers - Negative Infinity (2021)
EAC Rip | FLAC (tracks+log+.cue) - 307 Mb | MP3 CBR 320 kbps - 102 Mb | 00:44:37
Jazz Rock, Free Jazz | Label: ugEXPLODE Records

Roaring out of the gates is the 15th full-length album by no wave/punk jazz/brutal prog iconoclasts The Flying Luttenbachers, led by founding member and main composer Weasel Walter. There's a few special twists this time, friends. The last two albums, "Shattered Dimension" and "Imminent Death", both epic double-length affairs released in 2019, focused on open ended, improvisational approaches more so than heavily structured ones. "Negative Infinity" is a sort of return-to-form in a regard, featuring 6 tightly scripted doses of what they call "Brutal Prog" - the tag Weasel coined in the early 2000s to describe an elite breed of intense, complex bands who emphasised harshness and intensity over the typical prog-rock flutes and fairies positivity. This is prog for THE APOCALYPSE, not your uncle. The merciless opening track sets the tone for the album - "Fury of the Delusion" is a through-composed, neck-snapping whirlwind of a number where an unrelenting, hair-raisingly harmonized line spat forth in unison by saxophone and duel guitars is investigated, turned upside down and transformed into a deadly musical cyborg. Oh yes - the other big surprise is that Weasel doesn't provide his usual hyperactive drumming on this release. The chap has switched to guitar. He feels that it will be easier to drip sweat on the punters that way.That's right. Close your eyes. That's Sam Ospovat on the drums. Doesn't he sound great? We bet you won't even miss the Weez! Dark overlords Tim Dahl (bass) and Matt Nelson (saxophone) return once again and newest member Katie Battistoni plays the other guitar parts. The closing number, "On The Verge Of Destruction" is a monolithic side-long extrapolation off of Albert Ayler's bizarre '66/'67 "marching band on acid" musical suites. The group is shuttled through an exacting sequence of berserk rollercoaster melodies and the whole front line takes turns spewing outrageous solos. The structure coils up the band to release a climactic orgy of noise before the piece goes back to the beginning and winds down. The rest of the tunes may invoke fragant whiffs of old Mayhem sturm und drang, Teenage Jesus and the Jerks sonic terrorism, the jigsaw puzzle logic of the Rock In Opposition bands and, ahem, even '90s Flying Luttenbachers style varsity team punk-jazz ("Demonic Velocities II" appears here as a meta-sequel to the old chestnut first performed by the group as early as 1993). The core tenets of The Flying Luttenbachers remain: Dissonance, Speed, Aggression, Weirdness, Singularity. This is perhaps the finest chapter of the three-decade saga so far.
Tracklist:
1. Fury Of The Delusion (04:47)
2. Demonic Velocities II (06:58)
3. A Depraved Heart (04:38)
4. Omnicide (05:20)
5. Mass Manslaugher, Ma'am (03:44)
6. On The Verge Of Destruction (19:11)

Exact Audio Copy V1.3 from 2. September 2016

EAC extraction logfile from 14. July 2021, 16:45

The Flying Luttenbachers / Negative Infinity

Used drive : TSSTcorpCDDVDW SH-222BB Adapter: 1 ID: 0

Read mode : Secure
Utilize accurate stream : Yes
Defeat audio cache : Yes
Make use of C2 pointers : No

Read offset correction : 6
Overread into Lead-In and Lead-Out : No
Fill up missing offset samples with silence : Yes
Delete leading and trailing silent blocks : No
Null samples used in CRC calculations : Yes
Used interface : Native Win32 interface for Win NT & 2000
Gap handling : Appended to previous track

Used output format : User Defined Encoder
Selected bitrate : 1024 kBit/s
Quality : High
Add ID3 tag : No
Command line compressor : C:\Program Files (x86)\Exact Audio Copy\Flac\flac.exe
Additional command line options : -8 -e -p -V -T "ARTIST=%artist%" -T "TITLE=%title%" -T "ALBUM=%albumtitle%" -T "DATE=%year%" -T "TRACKNUMBER=%tracknr%" -T "GENRE=%genre%" -T "PERFORMER=%albuminterpret%" -T "COMPOSER=%composer%" %haslyrics%–tag-from-file=LYRICS="%lyricsfile%"%haslyrics% -T "ALBUMARTIST=%albumartist%" -T "DISCNUMBER=%cdnumber%" -T "TOTALDISCS=%totalcds%" -T "TOTALTRACKS=%numtracks%" -T "COMMENT=%comment%" %source% -o %dest%


TOC of the extracted CD

Track | Start | Length | Start sector | End sector
––––––––––––––––––––––––––––-
1 | 0:00.00 | 4:47.30 | 0 | 21554
2 | 4:47.30 | 6:57.59 | 21555 | 52888
3 | 11:45.14 | 4:37.40 | 52889 | 73703
4 | 16:22.54 | 5:19.50 | 73704 | 97678
5 | 21:42.29 | 3:44.14 | 97679 | 114492
6 | 25:26.43 | 19:11.09 | 114493 | 200826


Track 1

Filename C:\Users\Jess\Desktop\WHAT_CD\MYRIPS\The Flying Luttenbachers - Negative Infinity (2021) {ug81} [FLAC]\01 - Fury Of The Delusion.wav

Pre-gap length 0:00:02.00

Peak level 98.8 %
Extraction speed 4.4 X
Track quality 100.0 %
Test CRC 134515A2
Copy CRC 134515A2
Track not present in AccurateRip database
Copy OK

Track 2

Filename C:\Users\Jess\Desktop\WHAT_CD\MYRIPS\The Flying Luttenbachers - Negative Infinity (2021) {ug81} [FLAC]\02 - Demonic Velocities II.wav

Pre-gap length 0:00:02.70

Peak level 98.8 %
Extraction speed 5.3 X
Track quality 100.0 %
Test CRC BA617118
Copy CRC BA617118
Track not present in AccurateRip database
Copy OK

Track 3

Filename C:\Users\Jess\Desktop\WHAT_CD\MYRIPS\The Flying Luttenbachers - Negative Infinity (2021) {ug81} [FLAC]\03 - A Depraved Heart.wav

Pre-gap length 0:00:04.65

Peak level 98.8 %
Extraction speed 4.7 X
Track quality 99.9 %
Test CRC 10F9BCF8
Copy CRC 10F9BCF8
Track not present in AccurateRip database
Copy OK

Track 4

Filename C:\Users\Jess\Desktop\WHAT_CD\MYRIPS\The Flying Luttenbachers - Negative Infinity (2021) {ug81} [FLAC]\04 - Omnicide.wav

Pre-gap length 0:00:01.50

Peak level 98.8 %
Extraction speed 5.2 X
Track quality 99.9 %
Test CRC 87CC21C2
Copy CRC 87CC21C2
Track not present in AccurateRip database
Copy OK

Track 5

Filename C:\Users\Jess\Desktop\WHAT_CD\MYRIPS\The Flying Luttenbachers - Negative Infinity (2021) {ug81} [FLAC]\05 - Mass Manslaughter Ma'am.wav

Pre-gap length 0:00:01.94

Peak level 98.8 %
Extraction speed 6.3 X
Track quality 100.0 %
Test CRC 75CC6A62
Copy CRC 75CC6A62
Track not present in AccurateRip database
Copy OK

Track 6

Filename C:\Users\Jess\Desktop\WHAT_CD\MYRIPS\The Flying Luttenbachers - Negative Infinity (2021) {ug81} [FLAC]\06 - On The Verge Of Destruction.wav

Pre-gap length 0:00:01.92

Peak level 98.8 %
Extraction speed 8.1 X
Track quality 100.0 %
Test CRC 367ADFD4
Copy CRC 367ADFD4
Track not present in AccurateRip database
Copy OK


None of the tracks are present in the AccurateRip database

No errors occurred

End of status report

–– CUETools DB Plugin V2.1.6

[CTDB TOCID: DNVQgcepsFs9.IIk7TV75dfhjWs-] disk not present in database
Submit result: DNVQgcepsFs9.IIk7TV75dfhjWs- has been uploaded


==== Log checksum FC7B00185D49B11D0053313D93903487EE00CDDF0B9C9212CDCCF70DB159D6D9 ====

Thanks to the Original ripper !