Subcategories

The Montgomery Brothers - Groove Yard (1961)

Posted By: intothe
The Montgomery Brothers - Groove Yard (1961)

The Montgomery Brothers - Groove Yard (1961)
Jazz | EAC rip (FLAC+CUE+LOG) | 249 MB | full scans
OJC | 39:00 | RAR with 5% recovery


EAC extraction logfile from 12. June 2009, 8:30

Montgomery Brothers, The / Groove Yard

Used drive : _NEC DVD_RW ND-3500AG Adapter: 0 ID: 0

Read mode : Secure
Utilize accurate stream : Yes
Defeat audio cache : Yes
Make use of C2 pointers : No

Read offset correction : 48
Overread into Lead-In and Lead-Out : No
Fill up missing offset samples with silence : Yes
Delete leading and trailing silent blocks : No
Null samples used in CRC calculations : Yes
Used interface : Native Win32 interface for Win NT & 2000

Used output format : User Defined Encoder
Selected bitrate : 768 kBit/s
Quality : High
Add ID3 tag : No
Command line compressor : C:\Program Files\Exact Audio Copy\FLAC\FLAC.EXE
Additional command line options : -6 -V -T "ARTIST=%a" -T "TITLE=%t" -T "ALBUM=%g" -T "DATE=%y" -T "TRACKNUMBER=%n" -T "GENRE=%m" -T "COMMENT=%e" %s -o %d


TOC of the extracted CD

Track | Start | Length | Start sector | End sector
––––––––––––––––––––––––––––-
1 | 0:00.00 | 6:48.35 | 0 | 30634
2 | 6:48.35 | 3:05.15 | 30635 | 44524
3 | 9:53.50 | 5:52.52 | 44525 | 70976
4 | 15:46.27 | 3:40.43 | 70977 | 87519
5 | 19:26.70 | 5:00.00 | 87520 | 110019
6 | 24:26.70 | 4:39.05 | 110020 | 130949
7 | 29:06.00 | 4:38.42 | 130950 | 151841
8 | 33:44.42 | 5:38.08 | 151842 | 177199


Range status and errors

Selected range

Filename J:\eMusic\Rip\Montgomery Brothers, The - Groove Yard.wav

Peak level 99.7 %
Range quality 99.9 %
Copy CRC 42B36D98
Copy OK

No errors occurred


AccurateRip summary

Track 1 accurately ripped (confidence 2) [DC26293F]
Track 2 accurately ripped (confidence 1) [D08AC4FC]
Track 3 accurately ripped (confidence 1) [6BB80AF4]
Track 4 accurately ripped (confidence 1) [DC33477B]
Track 5 accurately ripped (confidence 1) [3F05FA91]
Track 6 accurately ripped (confidence 1) [4BAA3497]
Track 7 accurately ripped (confidence 1) [CA0BC38A]
Track 8 accurately ripped (confidence 1) [11FEBE92]

All tracks accurately ripped

End of status report


Wes Montgomery was reunited with his brothers Monk and Buddy on this 1961 Riverside session, which also features drummer Bobby Thomas. The guitarist and his brothers are in great form throughout the session in spite of the less-than-ideal piano provided. According to producer Orrin Keepnews, Buddy Montgomery originally intended to split his time on the date between vibes and piano, but the failure of the motor on the former instrument caused him to spend most of his time at the keyboard. The highlight of the evening in the studio is a foot-tapping version of Carl Perkins' "Groove Yard," followed closely by a wild ride through Harold Land's "Delirium." The leader contributed the soulful hard bop work "Doujie." The pianist wrote the driving "Just for Now" and the easygoing blues "Back to Bock." The contents of this CD reissue, all of which are present within the 12-CD set The Complete Riverside Recordings, unfortunately doesn't include several valuable alternate takes later added to the boxed set. Like most of Wes Montgomery's Riverside recordings, this release is an essential part of his discography and is highly recommended. - by Ken Dryden, AMG

Tracks:
1. Bock to Bock (Back to Back) (Buddy Montgomery) 6:48
2. Groove Yard (Carl Perkins) 3:05
3. If I Should Lose You (Ralph Rainger/Leo Robin) 5:52
4. Delirium (Harold Land) 3:41
5. Just For Now (Buddy Montgomery) 5:00
6. Doujie (Wes Montgomery) 4:39
7. Heart Strings (Milt Jackson) 4:38
8. Remember (Irving Berlin) 5:36

Personnel:
Wes Montgomery (Guitar)
Buddy Montgomery (Piano)
Monk Montgomery (Double Bass)
Bobby Thomas (Drums)

Rapidshare
Hotfile