Tags
Language
Tags

The Prisonaires - Just Walkin' In The Rain (1953-1955) {Bear Family BCD15523 rel 1990}

Posted By: ruskaval
The Prisonaires - Just Walkin' In The Rain (1953-1955) {Bear Family BCD15523 rel 1990}

The Prisonaires - Just Walkin' In The Rain (1953-1955) {Bear Family BCD15523 rel 1990}
EAC rip (secure mode) | FLAC (tracks)+CUE+LOG -> 309 Mb | MP3 @320 -> 157 Mb
Full Artwork @ 300 dpi (jpg) -> 13 Mb | 5% repair rar
© 1953-55, 1990 Sun Records / Bear Family Records | BCD 15523
Early R&B / Doo Wop / Early Pop / Gospel / Vocal Group

Although the Prisonaires are remembered for the song "Just Walkin in the Rain," this collection proves that they were a fine pop/gospel group. Johnny Bragg was a huge fan of the Ink Spots and their lead singer, Bill Kenny, and it's no wonder that much of the material on this disc has that smooth crooning style favored by pre-rock & roll vocal groups.

This typically well-researched and documented Bear Family disc includes all of the Sun recordings and unreleased material, which shows the group attempting some hard-ass R&B (e.g., "Surleen" and "Rocking Horse") with mixed results. In terms of their overall output, it's the early stuff that's really compelling, as the Prisonaires proved that they could sing with the best of the vocal groups of the era. Nothing is as good as the title track, but that's a song for the ages, a beautiful piece of pop loneliness infused with near palpable heartbreak. Fans of this type of old-style harmony singing shouldn't pass this up.
The Prisonaires - Just Walkin' In The Rain (1953-1955) {Bear Family BCD15523 rel 1990}


more INFO

Musicians
Vocals Johnny Bragg
Vocals John Drue
Guitar, Vocals William Stewart
Vocals Marcell Sanders
Vocals Ed Thurman
Trumpet George Williams
Piano Henry "Dish Rag" Jones
Guitar, Piano Ike Turner
Guitar Joe Hill Louis
Drums Hubbard Brown
Bass, Bongos, Guitar Unknown

The Prisonaires - Just Walkin' In The Rain (1953-1955) {Bear Family BCD15523 rel 1990}


tracklist
01 Just Walkin' In The Rain 02:50
02 Baby Please 02:50
03 Dreaming Of You 02:30
04 That Chick's Too Young To Fry 01:47
05 Just Walkin' In The Rain 02:41
06 Baby Please 02:29
07 Softly And Tenderly 02:34
08 My God Is Real 02:31
09 A Prisoner's Prayer 02:42
10 No More Tears 02:33
11 I Know 03:44
12 No More Tears 02:50
13 If I Were King 01:37
14 I Wish 02:42
15 Don't Say Tomorrow 02:36
16 No More Tears 02:48
17 What'll You Do Next 01:40
18 There Is Love In You 02:55
19 What'll You Do Next 01:32
20 Two Strangers 02:55
21 What About Frank Clement 03:02
22 Friends Call Me A Fool 03:02
23 Lucille, I Want You 02:36
24 Surleen 02:44
25 All Alone And Lonely 02:18
26 Rockin' Horse 02:30

Exact Audio Copy V1.0 beta 3 from 29. August 2011

EAC extraction logfile from 26. May 2014, 21:33

The Prisonaires / Just Walkin' In The Rain

Used drive : SONY DVD RW DRU-810A Adapter: 1 ID: 0

Read mode : Secure
Utilize accurate stream : Yes
Defeat audio cache : Yes
Make use of C2 pointers : No

Read offset correction : 618
Overread into Lead-In and Lead-Out : No
Fill up missing offset samples with silence : Yes
Delete leading and trailing silent blocks : No
Null samples used in CRC calculations : Yes
Used interface : Native Win32 interface for Win NT & 2000
Gap handling : Appended to previous track

Used output format : User Defined Encoder
Selected bitrate : 128 kBit/s
Quality : High
Add ID3 tag : No
Command line compressor : C:\Program Files (x86)\Exact Audio Copy\Flac\flac.exe
Additional command line options : -8 -V -T "ARTIST=%artist%" -T "TITLE=%title%" -T "ALBUM=%albumtitle%" -T "DATE=%year%" -T "TRACKNUMBER=%tracknr%" -T "TOTALTRACKS=%numtracks%" -T "GENRE=%genre%" -T "ALBUMARTIST=%albumartist%" -T "ALBUM ARTIST=%albumartist%" -T "COMMENT=EAC Secure Mode, Test & Copy, AccurateRip, FLAC -8" %source%


TOC of the extracted CD

Track | Start | Length | Start sector | End sector
––––––––––––––––––––––––––––-
1 | 0:00.00 | 2:50.65 | 0 | 12814
2 | 2:50.65 | 2:50.67 | 12815 | 25631
3 | 5:41.57 | 2:30.18 | 25632 | 36899
4 | 8:12.00 | 1:47.25 | 36900 | 44949
5 | 9:59.25 | 2:41.47 | 44950 | 57071
6 | 12:40.72 | 2:29.45 | 57072 | 68291
7 | 15:10.42 | 2:34.10 | 68292 | 79851
8 | 17:44.52 | 2:31.35 | 79852 | 91211
9 | 20:16.12 | 2:42.40 | 91212 | 103401
10 | 22:58.52 | 2:33.38 | 103402 | 114914
11 | 25:32.15 | 3:44.67 | 114915 | 131781
12 | 29:17.07 | 2:50.33 | 131782 | 144564
13 | 32:07.40 | 1:37.65 | 144565 | 151904
14 | 33:45.30 | 2:42.27 | 151905 | 164081
15 | 36:27.57 | 2:36.13 | 164082 | 175794
16 | 39:03.70 | 2:48.50 | 175795 | 188444
17 | 41:52.45 | 1:40.65 | 188445 | 196009
18 | 43:33.35 | 2:55.12 | 196010 | 209146
19 | 46:28.47 | 1:32.30 | 209147 | 216076
20 | 48:01.02 | 2:55.03 | 216077 | 229204
21 | 50:56.05 | 3:02.05 | 229205 | 242859
22 | 53:58.10 | 3:02.30 | 242860 | 256539
23 | 57:00.40 | 2:36.10 | 256540 | 268249
24 | 59:36.50 | 2:44.17 | 268250 | 280566
25 | 62:20.67 | 2:18.00 | 280567 | 290916
26 | 64:38.67 | 2:28.68 | 290917 | 302084


Track 1

Filename F:\New Rips\The Prisonaires - Just Walkin' In The Rain (1990) [FLAC]\01 - Just Walkin' In The Rain.wav

Pre-gap length 0:00:02.00

Peak level 93.5 %
Extraction speed 4.5 X
Track quality 100.0 %
Test CRC 5BC78742
Copy CRC 5BC78742
Accurately ripped (confidence 1) [0918DE24] (AR v2)
Copy OK

Track 2

Filename F:\New Rips\The Prisonaires - Just Walkin' In The Rain (1990) [FLAC]\02 - Baby Please.wav

Pre-gap length 0:00:02.50

Peak level 76.4 %
Extraction speed 4.8 X
Track quality 100.0 %
Test CRC FD080987
Copy CRC FD080987
Accurately ripped (confidence 1) [EC46DBCC] (AR v2)
Copy OK

Track 3

Filename F:\New Rips\The Prisonaires - Just Walkin' In The Rain (1990) [FLAC]\03 - Dreaming Of You.wav

Pre-gap length 0:00:02.50

Peak level 88.8 %
Extraction speed 5.0 X
Track quality 100.0 %
Test CRC 501572C1
Copy CRC 501572C1
Accurately ripped (confidence 1) [8BA5DDA5] (AR v2)
Copy OK

Track 4

Filename F:\New Rips\The Prisonaires - Just Walkin' In The Rain (1990) [FLAC]\04 - That Chick's Too Young To Fry.wav

Pre-gap length 0:00:02.50

Peak level 84.9 %
Extraction speed 4.8 X
Track quality 100.0 %
Test CRC D2424309
Copy CRC D2424309
Accurately ripped (confidence 1) [8375E7A3] (AR v2)
Copy OK

Track 5

Filename F:\New Rips\The Prisonaires - Just Walkin' In The Rain (1990) [FLAC]\05 - Just Walkin' In The Rain.wav

Pre-gap length 0:00:02.50

Peak level 71.1 %
Extraction speed 5.5 X
Track quality 100.0 %
Test CRC 35AE70F7
Copy CRC 35AE70F7
Accurately ripped (confidence 1) [B9F140F1] (AR v2)
Copy OK

Track 6

Filename F:\New Rips\The Prisonaires - Just Walkin' In The Rain (1990) [FLAC]\06 - Baby Please.wav

Pre-gap length 0:00:02.50

Peak level 49.8 %
Extraction speed 5.6 X
Track quality 100.0 %
Test CRC 122721A5
Copy CRC 122721A5
Accurately ripped (confidence 1) [957E8D73] (AR v2)
Copy OK

Track 7

Filename F:\New Rips\The Prisonaires - Just Walkin' In The Rain (1990) [FLAC]\07 - Softly And Tenderly.wav

Pre-gap length 0:00:02.50

Peak level 58.6 %
Extraction speed 5.8 X
Track quality 100.0 %
Test CRC 5636865B
Copy CRC 5636865B
Accurately ripped (confidence 1) [367B36C1] (AR v2)
Copy OK

Track 8

Filename F:\New Rips\The Prisonaires - Just Walkin' In The Rain (1990) [FLAC]\08 - My God Is Real.wav

Pre-gap length 0:00:02.50

Peak level 87.2 %
Extraction speed 6.0 X
Track quality 100.0 %
Test CRC 7A358133
Copy CRC 7A358133
Accurately ripped (confidence 1) [4D0819EF] (AR v2)
Copy OK

Track 9

Filename F:\New Rips\The Prisonaires - Just Walkin' In The Rain (1990) [FLAC]\09 - A Prisoner's Prayer.wav

Pre-gap length 0:00:02.50

Peak level 77.9 %
Extraction speed 6.3 X
Track quality 100.0 %
Test CRC 1EF61A8D
Copy CRC 1EF61A8D
Accurately ripped (confidence 1) [DC186203] (AR v2)
Copy OK

Track 10

Filename F:\New Rips\The Prisonaires - Just Walkin' In The Rain (1990) [FLAC]\10 - No More Tears.wav

Pre-gap length 0:00:02.50

Peak level 71.5 %
Extraction speed 6.4 X
Track quality 100.0 %
Test CRC D5BF9629
Copy CRC D5BF9629
Accurately ripped (confidence 1) [B054F2AF] (AR v2)
Copy OK

Track 11

Filename F:\New Rips\The Prisonaires - Just Walkin' In The Rain (1990) [FLAC]\11 - I Know.wav

Pre-gap length 0:00:02.50

Peak level 79.0 %
Extraction speed 7.1 X
Track quality 100.0 %
Test CRC 6BA34CC7
Copy CRC 6BA34CC7
Accurately ripped (confidence 1) [60DBB4B1] (AR v2)
Copy OK

Track 12

Filename F:\New Rips\The Prisonaires - Just Walkin' In The Rain (1990) [FLAC]\12 - No More Tears.wav

Pre-gap length 0:00:02.50

Peak level 77.9 %
Extraction speed 7.0 X
Track quality 100.0 %
Test CRC B2C9D61E
Copy CRC B2C9D61E
Accurately ripped (confidence 1) [565A6E15] (AR v2)
Copy OK

Track 13

Filename F:\New Rips\The Prisonaires - Just Walkin' In The Rain (1990) [FLAC]\13 - If I Were King.wav

Pre-gap length 0:00:02.50

Peak level 83.7 %
Extraction speed 6.3 X
Track quality 100.0 %
Test CRC C9F04257
Copy CRC C9F04257
Accurately ripped (confidence 1) [04B6ACB9] (AR v2)
Copy OK

Track 14

Filename F:\New Rips\The Prisonaires - Just Walkin' In The Rain (1990) [FLAC]\14 - I Wish.wav

Pre-gap length 0:00:02.50

Peak level 85.9 %
Extraction speed 5.7 X
Track quality 99.9 %
Test CRC 04BCC454
Copy CRC 04BCC454
Accurately ripped (confidence 1) [1BE607E3] (AR v2)
Copy OK

Track 15

Filename F:\New Rips\The Prisonaires - Just Walkin' In The Rain (1990) [FLAC]\15 - Don't Say Tomorrow.wav

Pre-gap length 0:00:02.50

Peak level 97.2 %
Extraction speed 7.3 X
Track quality 100.0 %
Test CRC D04E3137
Copy CRC D04E3137
Accurately ripped (confidence 1) [4685EE1B] (AR v2)
Copy OK

Track 16

Filename F:\New Rips\The Prisonaires - Just Walkin' In The Rain (1990) [FLAC]\16 - No More Tears.wav

Pre-gap length 0:00:02.50

Peak level 84.5 %
Extraction speed 6.1 X
Track quality 99.9 %
Test CRC B360AC2F
Copy CRC B360AC2F
Accurately ripped (confidence 1) [20B12522] (AR v2)
Copy OK

Track 17

Filename F:\New Rips\The Prisonaires - Just Walkin' In The Rain (1990) [FLAC]\17 - What'll You Do Next.wav

Pre-gap length 0:00:02.50

Peak level 85.4 %
Extraction speed 6.8 X
Track quality 100.0 %
Test CRC 1B4C8168
Copy CRC 1B4C8168
Accurately ripped (confidence 1) [AD82D3B6] (AR v2)
Copy OK

Track 18

Filename F:\New Rips\The Prisonaires - Just Walkin' In The Rain (1990) [FLAC]\18 - There Is Love In You.wav

Pre-gap length 0:00:02.50

Peak level 99.0 %
Extraction speed 7.8 X
Track quality 100.0 %
Test CRC 9FE7AE29
Copy CRC 9FE7AE29
Accurately ripped (confidence 1) [43CAEAA4] (AR v2)
Copy OK

Track 19

Filename F:\New Rips\The Prisonaires - Just Walkin' In The Rain (1990) [FLAC]\19 - What'll You Do Next.wav

Pre-gap length 0:00:02.50

Peak level 77.4 %
Extraction speed 7.0 X
Track quality 100.0 %
Test CRC 214D0D0F
Copy CRC 214D0D0F
Accurately ripped (confidence 1) [22B25BDA] (AR v2)
Copy OK

Track 20

Filename F:\New Rips\The Prisonaires - Just Walkin' In The Rain (1990) [FLAC]\20 - Two Strangers.wav

Pre-gap length 0:00:02.50

Peak level 88.8 %
Extraction speed 8.1 X
Track quality 100.0 %
Test CRC 486ED593
Copy CRC 486ED593
Accurately ripped (confidence 1) [4B163994] (AR v2)
Copy OK

Track 21

Filename F:\New Rips\The Prisonaires - Just Walkin' In The Rain (1990) [FLAC]\21 - What About Frank Clement.wav

Pre-gap length 0:00:02.50

Peak level 74.3 %
Extraction speed 8.3 X
Track quality 100.0 %
Test CRC 7C437C41
Copy CRC 7C437C41
Accurately ripped (confidence 1) [731EDA15] (AR v2)
Copy OK

Track 22

Filename F:\New Rips\The Prisonaires - Just Walkin' In The Rain (1990) [FLAC]\22 - Friends Call Me A Fool.wav

Pre-gap length 0:00:02.50

Peak level 77.6 %
Extraction speed 8.4 X
Track quality 100.0 %
Test CRC 99E18EB4
Copy CRC 99E18EB4
Accurately ripped (confidence 1) [FA266E2A] (AR v2)
Copy OK

Track 23

Filename F:\New Rips\The Prisonaires - Just Walkin' In The Rain (1990) [FLAC]\23 - Lucille I Want You.wav

Pre-gap length 0:00:02.50

Peak level 66.9 %
Extraction speed 8.4 X
Track quality 100.0 %
Test CRC BD804864
Copy CRC BD804864
Accurately ripped (confidence 1) [7EB9A54E] (AR v2)
Copy OK

Track 24

Filename F:\New Rips\The Prisonaires - Just Walkin' In The Rain (1990) [FLAC]\24 - Surleen.wav

Pre-gap length 0:00:02.50

Peak level 79.3 %
Extraction speed 8.6 X
Track quality 100.0 %
Test CRC E19614F3
Copy CRC E19614F3
Accurately ripped (confidence 1) [C242310B] (AR v2)
Copy OK

Track 25

Filename F:\New Rips\The Prisonaires - Just Walkin' In The Rain (1990) [FLAC]\25 - All Alone And Lonely.wav

Pre-gap length 0:00:02.50

Peak level 87.5 %
Extraction speed 8.4 X
Track quality 100.0 %
Test CRC 5A2342C7
Copy CRC 5A2342C7
Accurately ripped (confidence 1) [EF7FF7AC] (AR v2)
Copy OK

Track 26

Filename F:\New Rips\The Prisonaires - Just Walkin' In The Rain (1990) [FLAC]\26 - Rockin' Horse.wav

Pre-gap length 0:00:02.50

Peak level 83.7 %
Extraction speed 8.6 X
Track quality 100.0 %
Test CRC 0173417F
Copy CRC 0173417F
Accurately ripped (confidence 1) [67E76FEE] (AR v2)
Copy OK


All tracks accurately ripped

No errors occurred

End of status report

–– CUETools DB Plugin V2.1.3

[CTDB TOCID: lSLckzoG_9d2IIqR5Uo3672F7og-] disk not present in database, Submit result: lSLckzoG_9d2IIqR5Uo3672F7og- has been uploaded


==== Log checksum CDFE3FA43788ABED0AEE4D7D5D6AC3B6BC4FB1FE3BEDA6A3F0000D6ADAF5068D ====


The Prisonaires - Just Walkin' In The Rain (1953-1955) {Bear Family BCD15523 rel 1990}

The Prisonaires - Just Walkin' In The Rain (1953-1955) {Bear Family BCD15523 rel 1990}



===