Subcategories

The Redbeards - Havin' A Ball (1987) {Receiver Records RRCD 108}

Posted By: ruskaval
The Redbeards - Havin' A Ball (1987) {Receiver Records RRCD 108}

The Redbeards - Havin' A Ball (1987) {Receiver Records RRCD 108}
EAC rip (secure mode) | FLAC (tracks)+CUE+LOG -> 272 Mb | MP3 @320 -> 97 Mb
Full Artwork @ 300 dpi (png) -> 18 Mb | 5% repair rar
© 1987 Receiver Records Limited ‎| RRCD 108
Rock / Boogie Rock / Rock & Roll / Hard Rock

More Top than ZZ Top…

Never heard of the Redbeards (from Texas)? Well firstly they ain't from Texas (probably). Secondly they do sound a weenie bit like the ZZ boys, which when this LP was released in 1987 was only a good thing, and today it stands up in its own right. The version of I Saw Her Standing There is wonderful, as are the other two covers of Gazza Glitters I Didnt Know I Loved You.. and Slade's Gudbuy T'Jane. Then there's their own songs, which range from boogie tastic to plain ol' silly, this is fun-a-billy and deserving of your attention!

I saw the Redbeards From Dudley many times and have their Vinyl album + singles + no record player… How come I never found out there was a CD version of this album until it costs a bundle to get? Surely somebody's gotta see sense and put it back out again! This was/is an amazing record packed with boogielicious riffs and swagger 'His Car Won't Start' was always a stand out for me. This is just a mega album as soon as I win the lottery the CD's mine and I'll be havin'a ball!

The Redbeards:

Drums – Duke Delite
Guitar – Bud Weisman
Guitar, Vocals – Morton Pinkley
Vocals, Bass – Wild Hoss Maverick III

TRACK LISTING:

01. I Didn't Know I Loved You (Till I Saw You Rock) - 03:08
02. One Love Man - 02:51
03. Gudbye T' Jane - 03:53
04. It's Up To You - 04:12
05. Poker With The Boys - 02:18
06. His Car Won't Start - 02:35
07. Shoot It Up - 02:43
08. Bye Bye Bye - 02:36
09. Please Don't Go - 04:54
10. I Saw Her Standing There - 03:29
11. Ain't Got Us - 03:30
12. In Love Again - 04:07

Exact Audio Copy V1.0 beta 3 from 29. August 2011

EAC extraction logfile from 25. March 2013, 9:30

The Redbeards / Havin' A Ball

Used drive : HL-DT-STDVDRAM GT51N Adapter: 0 ID: 1

Read mode : Secure
Utilize accurate stream : Yes
Defeat audio cache : Yes
Make use of C2 pointers : No

Read offset correction : 103
Overread into Lead-In and Lead-Out : No
Fill up missing offset samples with silence : Yes
Delete leading and trailing silent blocks : No
Null samples used in CRC calculations : Yes
Used interface : Native Win32 interface for Win NT & 2000
Gap handling : Appended to previous track

Used output format : User Defined Encoder
Selected bitrate : 32 kBit/s
Quality : High
Add ID3 tag : No
Command line compressor : C:\Exact Audio Copy\FLAC\FLAC.EXE
Additional command line options : -5 -V -T "ARTIST=%artist%" -T "TITLE=%title%" -T "ALBUM=%albumtitle%" -T "DATE=%year%" -T "TRACKNUMBER=%tracknr%" -T "TOTALTRACKS=%numtracks%" -T "GENRE=%genre%" -T "ALBUM ARTIST=%albumartist%" -T "ALBUMARTIST=%albumartist%" -T "COMMENT=Secure Mode, Test and Copy, AccurateRip, FLAC -5" %source%


TOC of the extracted CD

Track | Start | Length | Start sector | End sector
––––––––––––––––––––––––––––-
1 | 0:00.00 | 3:07.50 | 0 | 14074
2 | 3:07.50 | 2:50.50 | 14075 | 26874
3 | 5:58.25 | 3:53.25 | 26875 | 44374
4 | 9:51.50 | 4:12.00 | 44375 | 63274
5 | 14:03.50 | 2:18.00 | 63275 | 73624
6 | 16:21.50 | 2:35.00 | 73625 | 85249
7 | 18:56.50 | 2:43.00 | 85250 | 97474
8 | 21:39.50 | 2:36.00 | 97475 | 109174
9 | 24:15.50 | 4:54.25 | 109175 | 131249
10 | 29:10.00 | 3:29.00 | 131250 | 146924
11 | 32:39.00 | 3:30.25 | 146925 | 162699
12 | 36:09.25 | 4:06.50 | 162700 | 181199


Track 1

Filename C:\temp\01 - I Didn't Know I Loved You (Till I Saw You Rock).wav

Pre-gap length 0:00:02.00

Peak level 92.9 %
Extraction speed 1.2 X
Track quality 100.0 %
Test CRC 7219EF91
Copy CRC 7219EF91
Accurately ripped (confidence 2) [6FA0BA40] (AR v1)
Copy OK

Track 2

Filename C:\temp\02 - One Love Man.wav

Peak level 94.0 %
Extraction speed 1.1 X
Track quality 99.9 %
Test CRC 94F04AC5
Copy CRC 94F04AC5
Accurately ripped (confidence 2) [3241A541] (AR v1)
Copy OK

Track 3

Filename C:\temp\03 - Gudbye T' Jane.wav

Peak level 87.1 %
Extraction speed 1.4 X
Track quality 100.0 %
Test CRC 74632C36
Copy CRC 74632C36
Accurately ripped (confidence 2) [884E1A39] (AR v1)
Copy OK

Track 4

Filename C:\temp\04 - It's Up To You.wav

Peak level 100.0 %
Extraction speed 1.4 X
Track quality 99.9 %
Test CRC EF54997C
Copy CRC EF54997C
Accurately ripped (confidence 2) [5BC76577] (AR v1)
Copy OK

Track 5

Filename C:\temp\05 - Poker With The Boys.wav

Peak level 83.5 %
Extraction speed 1.5 X
Track quality 100.0 %
Test CRC 08820E84
Copy CRC 08820E84
Accurately ripped (confidence 2) [61AB54A5] (AR v1)
Copy OK

Track 6

Filename C:\temp\06 - His Car Won't Start.wav

Peak level 80.8 %
Extraction speed 1.3 X
Track quality 99.9 %
Test CRC DFDC704C
Copy CRC DFDC704C
Accurately ripped (confidence 2) [CB1BB236] (AR v1)
Copy OK

Track 7

Filename C:\temp\07 - Shoot It Up.wav

Peak level 83.5 %
Extraction speed 1.4 X
Track quality 99.9 %
Test CRC 7AECF142
Copy CRC 7AECF142
Accurately ripped (confidence 2) [5EA2FE45] (AR v1)
Copy OK

Track 8

Filename C:\temp\08 - Bye Bye Bye.wav

Peak level 88.1 %
Extraction speed 1.4 X
Track quality 99.9 %
Test CRC 0F7F30D9
Copy CRC 0F7F30D9
Accurately ripped (confidence 2) [2B58E713] (AR v1)
Copy OK

Track 9

Filename C:\temp\09 - Please Don't Go.wav

Peak level 82.8 %
Extraction speed 2.0 X
Track quality 100.0 %
Test CRC 3E0EFA07
Copy CRC 3E0EFA07
Accurately ripped (confidence 2) [865F0AFC] (AR v1)
Copy OK

Track 10

Filename C:\temp\10 - I Saw Her Standing There.wav

Peak level 100.0 %
Extraction speed 2.0 X
Track quality 100.0 %
Test CRC 1EB96271
Copy CRC 1EB96271
Accurately ripped (confidence 2) [47960E90] (AR v1)
Copy OK

Track 11

Filename C:\temp\11 - Ain't Got Us.wav

Peak level 82.0 %
Extraction speed 2.1 X
Track quality 100.0 %
Test CRC 48201EE9
Copy CRC 48201EE9
Accurately ripped (confidence 2) [92779DC7] (AR v1)
Copy OK

Track 12

Filename C:\temp\12 - In Love Again.wav

Peak level 85.8 %
Extraction speed 1.9 X
Track quality 99.9 %
Test CRC A21B46DB
Copy CRC A21B46DB
Accurately ripped (confidence 2) [3610F969] (AR v1)
Copy OK


All tracks accurately ripped

No errors occurred

End of status report

==== Log checksum 15260DA2345D838F534DACBE275223DF1CAC34A8168769DC088B5C7818692C73 ====


The Redbeards - Havin' A Ball (1987) {Receiver Records RRCD 108}

The Redbeards - Havin' A Ball (1987) {Receiver Records RRCD 108}



===