Subcategories

Various Artists - The Sound of Medieval Flute (2006) {Festivitas Artium Schola}

Posted By: ruskaval
Various Artists - The Sound of Medieval Flute (2006) {Festivitas Artium Schola}

Various Artists - The Sound of Medieval Flute (2006) {Festivitas Artium Schola}
EAC rip (secure mode) | FLAC (tracks)+CUE+LOG -> 287 Mb | MP3 @320 -> 157 Mb
Full Artwork @ 600 dpi (jpg) -> 223 Mb | 5% repair rar
© 2006 Festivitas Artium Schola | [none]
Classical / Medieval / Early Music / 14th Century

The selection of the title "The Sound of Medieval Flute" is not fortuitous and aims to intrigue those listeners who know that no medieval transverse flute finds have been reported so far. What kind of transverse flutes were played in medieval Europe and what they sounded like can only be intuited by piecing together a kaleidoscope of information preserved in the graphic arts, in literary and poetic works touching on the performance practice of medieval instrumental music , in folk music traditions using similar instruments and there is no hiding that anyway adding a certain measure of personal imagination to the mix. No doubt the medieval transverse flute was similar in its construction to the oldest flutes, reports of which have been recorded in Asia, a part of the world where the instrument enjoys continued popular use to these days.

The Consort's choice of the instruments including in addition to the flutes also a harp and a bell chime serves to highlight the nuanced and refined sound of the musical material performed. We support the view according to which, unlike in Renaissance music, the emphasis of the medieval period was not placed on varying the sound of the pieces played by using a multiplicity of instruments representing different musical timbres but rather aimed to achieve a maximum of nuance and expression on one single instrument.
Various Artists - The Sound of Medieval Flute (2006) {Festivitas Artium Schola}


festivitas.ee INFO

FA Schola Ensemble
Raho Langsepp - medieval flutes
Lilian Langsepp - gothic harp
Helena Uleksin - bells, medieval flute

Tracklist
1. Istampitta Isabella (9:09)
2. Quan ye voy (2:17)
3. Istampitta Chominciamento di gioia (6:59)
4. Su la rivera (2:00)
5. Istampitta Palameno (8:55)
6. Istampitta Belicha (9:26)
7. Alleluia (2:11)
8. Or qua conpagni (1:44)
9. Dal bel chastel (2:17)
10. Istampitta Tre fontane (11:53)
11. Bel fiore dança in rondello (1:35)
12. Santa Maria amar (7:38)

Exact Audio Copy V1.3 from 2. September 2016

EAC extraction logfile from 2. November 2019, 16:00

Unknown Artist / Unknown Title

Used drive : HL-DT-STBD-RE BH12LS38 Adapter: 1 ID: 0

Read mode : Secure
Utilize accurate stream : Yes
Defeat audio cache : Yes
Make use of C2 pointers : No

Read offset correction : 667
Overread into Lead-In and Lead-Out : No
Fill up missing offset samples with silence : Yes
Delete leading and trailing silent blocks : No
Null samples used in CRC calculations : Yes
Used interface : Native Win32 interface for Win NT & 2000
Gap handling : Appended to previous track

Used output format : User Defined Encoder
Selected bitrate : 1024 kBit/s
Quality : High
Add ID3 tag : No
Command line compressor : J:\Documents\Utilities\Audio\FLAC\flac.exe
Additional command line options : -8 -V -T "ARTIST=%artist%" -T "TITLE=%title%" -T "ALBUM=%albumtitle%" -T "DATE=%year%" -T "TRACKNUMBER=%tracknr%" -T "GENRE=%genre%" -T "COMPOSER=%composer%" %haslyrics%–tag-from-file=LYRICS="%lyricsfile%"%haslyrics% -T "ALBUMARTIST=%albumartist%" -T "DISCNUMBER=%cdnumber%" -T "TOTALDISCS=%totalcds%" -T "TOTALTRACKS=%numtracks%" -T "COMMENT=%comment%" %source% -o %dest%


TOC of the extracted CD

Track | Start | Length | Start sector | End sector
––––––––––––––––––––––––––––-
1 | 0:00.00 | 9:09.23 | 0 | 41197
2 | 9:09.23 | 2:17.15 | 41198 | 51487
3 | 11:26.38 | 6:58.70 | 51488 | 82907
4 | 18:25.33 | 2:00.08 | 82908 | 91915
5 | 20:25.41 | 8:55.04 | 91916 | 132044
6 | 29:20.45 | 9:26.37 | 132045 | 174531
7 | 38:47.07 | 2:11.28 | 174532 | 184384
8 | 40:58.35 | 1:43.54 | 184385 | 192163
9 | 42:42.14 | 2:16.39 | 192164 | 202402
10 | 44:58.53 | 11:53.21 | 202403 | 255898
11 | 56:51.74 | 1:35.04 | 255899 | 263027
12 | 58:27.03 | 7:38.30 | 263028 | 297407


Track 1

Filename J:\Process\Music\The Sound of Medieval Flute\01 Track01.wav

Pre-gap length 0:00:02.00

Peak level 90.9 %
Extraction speed 1.2 X
Track quality 100.0 %
Test CRC 51D2E8AA
Copy CRC 51D2E8AA
Track not present in AccurateRip database
Copy OK

Track 2

Filename J:\Process\Music\The Sound of Medieval Flute\02 Track02.wav

Pre-gap length 0:00:02.00

Peak level 89.1 %
Extraction speed 1.2 X
Track quality 100.0 %
Test CRC 95F2C3F2
Copy CRC 95F2C3F2
Track not present in AccurateRip database
Copy OK

Track 3

Filename J:\Process\Music\The Sound of Medieval Flute\03 Track03.wav

Pre-gap length 0:00:02.40

Peak level 89.1 %
Extraction speed 1.4 X
Track quality 99.9 %
Test CRC 31941623
Copy CRC 31941623
Track not present in AccurateRip database
Copy OK

Track 4

Filename J:\Process\Music\The Sound of Medieval Flute\04 Track04.wav

Pre-gap length 0:00:03.00

Peak level 69.0 %
Extraction speed 1.3 X
Track quality 100.0 %
Test CRC 882E22AC
Copy CRC 882E22AC
Track not present in AccurateRip database
Copy OK

Track 5

Filename J:\Process\Music\The Sound of Medieval Flute\05 Track05.wav

Pre-gap length 0:00:02.00

Peak level 92.4 %
Extraction speed 1.8 X
Track quality 100.0 %
Test CRC 90B711D3
Copy CRC 90B711D3
Track not present in AccurateRip database
Copy OK

Track 6

Filename J:\Process\Music\The Sound of Medieval Flute\06 Track06.wav

Pre-gap length 0:00:02.40

Peak level 89.1 %
Extraction speed 2.0 X
Track quality 100.0 %
Test CRC 5B08FEA9
Copy CRC 5B08FEA9
Track not present in AccurateRip database
Copy OK

Track 7

Filename J:\Process\Music\The Sound of Medieval Flute\07 Track07.wav

Peak level 56.2 %
Extraction speed 1.7 X
Track quality 100.0 %
Test CRC F507714B
Copy CRC F507714B
Track not present in AccurateRip database
Copy OK

Track 8

Filename J:\Process\Music\The Sound of Medieval Flute\08 Track08.wav

Pre-gap length 0:00:03.00

Peak level 79.4 %
Extraction speed 1.6 X
Track quality 100.0 %
Test CRC 27ABC410
Copy CRC 27ABC410
Track not present in AccurateRip database
Copy OK

Track 9

Filename J:\Process\Music\The Sound of Medieval Flute\09 Track09.wav

Pre-gap length 0:00:02.40

Peak level 79.4 %
Extraction speed 1.8 X
Track quality 100.0 %
Test CRC 72F01A75
Copy CRC 72F01A75
Track not present in AccurateRip database
Copy OK

Track 10

Filename J:\Process\Music\The Sound of Medieval Flute\10 Track10.wav

Pre-gap length 0:00:03.00

Peak level 89.1 %
Extraction speed 2.3 X
Track quality 100.0 %
Test CRC 64581BF9
Copy CRC 64581BF9
Track not present in AccurateRip database
Copy OK

Track 11

Filename J:\Process\Music\The Sound of Medieval Flute\11 Track11.wav

Pre-gap length 0:00:02.40

Peak level 44.6 %
Extraction speed 1.8 X
Track quality 100.0 %
Test CRC 615B0273
Copy CRC 615B0273
Track not present in AccurateRip database
Copy OK

Track 12

Filename J:\Process\Music\The Sound of Medieval Flute\12 Track12.wav

Pre-gap length 0:00:03.00

Peak level 72.1 %
Extraction speed 2.4 X
Track quality 100.0 %
Test CRC CCE4BF65
Copy CRC CCE4BF65
Track not present in AccurateRip database
Copy OK


None of the tracks are present in the AccurateRip database

No errors occurred

End of status report

–– CUETools DB Plugin V2.1.6

[CTDB TOCID: DTcwk1SgPVQpT8YOx3sXS87oECU-] disk not present in database
Submit result: DTcwk1SgPVQpT8YOx3sXS87oECU- has been uploaded


==== Log checksum 4479B1B1C1D6278613DCEC8A8DDDC1E1D704C3CFC7D47F2A9F4F741849F79A49 ====


Various Artists - The Sound of Medieval Flute (2006) {Festivitas Artium Schola}

Various Artists - The Sound of Medieval Flute (2006) {Festivitas Artium Schola}



===