Tags
Language
Tags

the sun ra arkestra - live at praxis '84 (2000)

Posted By: basa005
the sun ra arkestra - live at praxis '84 (2000)

the sun ra arkestra - live at praxis '84 (2000)
EAC RIP | APE + CUE + LOG | COVER + BOOK | RAR FILES (3% recovery) | 2CD 626 Mb
Jazz | golden years GY 5/6

the sun ra arkestra - live at praxis '84 (2000)

Tracklist:
disc one
1. untitled improviation 1 (sun ra)
2. discipline 27-II / children of the sun (sun ra)
3. nuclear war (sun ra)
4. unidentified blues (sun ra)
5. fate in a pleasant mood (sun ra)
6. yeah, man! (sissle)
7. space is the place / we travel the spaceways / outer spaceways incorporated / next stop mars (sun ra)
8. untitled improvisation 2 (sun ra)
9. untitled improvisation 3 (sun ra)
10. Discipline 27 (sun ra)

disc two
1. mack the knife (brecht, weill, blitzstein)
2. cocktails for two (coslow, johnston)
3. somewhere over the rainbow (arlen, harburg)
4. satin doll (ellington, strayhorn)
5. big john's special (henderson)
6. carefree (egyptian fantasy) (sun ra)
7. days of wine and roses (mancini)
8. theme of the stargazers / the satellites are spinning (sun ra)
9. they'll come back (sun ra)
10. enlightenment / strange mathematics / rhythmic equations (dotson, sun ra / sun ra)

recorded live at the 'orpheus theatre', athens, greece, februay 27, 1984

sun ra: piano, organ, synth, voice
ronnie brown: trumpet, flugel-horn, tambourine
marshall allen: alto sax, clarinet, flute, oboe, kora, electric valve instrument, percussion
eloe omoe: alto sax, bass clarinet, contr-alto-clarinet, flute, electric valve instrument, percussion
john gilmore: tenor sax, clarinet, timb, electric valve instrument, voice
danny ray thompson: baritone sax, alto sax, flute,bongo, electric valve instrument
james jacson: basoon, flute, oboe, ancient egyptian infinity drum, electric valve instrument,, voice
rollo redford: bas
matthew brown: conga
don mamford: drums, percussion
salah ragab: conga, percussion
myriam broche: dance
greg pratt: dance

produced by leo feigin


Exact Audio Copy V1.0 beta 2 from 29. April 2011

EAC extraction logfile from 25. October 2011, 14:46

The Sun Ra Arkestra / Live At Praxis '84 (cd1)

Used drive : TSSTcorpCDDVDW SE-S204N Adapter: 2 ID: 0

Read mode : Secure
Utilize accurate stream : Yes
Defeat audio cache : Yes
Make use of C2 pointers : No

Read offset correction : 6
Overread into Lead-In and Lead-Out : No
Fill up missing offset samples with silence : Yes
Delete leading and trailing silent blocks : No
Null samples used in CRC calculations : No
Used interface : Native Win32 interface for Win NT & 2000

Used output format : Internal WAV Routines
Sample format : 44.100 Hz; 16 Bit; Stereo


TOC of the extracted CD

Track | Start | Length | Start sector | End sector
––––––––––––––––––––––––––––-
1 | 0:00.00 | 4:24.24 | 0 | 19823
2 | 4:24.24 | 4:55.56 | 19824 | 42004
3 | 9:20.05 | 4:32.26 | 42005 | 62430
4 | 13:52.31 | 5:26.71 | 62431 | 86951
5 | 19:19.27 | 9:31.24 | 86952 | 129800
6 | 28:50.51 | 2:52.19 | 129801 | 142719
7 | 31:42.70 | 4:57.26 | 142720 | 165020
8 | 36:40.21 | 4:25.24 | 165021 | 184919
9 | 41:05.45 | 7:33.69 | 184920 | 218963
10 | 48:39.39 | 8:21.71 | 218964 | 256609


Range status and errors

Selected range

Filename C:\avaxhome\The Sun Ra Arkestra - Live At Praxis '84 (cd1).wav

Peak level 78.5 %
Extraction speed 7.2 X
Range quality 100.0 %
Copy CRC 81C43376
Copy OK

No errors occurred


AccurateRip summary

Track 1 accurately ripped (confidence 5) [040F706B] (AR v1)
Track 2 accurately ripped (confidence 5) [843E51CA] (AR v1)
Track 3 accurately ripped (confidence 5) [B6605923] (AR v1)
Track 4 accurately ripped (confidence 5) [F81B80A2] (AR v1)
Track 5 accurately ripped (confidence 5) [4E0728C4] (AR v1)
Track 6 accurately ripped (confidence 5) [EA1D67D2] (AR v1)
Track 7 accurately ripped (confidence 5) [B27B1AB8] (AR v1)
Track 8 accurately ripped (confidence 5) [556C1784] (AR v1)
Track 9 accurately ripped (confidence 5) [E9D43FEB] (AR v1)
Track 10 accurately ripped (confidence 5) [723A2036] (AR v1)

All tracks accurately ripped

End of status report

==== Log checksum B72072431BDB998F4D1E53CC7943E08B3590DDCF90857733525B2C3789C854BE ====


Exact Audio Copy V1.0 beta 2 from 29. April 2011

EAC extraction logfile from 25. October 2011, 14:58

Unknown Artist / Unknown Title

Used drive : TSSTcorpCDDVDW SE-S204N Adapter: 2 ID: 0

Read mode : Secure
Utilize accurate stream : Yes
Defeat audio cache : Yes
Make use of C2 pointers : No

Read offset correction : 6
Overread into Lead-In and Lead-Out : No
Fill up missing offset samples with silence : Yes
Delete leading and trailing silent blocks : No
Null samples used in CRC calculations : No
Used interface : Native Win32 interface for Win NT & 2000

Used output format : Internal WAV Routines
Sample format : 44.100 Hz; 16 Bit; Stereo


TOC of the extracted CD

Track | Start | Length | Start sector | End sector
––––––––––––––––––––––––––––-
1 | 0:00.00 | 8:08.30 | 0 | 36629
2 | 8:08.30 | 4:25.26 | 36630 | 56530
3 | 12:33.56 | 4:05.08 | 56531 | 74913
4 | 16:38.64 | 6:38.53 | 74914 | 104816
5 | 23:17.42 | 3:55.11 | 104817 | 122452
6 | 27:12.53 | 9:42.09 | 122453 | 166111
7 | 36:54.62 | 6:10.15 | 166112 | 193876
8 | 43:05.02 | 8:53.31 | 193877 | 233882
9 | 51:58.33 | 1:46.14 | 233883 | 241846
10 | 53:44.47 | 7:07.49 | 241847 | 273920


Range status and errors

Selected range

Filename C:\avaxhome\The Sun Ra Arkestra - Live At Praxis '84 (cd2).wav

Peak level 100.0 %
Extraction speed 7.6 X
Range quality 100.0 %
Copy CRC 7E3A8AE7
Copy OK

No errors occurred


AccurateRip summary

Track 1 accurately ripped (confidence 4) [62BFE509] (AR v1)
Track 2 accurately ripped (confidence 4) [C463ACE4] (AR v1)
Track 3 accurately ripped (confidence 4) [4987C26D] (AR v1)
Track 4 accurately ripped (confidence 4) [8C441E63] (AR v1)
Track 5 accurately ripped (confidence 4) [AD963FE0] (AR v1)
Track 6 accurately ripped (confidence 4) [94FDC345] (AR v1)
Track 7 accurately ripped (confidence 4) [81EB83BF] (AR v1)
Track 8 accurately ripped (confidence 4) [B95FFBF2] (AR v1)
Track 9 accurately ripped (confidence 4) [78DA0F4E] (AR v1)
Track 10 accurately ripped (confidence 4) [E4B8F001] (AR v1)

All tracks accurately ripped

End of status report

==== Log checksum E95F54A2D702D12C42A38A70BEF41A7B0F6979F8D7D73A798612E090CE1CFBCB ====