Subcategories

The Tubes - The Tubes (1975)

Posted By: mr. magoo
The Tubes - The Tubes (1975)

The Tubes - The Tubes (1975)
EAC AccurateRip | FLAC + Log + Cue | Scans | 244 MB | RS | 5% recovery
Label: A&M Records 75021 3161 2 | Genre: Rock


Produced by Al Kooper, this debut by the notorious San Francisco group is best known for the blazing anthem "White Punks on Dope". The Tubes were arch satirists of popular culture whose outrageous performance-art concepts -- which swung wildly from soft-core pornography to suit-and-tie conservatism -- frequently eclipsed their elusive musical identity. The beginnings of the group originate in Phoenix, Arizona in the late '60s, where guitarist Bill Spooner, keyboardist Vince Welnick and bassist Rick Anderson formed as the Beans (alternately billing themselves as the Radar Men from Uranus). After moving to San Francisco in 1972, the Beans recruited guitarist Roger Steen and drummer Prairie Prince (from Red, White & Blues), and later became The Tubes with the addition of Michael Cotten on keyboards and former roadie Fee Waybill on lead vocals.

Tracks:
01 - Up From The Deep
02 - Haloes
03 - Space Baby
04 - Malaguea Salerosa
05 - Mondo Bondage
06 - What Do You Want From Life
07 - Boy Crazy
08 - White Punks On Dope

Exact Audio Copy V0.99 prebeta 4 from 23. January 2008

EAC extraction logfile from 20. December 2009, 16:38

The Tubes / The Tubes

Used drive : SONY DVD RW DRU-840A Adapter: 1 ID: 1

Read mode : Secure
Utilize accurate stream : Yes
Defeat audio cache : No
Make use of C2 pointers : No

Read offset correction : 6
Overread into Lead-In and Lead-Out : No
Fill up missing offset samples with silence : Yes
Delete leading and trailing silent blocks : No
Null samples used in CRC calculations : Yes
Used interface : Native Win32 interface for Win NT & 2000
Gap handling : Appended to previous track

Used output format : User Defined Encoder
Selected bitrate : 1024 kBit/s
Quality : High
Add ID3 tag : No
Command line compressor : C:\Program Files\Exact Audio Copy\Flac\flac.exe
Additional command line options : -8 -V -T "artist=%a" -T "title=%t" -T "album=%g" -T "date=%y" -T "tracknumber=%n" -T "genre=%m" %s


TOC of the extracted CD

Track | Start | Length | Start sector | End sector
––––––––––––––––––––––––––––-
1 | 0:00.32 | 4:28.63 | 32 | 20194
2 | 4:29.20 | 4:53.67 | 20195 | 42236
3 | 9:23.12 | 4:25.25 | 42237 | 62136
4 | 13:48.37 | 3:53.73 | 62137 | 79684
5 | 17:42.35 | 4:34.35 | 79685 | 100269
6 | 22:16.70 | 4:01.57 | 100270 | 118401
7 | 26:18.52 | 4:09.18 | 118402 | 137094
8 | 30:27.70 | 6:49.35 | 137095 | 167804


Track 1

Filename F:\EAC Rips\The Tubes - The Tubes\01 - Up from the Deep.wav

Pre-gap length 0:00:02.42

Peak level 72.8 %
Track quality 100.0 %
Test CRC F4F450FB
Copy CRC F4F450FB
Accurately ripped (confidence 7) [795A6DFE]
Copy OK

Track 2

Filename F:\EAC Rips\The Tubes - The Tubes\02 - Haloes.wav

Peak level 60.9 %
Track quality 100.0 %
Test CRC D43B804E
Copy CRC D43B804E
Accurately ripped (confidence 7) [85FB9576]
Copy OK

Track 3

Filename F:\EAC Rips\The Tubes - The Tubes\03 - Space Baby.wav

Peak level 63.5 %
Track quality 99.9 %
Test CRC 391B154B
Copy CRC 391B154B
Accurately ripped (confidence 7) [7734E55B]
Copy OK

Track 4

Filename F:\EAC Rips\The Tubes - The Tubes\04 - Malaguea Salerosa.wav

Peak level 67.6 %
Track quality 100.0 %
Test CRC 03122BDC
Copy CRC 03122BDC
Accurately ripped (confidence 7) [663D546F]
Copy OK

Track 5

Filename F:\EAC Rips\The Tubes - The Tubes\05 - Mondo Bondage.wav

Pre-gap length 0:00:01.20

Peak level 59.8 %
Track quality 100.0 %
Test CRC 3A80EECA
Copy CRC 3A80EECA
Accurately ripped (confidence 7) [1D5A9E8C]
Copy OK

Track 6

Filename F:\EAC Rips\The Tubes - The Tubes\06 - What Do You Want from Life.wav

Peak level 73.1 %
Track quality 99.9 %
Test CRC 22698D83
Copy CRC 22698D83
Accurately ripped (confidence 7) [5B856DAF]
Copy OK

Track 7

Filename F:\EAC Rips\The Tubes - The Tubes\07 - Boy Crazy.wav

Peak level 65.1 %
Track quality 100.0 %
Test CRC 525D5917
Copy CRC 525D5917
Accurately ripped (confidence 7) [2ABA9610]
Copy OK

Track 8

Filename F:\EAC Rips\The Tubes - The Tubes\08 - White Punks on Dope.wav

Peak level 68.9 %
Track quality 99.9 %
Test CRC 195C888A
Copy CRC 195C888A
Accurately ripped (confidence 7) [56CFEC80]
Copy OK


All tracks accurately ripped

No errors occurred

End of status report


Rapid Share Links



Password: mr. magoo