Subcategories

Thomas Daniel Schlee – Ich, Hiob (2012)

Posted By: d'Avignon
Thomas Daniel Schlee – Ich, Hiob (2012)

Thomas Daniel Schlee – Ich, Hiob (2012)
Classical/Opera/21st Century | FLAC lossless/2cd | cuesheets+logs | covers+booklet | 1h20m39s | 396mb
Label: Paladino Music | cat. no. PMR 0002


The first cd presents us with a monody full of despair of a suffering Job. Solo instruments interject some sparse notes here and there, accentuating Job’s thoughts and ruminations. The mood on the second cd is different; here Job regains hope and trust.

All in all an austere composition. Give it a try, or better, give it a dare. It’s definitely not for everyday listening, it’s just too heavy for that. But I’m impressed; Job’s experience is felt deeply and reminds me of the sincerity and truthfulness of Bach. Stylistically, this makes me think of Gregorian (or rather, its atmosphere) and modern classical song at the same time.

Tracks:

Cd1
01. Wer klagt? [0:02:48.32]
02. Näherung [0:02:57.13]
03. Der Verlust [0:05:04.60]
04. Klage [0:04:14.65]
05. Genesis [0:04:40.93]
06. Psalm [0:04:41.05]
07. Die Frage [0:02:54.82]
08. Die Selbstzweifel [0:03:12.01]
09. Über das Verstummen [0:02:09.25]
10. Die zwei Gesichter Göttes [0:05:27.74]
11. Der Fluch [0:02:44.88]

Cd2
01. Unversöhnt [0:03:01.92]
02. Der Raum [0:05:16.06]
03. Die Begegnung mit dem Engel [0:02:00.05]
04. Vater und Sohn [0:03:34.49]
05. Die Fragen [0:03:34.77]
06. Trotzige Demut [0:02:13.76]
07. Sein Zorn [0:02:48.74]
08. Die Erzählung [0:02:56.28]
09. Ein fernes Echo [0:03:25.57]
10. Die Versöhnung [0:04:01.61]
11. Sinfonia [0:04:44.78]
12. Das Licht [0:02:17.32]

Performers:

Martin Rummel - Cello
Kurt Azesberger - Voice
Anneliese Fuchsluger - Flute
Veronika Schulz - Violin
Matthias Schulz - Flute
Wolfgang Zuzer - Flute
Ursula Langmayr - Voice
Matthias Eckart - Flute
David Ottmar – Trumpet

Exact Audio Copy V1.0 beta 3 from 29. August 2011

EAC extraction logfile from 12. January 2013, 0:15

Thomas Daniel Schlee / Ich, Hiob

Used drive : TSSTcorpCDDVDW SH-216AB Adapter: 1 ID: 0

Read mode : Secure
Utilize accurate stream : Yes
Defeat audio cache : Yes
Make use of C2 pointers : No

Read offset correction : 6
Overread into Lead-In and Lead-Out : No
Fill up missing offset samples with silence : Yes
Delete leading and trailing silent blocks : No
Null samples used in CRC calculations : Yes
Used interface : Native Win32 interface for Win NT & 2000

Used output format : User Defined Encoder
Selected bitrate : 768 kBit/s
Quality : High
Add ID3 tag : No
Command line compressor : C:\Program Files (x86)\Exact Audio Copy\FLAC\FLAC.EXE
Additional command line options : -6 -V -T "ARTIST=%artist%" -T "TITLE=%title%" -T "ALBUM=%albumtitle%" -T "DATE=%year%" -T "TRACKNUMBER=%tracknr%" -T "GENRE=%genre%" -T "COMMENT=%comment%" -T "BAND=%albuminterpret%" -T "ALBUMARTIST=%albuminterpret%" -T "COMPOSER=%composer%" %haslyrics%–tag-from-file=LYRICS="%lyricsfile%"%haslyrics% -T "DISCNUMBER=%cdnumber%" -T "TOTALDISCS=%totalcds%" -T "TOTALTRACKS=%numtracks%" %hascover%–picture="%coverfile%"%hascover% %source% -o %dest%


TOC of the extracted CD

Track | Start | Length | Start sector | End sector
––––––––––––––––––––––––––––-
1 | 0:00.00 | 2:48.24 | 0 | 12623
2 | 2:48.24 | 2:57.10 | 12624 | 25908
3 | 5:45.34 | 5:04.45 | 25909 | 48753
4 | 10:50.04 | 4:14.49 | 48754 | 67852
5 | 15:04.53 | 4:40.70 | 67853 | 88922
6 | 19:45.48 | 4:41.04 | 88923 | 110001
7 | 24:26.52 | 2:54.62 | 110002 | 123113
8 | 27:21.39 | 3:12.01 | 123114 | 137514
9 | 30:33.40 | 2:09.19 | 137515 | 147208
10 | 32:42.59 | 5:27.56 | 147209 | 171789
11 | 38:10.40 | 2:44.66 | 171790 | 184155


Range status and errors

Selected range

Filename C:\Users\astarte\03. POST\Ich, Hiob\1\Thomas Daniel Schlee - Ich, Hiob.wav

Peak level 99.9 %
Extraction speed 6.9 X
Range quality 100.0 %
Copy CRC CC95343D
Copy OK

No errors occurred


AccurateRip summary

Track 1 not present in database
Track 2 not present in database
Track 3 not present in database
Track 4 not present in database
Track 5 not present in database
Track 6 not present in database
Track 7 not present in database
Track 8 not present in database
Track 9 not present in database
Track 10 not present in database
Track 11 not present in database

None of the tracks are present in the AccurateRip database

End of status report

==== Log checksum 76D47ED6828DF12183DCB7F2C4A3C47D91DC7712B30A3D2959A8D3A5C8A66AE3 ====


Exact Audio Copy V1.0 beta 3 from 29. August 2011

EAC extraction logfile from 12. January 2013, 0:26

Thomas Daniel Schlee / Ich, Hiob

Used drive : TSSTcorpCDDVDW SH-216AB Adapter: 1 ID: 0

Read mode : Secure
Utilize accurate stream : Yes
Defeat audio cache : Yes
Make use of C2 pointers : No

Read offset correction : 6
Overread into Lead-In and Lead-Out : No
Fill up missing offset samples with silence : Yes
Delete leading and trailing silent blocks : No
Null samples used in CRC calculations : Yes
Used interface : Native Win32 interface for Win NT & 2000

Used output format : User Defined Encoder
Selected bitrate : 768 kBit/s
Quality : High
Add ID3 tag : No
Command line compressor : C:\Program Files (x86)\Exact Audio Copy\FLAC\FLAC.EXE
Additional command line options : -6 -V -T "ARTIST=%artist%" -T "TITLE=%title%" -T "ALBUM=%albumtitle%" -T "DATE=%year%" -T "TRACKNUMBER=%tracknr%" -T "GENRE=%genre%" -T "COMMENT=%comment%" -T "BAND=%albuminterpret%" -T "ALBUMARTIST=%albuminterpret%" -T "COMPOSER=%composer%" %haslyrics%–tag-from-file=LYRICS="%lyricsfile%"%haslyrics% -T "DISCNUMBER=%cdnumber%" -T "TOTALDISCS=%totalcds%" -T "TOTALTRACKS=%numtracks%" %hascover%–picture="%coverfile%"%hascover% %source% -o %dest%


TOC of the extracted CD

Track | Start | Length | Start sector | End sector
––––––––––––––––––––––––––––-
1 | 0:00.00 | 3:01.69 | 0 | 13643
2 | 3:01.69 | 5:16.05 | 13644 | 37348
3 | 8:17.74 | 2:00.04 | 37349 | 46352
4 | 10:18.03 | 3:34.37 | 46353 | 62439
5 | 13:52.40 | 3:34.58 | 62440 | 78547
6 | 17:27.23 | 2:13.57 | 78548 | 88579
7 | 19:41.05 | 2:48.56 | 88580 | 101235
8 | 22:29.61 | 2:56.21 | 101236 | 114456
9 | 25:26.07 | 3:25.43 | 114457 | 129874
10 | 28:51.50 | 4:01.46 | 129875 | 147995
11 | 32:53.21 | 4:44.59 | 147996 | 169354
12 | 37:38.05 | 2:17.24 | 169355 | 179653


Range status and errors

Selected range

Filename C:\Users\astarte\03. POST\Ich, Hiob\2\Thomas Daniel Schlee - Ich, Hiob.wav

Peak level 87.8 %
Extraction speed 6.7 X
Range quality 99.9 %
Copy CRC 0171D6C7
Copy OK

No errors occurred


AccurateRip summary

Track 1 not present in database
Track 2 not present in database
Track 3 not present in database
Track 4 not present in database
Track 5 not present in database
Track 6 not present in database
Track 7 not present in database
Track 8 not present in database
Track 9 not present in database
Track 10 not present in database
Track 11 not present in database
Track 12 not present in database

None of the tracks are present in the AccurateRip database

End of status report

==== Log checksum 2A92F850B42E6C22BFF9595A31BC79884217F832E2E855309FB44CE63168EAEF ====