Subcategories

Tobias Meinhart - Berlin People (2019)

Posted By: Domestos
Tobias Meinhart - Berlin People (2019)

Tobias Meinhart - Berlin People (2019)
EAC Rip | FLAC (tracks+.cue, log) ~ 375.21 Mb | 01:02:16 | Covers
Post-Bop, Contemporary Jazz | Country: USA | Label: Sunnyside Communications - SSC 1541

The dream of many international jazz musicians is to experience the jazz life of New York City. Saxophonist Tobias Meinhart had the same dream and made a move to the City from his native Germany a decade ago. Having lived in New York for ten years, he came to the realization that a young man from Bavaria can never be from Harlem and that his German roots are central to his musical identity.

For his new album Berlin People, Meinhart wanted to bridge the musical cultures of New York City and Germany by recording with a band of his German peers and an American jazz guitarist who has made Berlin his home, the great Kurt Rosenwinkel.

Though Meinhart had made his home in New York, he regularly returned to Europe and frequently stayed in Berlin during the summers, where he would reconvene with his musician friends. It was his long time friend, bassist Tom Berkmann, who put Meinhart in touch with Rosenwinkel, a musician that the saxophonist had long admired and hoped to perform with.

Kurt Rosenwinkel has been regarded as a firebrand on the guitar and a much-copied stylist. His vocal-like sound has become a touchstone for every guitarist coming up after him. He had relocated to Berlin, at nearly the same time that Meinhart moved to New York, to head the jazz department at the Jazz Institute of Berlin. Rosenwinkel has made Berlin his home base.

Meinhart’s music had been in transition over the past few years. His last couple of recordings found him leading quintets with a trumpet as the second melodic voice. His recent compositions lent themselves to the guitar. So Meinhart was overjoyed when Rosenwinkel accepted his invitation to record and tour with Meinhart’s Berlin based band. Meinhart then set out to write a number of pieces with the guitarist’s sound in mind over the next two months.

The rhythm section that Meinhart enlisted included the aforementioned Berkmann along with pianist Ludwig Hornung and drummer Mathias Ruppnig, all highly respected Berlin-based musicians and former Rosenwinkel students.

For Berlin People, Meinhart wanted to present music that had concrete, personal themes. He came up with a number of pieces that are portraits of family members and inspirational individuals.

The program begins with the moody “Mount Meru,” a composition driven by a strong unison melody between guitar and sax and was inspired by a documentary about mountain climbers and their drive to conquer a Himalayan giant. Hornung’s “Früher War Alles Besser” is a quietly insistent piece with a sly humor, as these young musicians reflect on everything being better before. “It’s Not So Easy” is a phrase regularly used by Meinhart’s father, becoming a sort of family and band mantra quip and is also the title of this challenging but swinging tune.

The brilliant Nobel Prize winner Malala Yousafzai serves as inspiration for Meinhart’s haunting ballad “Malala.” The stark “Be Free” is a loosely structured piece that relies on free group improvisation. The lone standard on the album is “Serenity” by saxophone legend Joe Henderson, chosen jointly by Meinhart and Rosenwinkel and is swinging brilliantly.

Based on an exercise of composing only using major triads, “Childhood” is for Meinhart’s mother and utilizes the chant like repetition of the theme throughout, much like Miles Davis’s “Nefertiti.” The title track tries to capture the spirit of Berlin with the taste of New York by bouncing a wild vamp against a grooving swing. The program concludes with “Alfred,” a lovely tribute to Meinhart’s first musical inspiration, his grandfather, a bassist who convinced the saxophonist to pursue jazz.

Tobias Meinhart finds a balance between his New York dreams and his German roots on his fantastic, new Berlin People.



Track List:
01. Mount Meru (8:21)
02. Fruher War Alles Besser (7:48)
03. It's Not So Easy (7:21)
04. Malala (7:38)
05. Be Free (4:00)
06. Serenity (7:54)
07. Childhood (7:24)
08. Berlin People (6:11)
09. Alfred (5:39)

Tobias Meinhart - tenor saxophone
Kurt Rosenwinkel - guitar (#1,3,4,6,7)
Ludwig Hornung - piano
Tom Berkmann - bass
Mathias Ruppnig - drums

Tobias Meinhart - Berlin People (2019)

Exact Audio Copy V1.3 from 2. September 2016

EAC extraction logfile from 7. March 2020, 18:42

Tobias Meinhart / Berlin People

Used drive : ASUS DRW-24B1ST j Adapter: 1 ID: 0

Read mode : Secure
Utilize accurate stream : Yes
Defeat audio cache : Yes
Make use of C2 pointers : No

Read offset correction : 6
Overread into Lead-In and Lead-Out : No
Fill up missing offset samples with silence : Yes
Delete leading and trailing silent blocks : No
Null samples used in CRC calculations : Yes
Used interface : Native Win32 interface for Win NT & 2000
Gap handling : Appended to previous track

Used output format : User Defined Encoder
Selected bitrate : 1024 kBit/s
Quality : High
Add ID3 tag : No
Command line compressor : C:\Program Files\Exact Audio Copy\Flac\flac.exe
Additional command line options : -8 -V -T "ARTIST=%artist%" -T "TITLE=%title%" -T "ALBUM=%albumtitle%" -T "DATE=%year%" -T "TRACKNUMBER=%tracknr%" -T "GENRE=%genre%" -T "PERFORMER=%albuminterpret%" -T "COMPOSER=%composer%" %haslyrics%–tag-from-file=LYRICS="%lyricsfile%"%haslyrics% -T "ALBUMARTIST=%albumartist%" -T "DISCNUMBER=%cdnumber%" -T "TOTALDISCS=%totalcds%" -T "TOTALTRACKS=%numtracks%" -T "COMMENT=%comment%" %source% -o %dest%


TOC of the extracted CD

Track | Start | Length | Start sector | End sector
––––––––––––––––––––––––––––-
1 | 0:00.00 | 8:21.27 | 0 | 37601
2 | 8:21.27 | 7:47.45 | 37602 | 72671
3 | 16:08.72 | 7:21.05 | 72672 | 105751
4 | 23:30.02 | 7:37.68 | 105752 | 140094
5 | 31:07.70 | 4:00.25 | 140095 | 158119
6 | 35:08.20 | 7:53.67 | 158120 | 193661
7 | 43:02.12 | 7:23.46 | 193662 | 226932
8 | 50:25.58 | 6:11.14 | 226933 | 254771
9 | 56:36.72 | 5:38.73 | 254772 | 280194


Track 1

Filename C:\EAC\Tobias Meinhart - Berlin People\01 Mount Meru.wav

Pre-gap length 0:00:02.00

Peak level 96.2 %
Extraction speed 5.8 X
Track quality 100.0 %
Test CRC FC99BAC9
Copy CRC FC99BAC9
Accurately ripped (confidence 1) [0BA0B3D9] (AR v2)
Copy OK

Track 2

Filename C:\EAC\Tobias Meinhart - Berlin People\02 Fruher War Alles Besser.wav

Pre-gap length 0:00:01.76

Peak level 94.3 %
Extraction speed 6.9 X
Track quality 100.0 %
Test CRC 0FC38892
Copy CRC 0FC38892
Accurately ripped (confidence 1) [3192198A] (AR v2)
Copy OK

Track 3

Filename C:\EAC\Tobias Meinhart - Berlin People\03 It's Not So Easy.wav

Pre-gap length 0:00:01.54

Peak level 96.0 %
Extraction speed 7.7 X
Track quality 100.0 %
Test CRC 181B4A38
Copy CRC 181B4A38
Accurately ripped (confidence 1) [AF924A43] (AR v2)
Copy OK

Track 4

Filename C:\EAC\Tobias Meinhart - Berlin People\04 Malala.wav

Pre-gap length 0:00:01.26

Peak level 96.0 %
Extraction speed 8.5 X
Track quality 100.0 %
Test CRC BFAA1882
Copy CRC BFAA1882
Accurately ripped (confidence 1) [E5AB22B9] (AR v2)
Copy OK

Track 5

Filename C:\EAC\Tobias Meinhart - Berlin People\05 Be Free.wav

Pre-gap length 0:00:01.76

Peak level 94.0 %
Extraction speed 6.9 X
Track quality 99.9 %
Test CRC 177630B8
Copy CRC 177630B8
Accurately ripped (confidence 1) [8883B0F8] (AR v2)
Copy OK

Track 6

Filename C:\EAC\Tobias Meinhart - Berlin People\06 Serenity.wav

Pre-gap length 0:00:01.01

Peak level 96.1 %
Extraction speed 9.5 X
Track quality 100.0 %
Test CRC EDE80B7E
Copy CRC EDE80B7E
Accurately ripped (confidence 1) [8455907C] (AR v2)
Copy OK

Track 7

Filename C:\EAC\Tobias Meinhart - Berlin People\07 Childhood.wav

Pre-gap length 0:00:02.01

Peak level 96.0 %
Extraction speed 10.1 X
Track quality 100.0 %
Test CRC 162A0458
Copy CRC 162A0458
Accurately ripped (confidence 1) [909DDD82] (AR v2)
Copy OK

Track 8

Filename C:\EAC\Tobias Meinhart - Berlin People\08 Berlin People.wav

Pre-gap length 0:00:02.01

Peak level 96.9 %
Extraction speed 8.0 X
Track quality 99.9 %
Test CRC 9CCD0D83
Copy CRC 9CCD0D83
Accurately ripped (confidence 1) [9DAE73F3] (AR v2)
Copy OK

Track 9

Filename C:\EAC\Tobias Meinhart - Berlin People\09 Alfred.wav

Pre-gap length 0:00:02.17

Peak level 96.7 %
Extraction speed 9.0 X
Track quality 99.9 %
Test CRC A792E903
Copy CRC A792E903
Accurately ripped (confidence 1) [ACE20AFC] (AR v2)
Copy OK


All tracks accurately ripped

No errors occurred

End of status report

==== Log checksum D68D997E87D507B01B93BB6B69F46A55A584F61F5F1E9FF2AD4E4300B016701F ====

All thanks go to the chesterjazzman

More Music in My Blog
Follow My RSS Channel