Subcategories
Tags
Language
Tags

Todd Rundgren - An Evening With Todd Rundgren: Live at the Ridgefield (2016)

Posted By: delpotro
Todd Rundgren - An Evening With Todd Rundgren: Live at the Ridgefield (2016)

Todd Rundgren - An Evening With Todd Rundgren: Live at the Ridgefield (2016)
EAC Rip | FLAC (tracks+log+.cue) | 01:15:15 | 512 Mb
Progressive Rock, Pop Rock | Label: Purple Pyramid

Deluxe CD/DVD edition comes in a special six-panel digipak. An incredible concert experience, a multi-media extravaganza starring classic rock icon and famed songwriter/producer Todd Rundgren! Includes some of Todd's best known songs including "Hello It's Me" and "Bang On The Drum" plus fan favorites that haven't been performed live in decades. Recorded live at the Ridgefield Playhouse in Ridgefield CT on December 15, 2015.
Tracklist:
1. Intro I Saw the Light (Live) 3:48
2. Love of the Common Man (Live) 3:44
3. Open My Eyes (Live) 2:55
4. Sometimes I Don't Know What to Feel (Live) 4:17
5. Black and White (Live) 4:47
6. Buffalo Grass (Live) 5:06
7. Determination (Live) 3:23
8. Lost Horizon (Live) 5:03
9. Bang the Drum All Day (Live) 3:09
10. Kiddie Boy (Live) 3:56
11. Black Maria (Live) 5:50
12. Drive (Live) 4:57
13. Secret Society (Live) 4:28
14. Love in Action (Live) 3:46
15. Couldn't I Just Tell You (Live) 4:22
16. Can We Still Be Friends (Live) 3:40
17. Hello It's Me (Live) 4:24
18. One World (Live) 3:33

Exact Audio Copy V1.3 from 2. September 2016

EAC extraction logfile from 6. September 2017, 11:22

Todd Rundgren / An Evening With Todd Rundgren

Used drive : HL-DT-STBD-RE WH16NS40 Adapter: 1 ID: 0

Read mode : Secure
Utilize accurate stream : Yes
Defeat audio cache : Yes
Make use of C2 pointers : No

Read offset correction : 6
Overread into Lead-In and Lead-Out : No
Fill up missing offset samples with silence : Yes
Delete leading and trailing silent blocks : No
Null samples used in CRC calculations : Yes
Used interface : Native Win32 interface for Win NT & 2000
Gap handling : Appended to previous track

Used output format : Internal WAV Routines
Sample format : 44.100 Hz; 16 Bit; Stereo


TOC of the extracted CD

Track | Start | Length | Start sector | End sector
––––––––––––––––––––––––––––-
1 | 0:00.00 | 3:48.52 | 0 | 17151
2 | 3:48.52 | 3:44.59 | 17152 | 34010
3 | 7:33.36 | 2:55.14 | 34011 | 47149
4 | 10:28.50 | 4:17.11 | 47150 | 66435
5 | 14:45.61 | 4:47.10 | 66436 | 87970
6 | 19:32.71 | 5:06.45 | 87971 | 110965
7 | 24:39.41 | 3:23.12 | 110966 | 126202
8 | 28:02.53 | 5:03.34 | 126203 | 148961
9 | 33:06.12 | 3:09.21 | 148962 | 163157
10 | 36:15.33 | 3:56.30 | 163158 | 180887
11 | 40:11.63 | 5:50.24 | 180888 | 207161
12 | 46:02.12 | 4:57.64 | 207162 | 229500
13 | 51:00.01 | 4:28.48 | 229501 | 249648
14 | 55:28.49 | 3:45.74 | 249649 | 266597
15 | 59:14.48 | 4:22.35 | 266598 | 286282
16 | 63:37.08 | 3:40.36 | 286283 | 302818
17 | 67:17.44 | 4:24.72 | 302819 | 322690
18 | 71:42.41 | 3:33.06 | 322691 | 338671


Track 1

Filename E:\Ripped Albums\Todd Rundgren-An Evening With Todd Rundgren-2016\01 I Saw The Light.wav

Pre-gap length 0:00:02.00

Peak level 98.7 %
Extraction speed 1.1 X
Track quality 100.0 %
Test CRC B3222C05
Copy CRC B3222C05
Accurately ripped (confidence 4) [83E45F01] (AR v2)
Copy OK

Track 2

Filename E:\Ripped Albums\Todd Rundgren-An Evening With Todd Rundgren-2016\02 Love Of The Common Man.wav

Peak level 98.7 %
Extraction speed 0.9 X
Track quality 99.9 %
Test CRC F9BAC06B
Copy CRC F9BAC06B
Accurately ripped (confidence 4) [151398CE] (AR v2)
Copy OK

Track 3

Filename E:\Ripped Albums\Todd Rundgren-An Evening With Todd Rundgren-2016\03 Open My Eyes.wav

Peak level 98.7 %
Extraction speed 1.0 X
Track quality 100.0 %
Test CRC C4BAD22F
Copy CRC C4BAD22F
Accurately ripped (confidence 4) [70F7780A] (AR v2)
Copy OK

Track 4

Filename E:\Ripped Albums\Todd Rundgren-An Evening With Todd Rundgren-2016\04 Sometimes I Don't Know What To Feel.wav

Peak level 98.7 %
Extraction speed 1.1 X
Track quality 100.0 %
Test CRC DDBADB31
Copy CRC DDBADB31
Accurately ripped (confidence 4) [EBEC0479] (AR v2)
Copy OK

Track 5

Filename E:\Ripped Albums\Todd Rundgren-An Evening With Todd Rundgren-2016\05 Black And White.wav

Peak level 98.7 %
Extraction speed 1.0 X
Track quality 99.9 %
Test CRC A4CB4D4E
Copy CRC A4CB4D4E
Accurately ripped (confidence 4) [A75318A9] (AR v2)
Copy OK

Track 6

Filename E:\Ripped Albums\Todd Rundgren-An Evening With Todd Rundgren-2016\06 Buffalo Grass.wav

Peak level 98.7 %
Extraction speed 1.1 X
Track quality 100.0 %
Test CRC 28CAC6D7
Copy CRC 28CAC6D7
Accurately ripped (confidence 4) [3BDC4521] (AR v2)
Copy OK

Track 7

Filename E:\Ripped Albums\Todd Rundgren-An Evening With Todd Rundgren-2016\07 Determination.wav

Peak level 98.7 %
Extraction speed 0.9 X
Track quality 99.9 %
Test CRC DAF8B22F
Copy CRC DAF8B22F
Accurately ripped (confidence 4) [5B46D53C] (AR v2)
Copy OK

Track 8

Filename E:\Ripped Albums\Todd Rundgren-An Evening With Todd Rundgren-2016\08 Lost Horizon.wav

Peak level 100.0 %
Extraction speed 1.0 X
Track quality 99.9 %
Test CRC 44E34622
Copy CRC 44E34622
Accurately ripped (confidence 4) [882FAD3E] (AR v2)
Copy OK

Track 9

Filename E:\Ripped Albums\Todd Rundgren-An Evening With Todd Rundgren-2016\09 Bank The Drum All Day.wav

Peak level 98.7 %
Extraction speed 1.0 X
Track quality 100.0 %
Test CRC EC7637C5
Copy CRC EC7637C5
Accurately ripped (confidence 4) [182D7F76] (AR v2)
Copy OK

Track 10

Filename E:\Ripped Albums\Todd Rundgren-An Evening With Todd Rundgren-2016\10 Kiddie Boy.wav

Peak level 100.0 %
Extraction speed 0.9 X
Track quality 99.9 %
Test CRC 6C932686
Copy CRC 6C932686
Accurately ripped (confidence 4) [C8AFEB11] (AR v2)
Copy OK

Track 11

Filename E:\Ripped Albums\Todd Rundgren-An Evening With Todd Rundgren-2016\11 Black Maria.wav

Peak level 98.7 %
Extraction speed 1.1 X
Track quality 100.0 %
Test CRC 43424B58
Copy CRC 43424B58
Accurately ripped (confidence 4) [6A17D06D] (AR v2)
Copy OK

Track 12

Filename E:\Ripped Albums\Todd Rundgren-An Evening With Todd Rundgren-2016\12 Drive.wav

Peak level 99.5 %
Extraction speed 1.1 X
Track quality 100.0 %
Test CRC 9B726B16
Copy CRC 9B726B16
Accurately ripped (confidence 4) [6B1EEF1F] (AR v2)
Copy OK

Track 13

Filename E:\Ripped Albums\Todd Rundgren-An Evening With Todd Rundgren-2016\13 Secret Society.wav

Peak level 100.0 %
Extraction speed 1.1 X
Track quality 100.0 %
Test CRC 81A8D216
Copy CRC 81A8D216
Accurately ripped (confidence 4) [0F25361F] (AR v2)
Copy OK

Track 14

Filename E:\Ripped Albums\Todd Rundgren-An Evening With Todd Rundgren-2016\14 Love In Action.wav

Peak level 98.7 %
Extraction speed 1.1 X
Track quality 100.0 %
Test CRC D43A1EB3
Copy CRC D43A1EB3
Accurately ripped (confidence 4) [903BBA29] (AR v2)
Copy OK

Track 15

Filename E:\Ripped Albums\Todd Rundgren-An Evening With Todd Rundgren-2016\15 Couldn't I Just Tell You.wav

Peak level 98.7 %
Extraction speed 1.1 X
Track quality 100.0 %
Test CRC CC4666F4
Copy CRC CC4666F4
Accurately ripped (confidence 4) [6840D990] (AR v2)
Copy OK

Track 16

Filename E:\Ripped Albums\Todd Rundgren-An Evening With Todd Rundgren-2016\16 Can We Still Be Friends.wav

Peak level 100.0 %
Extraction speed 1.0 X
Track quality 100.0 %
Test CRC DEF7F03F
Copy CRC DEF7F03F
Accurately ripped (confidence 4) [5CB461ED] (AR v2)
Copy OK

Track 17

Filename E:\Ripped Albums\Todd Rundgren-An Evening With Todd Rundgren-2016\17 Hello It's Me.wav

Peak level 98.7 %
Extraction speed 1.0 X
Track quality 99.9 %
Test CRC 4AB1E23A
Copy CRC 4AB1E23A
Accurately ripped (confidence 4) [FADEC90A] (AR v2)
Copy OK

Track 18

Filename E:\Ripped Albums\Todd Rundgren-An Evening With Todd Rundgren-2016\18 One World.wav

Peak level 98.7 %
Extraction speed 1.0 X
Track quality 100.0 %
Test CRC 88D32CF1
Copy CRC 88D32CF1
Accurately ripped (confidence 4) [180B3BD5] (AR v2)
Copy OK


All tracks accurately ripped

No errors occurred

End of status report

–– CUETools DB Plugin V2.1.6

[CTDB TOCID: 8x9wYU7jFzlpQl7KTlpvqUZ7ETs-] found
Submit result: 8x9wYU7jFzlpQl7KTlpvqUZ7ETs- has been confirmed
Track | CTDB Status
1 | (5/5) Accurately ripped
2 | (5/5) Accurately ripped
3 | (5/5) Accurately ripped
4 | (5/5) Accurately ripped
5 | (5/5) Accurately ripped
6 | (5/5) Accurately ripped
7 | (5/5) Accurately ripped
8 | (5/5) Accurately ripped
9 | (5/5) Accurately ripped
10 | (5/5) Accurately ripped
11 | (5/5) Accurately ripped
12 | (5/5) Accurately ripped
13 | (5/5) Accurately ripped
14 | (5/5) Accurately ripped
15 | (5/5) Accurately ripped
16 | (5/5) Accurately ripped
17 | (5/5) Accurately ripped
18 | (5/5) Accurately ripped


==== Log checksum 3371A8083BAD5CF56F6469531F3CB946EF525B4F12BF282E42A220AC5FD4B9B6 ====

Thanks to the Original ripper mongoose !