Subcategories
Tags
Language
Tags

Pete Townshend & Raphael Rudd - The Oceanic Concerts (2001) {Rhino--Eel Pie R2 74289 rec 1979-1980}

Posted By: ruskaval
Pete Townshend & Raphael Rudd - The Oceanic Concerts (2001) {Rhino--Eel Pie R2 74289 rec 1979-1980}

Pete Townshend & Raphael Rudd - The Oceanic Concerts (2001) {Rhino–Eel Pie R2 74289 rec 1979-1980}
EAC rip (secure mode) | FLAC (tracks)+CUE+LOG -> 457 Mb | MP3 @320 -> 182 Mb
Full Artwork @ 600 dpi (jpg) -> 101 Mb | 5% repair rar
© 1979-80, 2001 Rhino / Eel Pie | R2 74289
Rock / Classic Rock / Folk Rock

This is an archival release designed for the fans, and it should be treated that way. That means while there are certainly interesting variations of familiar songs, rarities, and unexpected delights for fans, it's undeniably for those fans who will realize how these versions differ from the originals, or those who will delight in the subtle stage patter from Townshend. Most of all, it's for the fans who embrace the spiritual side of Townshend, particularly his recordings for his guru, Avatar Meher Baba, since he and Raphael Rudd performed these concerts in his honor, several songs derive from Townshend's independently released albums for him, and these recordings are taken from concerts given in 1979-1980 for a select group of Meher Baba devotees.

So select, in fact, that it's possible to be a Townshend fanatic and not realize the very existence of these recordings, as Rhino's A&R man, Patrick Milligan, points out in his liner notes, where he shares his thrill in hearing these tapes for the first time. And, if you're a Townshend obsessive – not necessarily one who collects bootlegs, but certainly one who hangs on his words in his delightful interviews – it's hard not to share his thrill, since this is fine, idiosyncratic, rare Townshend, as he performs gentle, acoustic versions of some of his greatest songs, accompanied on harp and piano by Rudd, best-known as a member of Renaissance, who also has solo instrumental pieces here. Given the presence of harp and the select-invite audience, it should be no surprise that Townshend and Rudd ignore hits, even airing "Let My Love Open the Door" and "A Little Is Enough" for one of the first times in these gentle, fairly arty performances. As such, this is pretty much something that will delight those converts waiting to hear something new from their favorite artist, but could hardly be called essential for any other artist – even if they're lovely enough to make them essential for that selective audience.

Personnel:
Pete Townshend - Guitar, Vocals
Raphael Rudd - Piano, Harp

tracklist:
01 - Raphael Rudd - Raga
02 - Pete Townshend - Drowned
03 - Pete Townshend - The Seeker
04 - Raphael Rudd - Magic Grace
05 - Raphael Rudd - Who Is Meher Baba
06 - Pete Townshend and Raphael Rudd - The Ferryman
07 - Raphael Rudd - Kitty's Theme
08 - Pete Townshend and Raphael Rudd - A Little Is Enough
09 - Raphael Rudd - Contact In Solitude
10 - Pete Townshend and Raphael Rudd - Sleeping Dog
11 - Raphael Rudd - Sound Barrier
12 - Pete Townshend - Bargain
13 - Raphael Rudd - Longing For The Beloved
14 - Pete Townshend and Raphael Rudd - Tattoo
15 - Pete Townshend and Raphael Rudd - Let My Life Open The Door
16 - Pete Townshend and Raphael Rudd - Awakening
17 - Raphael Rudd - Western (American) Arti
18 - Pete Townshend and Raphael Rudd - O'Parvardigar

Exact Audio Copy V0.99 prebeta 5 from 4. May 2009

EAC extraction logfile from 15. October 2009, 17:30

Pete Townshend and Raphael Rudd / The Oceanic Concerts

Used drive : HL-DT-STDVD-RAM GSA-H55N Adapter: 1 ID: 0

Read mode : Secure
Utilize accurate stream : Yes
Defeat audio cache : Yes
Make use of C2 pointers : No

Read offset correction : 102
Overread into Lead-In and Lead-Out : No
Fill up missing offset samples with silence : Yes
Delete leading and trailing silent blocks : No
Null samples used in CRC calculations : Yes
Used interface : Installed external ASPI interface
Gap handling : Appended to previous track

Used output format : User Defined Encoder
Selected bitrate : 768 kBit/s
Quality : High
Add ID3 tag : No
Command line compressor : C:\Program Files\Exact Audio Copy\FLAC\FLAC.EXE
Additional command line options : -V -8 -T "artist=%a" -T "title=%t" -T "album=%g" -T "date=%y" -T "tracknumber=%n" -T "genre=%m" %s


TOC of the extracted CD

Track | Start | Length | Start sector | End sector
––––––––––––––––––––––––––––-
1 | 0:00.32 | 1:45.38 | 32 | 7944
2 | 1:45.70 | 5:11.00 | 7945 | 31269
3 | 6:56.70 | 3:51.57 | 31270 | 48651
4 | 10:48.52 | 2:49.38 | 48652 | 61364
5 | 13:38.15 | 2:20.02 | 61365 | 71866
6 | 15:58.17 | 7:14.05 | 71867 | 104421
7 | 23:12.22 | 3:04.20 | 104422 | 118241
8 | 26:16.42 | 4:25.03 | 118242 | 138119
9 | 30:41.45 | 4:28.35 | 138120 | 158254
10 | 35:10.05 | 2:53.60 | 158255 | 171289
11 | 38:03.65 | 2:30.25 | 171290 | 182564
12 | 40:34.15 | 5:03.20 | 182565 | 205309
13 | 45:37.35 | 2:45.67 | 205310 | 217751
14 | 48:23.27 | 3:14.55 | 217752 | 232356
15 | 51:38.07 | 2:43.03 | 232357 | 244584
16 | 54:21.10 | 8:02.72 | 244585 | 280806
17 | 62:24.07 | 6:10.45 | 280807 | 308601
18 | 68:34.52 | 7:38.38 | 308602 | 342989


Track 1

Filename H:\EAC Rips\Pete Townshend and Raphael Rudd\01 - Raphael Rudd - Raga.wav

Pre-gap length 0:00:02.42

Peak level 88.6 %
Track quality 100.0 %
Test CRC FF634CDB
Copy CRC FF634CDB
Cannot be verified as accurate (confidence 6) [8968220C], AccurateRip returned [DCF754E2]
Copy OK

Track 2

Filename H:\EAC Rips\Pete Townshend and Raphael Rudd\02 - Pete Townshend - Drowned.wav

Pre-gap length 0:00:00.86

Peak level 92.8 %
Track quality 100.0 %
Test CRC 0DD7FCB8
Copy CRC 0DD7FCB8
Cannot be verified as accurate (confidence 6) [F16BD648], AccurateRip returned [25724F17]
Copy OK

Track 3

Filename H:\EAC Rips\Pete Townshend and Raphael Rudd\03 - Pete Townshend - The Seeker.wav

Pre-gap length 0:00:00.24

Peak level 91.6 %
Track quality 99.9 %
Test CRC 9FD7C920
Copy CRC 9FD7C920
Cannot be verified as accurate (confidence 6) [0AEA9213], AccurateRip returned [964819E7]
Copy OK

Track 4

Filename H:\EAC Rips\Pete Townshend and Raphael Rudd\04 - Raphael Rudd - Magic Grace.wav

Pre-gap length 0:00:00.06

Peak level 90.1 %
Track quality 100.0 %
Test CRC F2145841
Copy CRC F2145841
Cannot be verified as accurate (confidence 6) [EF4F63CE], AccurateRip returned [352AEA52]
Copy OK

Track 5

Filename H:\EAC Rips\Pete Townshend and Raphael Rudd\05 - Raphael Rudd - Who Is Meher Baba.wav

Pre-gap length 0:00:00.64

Peak level 89.4 %
Track quality 100.0 %
Test CRC FE019FAE
Copy CRC FE019FAE
Cannot be verified as accurate (confidence 6) [10E78472], AccurateRip returned [DF6688D8]
Copy OK

Track 6

Filename H:\EAC Rips\Pete Townshend and Raphael Rudd\06 - Pete Townshend and Raphael Rudd - The Ferryman.wav

Pre-gap length 0:00:00.66

Peak level 92.2 %
Track quality 100.0 %
Test CRC 50EF9C58
Copy CRC 50EF9C58
Cannot be verified as accurate (confidence 6) [A2BC27BE], AccurateRip returned [CD787A36]
Copy OK

Track 7

Filename H:\EAC Rips\Pete Townshend and Raphael Rudd\07 - Raphael Rudd - Kitty's Theme.wav

Pre-gap length 0:00:00.53

Peak level 88.8 %
Track quality 99.9 %
Test CRC 644AE14F
Copy CRC 644AE14F
Cannot be verified as accurate (confidence 6) [CF413009], AccurateRip returned [B2BE33CE]
Copy OK

Track 8

Filename H:\EAC Rips\Pete Townshend and Raphael Rudd\08 - Pete Townshend and Raphael Rudd - A Little Is Enough.wav

Pre-gap length 0:00:01.06

Peak level 95.4 %
Track quality 100.0 %
Test CRC E91A484D
Copy CRC E91A484D
Cannot be verified as accurate (confidence 6) [49D73329], AccurateRip returned [3CF8902D]
Copy OK

Track 9

Filename H:\EAC Rips\Pete Townshend and Raphael Rudd\09 - Raphael Rudd - Contact In Solitude.wav

Pre-gap length 0:00:01.57

Peak level 88.3 %
Track quality 100.0 %
Test CRC AA8B0C9F
Copy CRC AA8B0C9F
Cannot be verified as accurate (confidence 6) [8F12EC66], AccurateRip returned [63FB7D3B]
Copy OK

Track 10

Filename H:\EAC Rips\Pete Townshend and Raphael Rudd\10 - Pete Townshend and Raphael Rudd - Sleeping Dog.wav

Pre-gap length 0:00:00.53

Peak level 95.4 %
Track quality 100.0 %
Test CRC D1753A65
Copy CRC D1753A65
Cannot be verified as accurate (confidence 6) [804CB113], AccurateRip returned [7EAAA96B]
Copy OK

Track 11

Filename H:\EAC Rips\Pete Townshend and Raphael Rudd\11 - Raphael Rudd - Sound Barrier.wav

Peak level 94.2 %
Track quality 100.0 %
Test CRC 64CEED73
Copy CRC 64CEED73
Cannot be verified as accurate (confidence 6) [73C48A89], AccurateRip returned [BFB039DA]
Copy OK

Track 12

Filename H:\EAC Rips\Pete Townshend and Raphael Rudd\12 - Pete Townshend - Bargain.wav

Peak level 95.4 %
Track quality 100.0 %
Test CRC DB0D4302
Copy CRC DB0D4302
Cannot be verified as accurate (confidence 6) [57C6CB82], AccurateRip returned [D535C150]
Copy OK

Track 13

Filename H:\EAC Rips\Pete Townshend and Raphael Rudd\13 - Raphael Rudd - Longing For The Beloved.wav

Pre-gap length 0:00:00.37

Peak level 91.6 %
Track quality 100.0 %
Test CRC 1BFD3EA4
Copy CRC 1BFD3EA4
Cannot be verified as accurate (confidence 6) [586D5E5A], AccurateRip returned [7C00FA55]
Copy OK

Track 14

Filename H:\EAC Rips\Pete Townshend and Raphael Rudd\14 - Pete Townshend and Raphael Rudd - Tattoo.wav

Pre-gap length 0:00:00.46

Peak level 95.4 %
Track quality 100.0 %
Test CRC 7297DED0
Copy CRC 7297DED0
Cannot be verified as accurate (confidence 6) [4F4A3E74], AccurateRip returned [1CF736BE]
Copy OK

Track 15

Filename H:\EAC Rips\Pete Townshend and Raphael Rudd\15 - Pete Townshend and Raphael Rudd - Let My Life Open The Door.wav

Pre-gap length 0:00:00.56

Peak level 95.4 %
Track quality 99.9 %
Test CRC DFE4439A
Copy CRC DFE4439A
Cannot be verified as accurate (confidence 6) [07DC32E5], AccurateRip returned [4DD269F2]
Copy OK

Track 16

Filename H:\EAC Rips\Pete Townshend and Raphael Rudd\16 - Pete Townshend and Raphael Rudd - Awakening.wav

Pre-gap length 0:00:00.97

Peak level 95.4 %
Track quality 100.0 %
Test CRC EACED4CA
Copy CRC EACED4CA
Cannot be verified as accurate (confidence 6) [C1322819], AccurateRip returned [6C3D6E55]
Copy OK

Track 17

Filename H:\EAC Rips\Pete Townshend and Raphael Rudd\17 - Raphael Rudd - Western (American) Arti.wav

Pre-gap length 0:00:00.06

Peak level 94.2 %
Track quality 100.0 %
Test CRC 5A56A6BA
Copy CRC 5A56A6BA
Cannot be verified as accurate (confidence 6) [4A11B58D], AccurateRip returned [3FB0DA34]
Copy OK

Track 18

Filename H:\EAC Rips\Pete Townshend and Raphael Rudd\18 - Pete Townshend and Raphael Rudd - O'Parvardigar.wav

Pre-gap length 0:00:00.73

Peak level 95.4 %
Track quality 100.0 %
Test CRC 1DBA887C
Copy CRC 1DBA887C
Cannot be verified as accurate (confidence 5) [0B81E3CA], AccurateRip returned [1ED0C1D0]
Copy OK


No tracks could be verified as accurate
You may have a different pressing from the one(s) in the database

No errors occurred

End of status report


Pete Townshend & Raphael Rudd - The Oceanic Concerts (2001) {Rhino--Eel Pie R2 74289 rec 1979-1980}

Pete Townshend & Raphael Rudd - The Oceanic Concerts (2001) {Rhino--Eel Pie R2 74289 rec 1979-1980}


see more Pete Townshend…


===