Subcategories

Triangle Sun - Iris

Posted By: FLESH
Triangle Sun - Iris

Triangle Sun - Iris
Electronic, Chillout, Downtempo
APE+cue+log | 175.6 Mb | MP3, 192 Kbps | 39.5 Mb | Covers
Label: Merry-Go-Round Production | Country: Russia | Released: 2009

Triangle Sun - это группа-призрак, участники которой не дают интервью, не мелькают на экранах телевизоров, посвящая себя исключительно музыке, которая, так уж получилось, стала намного известнее своих создателей. Дебютировав в 2004-м году на Ибице, они стали первой российской группой, вышедшей в компиляции vol.13 знаменитого Cafe del Mar, и с тех пор являются завсегдатаями всемирноизвестных сборников lounge-музыки.
Tracklisting:
1. TONIGHT
2. YOU'LL NEVER GIVE UP
3. SUNNY SIDE
4. DRY MY TEARS
5. SEED BECOMES A TREE
6. FLOWER DANCE
7. SECRET LETTER

Exact Audio Copy V0.99 prebeta 4 from 23. January 2008

Отчёт EAC об извлечении, выполненном 12. марта 2009, 10:11

Triangle Sun / Iris

Дисковод: Optiarc DVD RW AD-7173S Adapter: 4 ID: 0

Режим чтения : Достоверность
Использование точного потока : Да
Отключение кэша аудио : Да
Использование указателей C2 : Нет

Коррекция смещения при чтении : 48
Способность читать области Lead-in и Lead-out : Нет
Заполнение пропущенных сэмплов тишиной : Да
Удаление блоков с тишиной в начале и конце : Нет
При вычислениях CRC использовались нулевые сэмплы : Да
Интерфейс : Встроенный Win32-интерфейс для Win NT/2000

Выходной формат : Внутренние WAV-операции
Формат сэмплов : 44.100 Гц; 16 бит; стерео


TOC извлечённого CD

Трек | Старт | Длительность | Начальный сектор | Конечный сектор
––––––––––––––––––––––––––––––––––-
1 | 0:00.00 | 4:27.65 | 0 | 20089
2 | 4:27.65 | 4:20.23 | 20090 | 39612
3 | 8:48.13 | 3:49.42 | 39613 | 56829
4 | 12:37.55 | 2:48.26 | 56830 | 69455
5 | 15:26.06 | 4:10.29 | 69456 | 88234
6 | 19:36.35 | 4:12.27 | 88235 | 107161
7 | 23:48.62 | 5:35.02 | 107162 | 132288


Характеристики диапазона извлечения и сообщения об ошибках

Выбранный диапазон

Имя файла D:\Triangle Sun - Iris.wav

Пиковый уровень 99.9 %
Качество диапазона 100.0 %
CRC копии 2F93C2CD
Копирование… OK

Ошибок не произошло

Конец отчёта