Tags
Language
Tags

Tubby Hayes - Jazz Genius: The Flamingo Era (1956-1961) [3CD] {2010 Fantastic Voyage}

Posted By: Hungry Mind
Tubby Hayes - Jazz Genius: The Flamingo Era (1956-1961) [3CD] {2010 Fantastic Voyage}

Tubby Hayes - Jazz Genius: The Flamingo Era (1956-1961) [3CD] {2010 Fantastic Voyage}
EAC Rip | FLAC (tracks+.cue+log) - 795 MB | Scans PNG - 227 MB | MP3 CBR 320 kbps (LAME 3.98) - 412 MB
Genre: jazz | RAR 5% Rec. | Label: Fantastic Voyage | CAT # FVTD050 | 2010

Released in 2010, Jazz Genius: The Flamingo Era is the ideal sequel to Proper's Little Giant, which examined saxophonist Tubby Hayes' recording activity as sideman and leader during the years 1954-1956. Jazz Genius follows his progress from 1956 through 1961, an exciting period during which he enlarged upon the Charlie Parker/Dizzy Gillespie/James Moody influences by continuing to absorb what was in the air while tapping into his own intuitive gifts, branching out from tenor and baritone saxes to demonstrate a developing facility on both vibraphone and flute. Drawn from six different albums, these 41 selections were originally recorded for the Ember label which was operated by Jeff Kruger, owner of the Flamingo Club in Soho.
Tubby Hayes - Jazz Genius: The Flamingo Era (1956-1961) [3CD] {2010 Fantastic Voyage}

Tracks which were culled from Tubby Hayes and the Jazz Couriers and The Jazz Couriers in Concert are particularly exciting on account of the interaction between Hayes and saxophonist Ronnie Scott. There are excerpts from the Tempo compilation Jazz at the Flamingo, examples of Hayes blowing baritone sax with Tony Crombie & His Men on Columbia, some rather rigidly arranged material produced for TV with the group billed as the London Jazz Quartet, and selections from the album An Evening with Tony Kinsey, recorded just prior to Hayes' visit to the U.S. in 1961. The immediate aftermath of his arrival would involve collaborations with trumpeter Clark Terry, and by June of 1962, Hayes was in the recording studio with James Moody and Roland Kirk. This superb compilation is a hefty prologue to those recordings, filling in a vitally important part of the picture, as at long last the legacy of Tubby Hayes is being pieced together and made available worldwide.
Tubby Hayes - Jazz Genius: The Flamingo Era (1956-1961) [3CD] {2010 Fantastic Voyage}

A triple CD set packaging together assorted sets by British jazz legend Tubby Hayes, recorded between 1956 and 1961. Hayes was a prodigious talent on the UK jazz scene, and came to be regarded as one of the country's greatest ever jazz virtuosos. Here he performs alongside fellow musicians such as British sax hero Ronnie Scott, drummers/bandleaders Tony Crombie and Tony Kinsey. "Following his apprenticeship with the UK big bands of Ambrose, Jack Parnell, and Vic Lewis, tenor saxophonist Tubby Hayes (who'd turned pro aged 15) began leading his own groups from 1956 onwards, putting together varying combos including quartets, quintets and even sextets. Hayes' astonishing and seemingly endless virtuosity quickly established him as Britain's leading jazz player, and he recorded for a multitude of labels in the UK and USA (where he was similarly feted). His work with the Jazz Couriers is still considered the epitome of British modern jazz. The esteem in which he was held can perhaps be gauged by the fact that when the Duke Ellington Orchestra played the Royal Festival Hall in 1964, Tubby Hayes was chosen to deputise for the absent Paul Gonsalves. Tubby Hayes' personal problems are well-documented elsewhere, but his career as a British jazz player was unique. He died aged 38 in 1973 during heart surgery and is still greatly missed.
Jazz Genius compiles four albums recorded between 1957 and 1961. Celebrated studio and live sets by the Jazz Couriers feature the twin-tenor saxophone attack of Tubby Hayes and Ronnie Scott. The London Jazz Quartet album allows Hayes to display his mastery of vibes, flute and alto saxophone, while he is teamed with jazz greats Bill Le Sage and Jimmy Deuchar in the Tony Kinsey Quintet. The compilation also dips into the Jazz At The Flamingo album for the two tracks on which Hayes sits in with the Tony Crombie Quintet, and rounds up a couple of studio sides, again with Crombie."

Fantastic Voyage INFO

TRACKLIST
DISC 1:
01. The Theme/Through the Night Roared the Overland Express
02. Royal Ascot
03. On a Misty Night
04. Cheek to Cheek
05. Oh, My!
06. Plebus
07. Reunion
08. A Foggy Day
09. Weber the Great
10. World of Blue
11. Girl in Blue
12. Bassman
13. Beathaven
14. What a Gas
15. Runnymede Groove
16. Portrait

DISC 2:
01. A Night in Tunisia [Live]
02. Laker's Day [Live]
03. What Is This Thing Called Love? [Live]
04. Some of My Best Friends Are Blues [Live]
05. The Serpent [Live]
06. Guys and Dolls [Live]
07. Time Was [Live]
08. Speak Low [Live]
09. Cheek to Cheek [Live]

DISC 3:
01. Beryl's Bounce
02. Odd Man Out
03. Copper on the Beat
04. Slick Riff
05. Sadie's Song
06. The Toff
07. Wait and See
08. Lakeland
09. Big Ben Bounce
10. London Lament
11. Cheekie Chappie
12. The Baron's Blues
13. Fishin' the Blues
14. Mirage
15. Autumn in Cuba
16. Let Nature Take Its Course

Exact Audio Copy V1.0 beta 3 from 29. August 2011

EAC extraction logfile from 25. November 2012, 21:56

Tubby Hayes / Jazz Genius: The Flamingo Era (CD1)

Used drive : ATAPI iHAS124 B Adapter: 4 ID: 0

Read mode : Secure
Utilize accurate stream : Yes
Defeat audio cache : Yes
Make use of C2 pointers : No

Read offset correction : 6
Overread into Lead-In and Lead-Out : No
Fill up missing offset samples with silence : Yes
Delete leading and trailing silent blocks : No
Null samples used in CRC calculations : Yes
Used interface : Native Win32 interface for Win NT & 2000
Gap handling : Appended to previous track

Used output format : User Defined Encoder
Selected bitrate : 1024 kBit/s
Quality : High
Add ID3 tag : No
Command line compressor : C:\Program Files (x86)\FLAC\flac.exe
Additional command line options : -8 -V -T "ARTIST=%artist%" -T "TITLE=%title%" -T "ALBUM=%albumtitle%" -T "DATE=%year%" -T "TRACKNUMBER=%tracknr%" -T "GENRE=%genre%" -T "PERFORMER=%albuminterpret%" -T "COMPOSER=%composer%" %haslyrics%–tag-from-file=LYRICS="%lyricsfile%"%haslyrics% -T "ALBUMARTIST=%albumartist%" -T "DISCNUMBER=%cdnumber%" -T "TOTALDISCS=%totalcds%" -T "TOTALTRACKS=%numtracks%" -T "COMMENT=%comment%" %source% -o %dest%


TOC of the extracted CD

Track | Start | Length | Start sector | End sector
––––––––––––––––––––––––––––-
1 | 0:00.00 | 6:53.62 | 0 | 31036
2 | 6:53.62 | 5:32.63 | 31037 | 55999
3 | 12:26.50 | 5:08.71 | 56000 | 79170
4 | 17:35.46 | 4:25.26 | 79171 | 99071
5 | 22:00.72 | 4:49.09 | 99072 | 120755
6 | 26:50.06 | 5:28.02 | 120756 | 145357
7 | 32:18.08 | 5:02.08 | 145358 | 168015
8 | 37:20.16 | 7:26.52 | 168016 | 201517
9 | 44:46.68 | 3:13.21 | 201518 | 216013
10 | 48:00.14 | 5:21.60 | 216014 | 240148
11 | 53:21.74 | 4:13.65 | 240149 | 259188
12 | 57:35.64 | 3:51.71 | 259189 | 276584
13 | 61:27.60 | 4:42.37 | 276585 | 297771
14 | 66:10.22 | 3:37.65 | 297772 | 314111
15 | 69:48.12 | 3:24.41 | 314112 | 329452
16 | 73:12.53 | 3:34.44 | 329453 | 345546


Track 1

Filename C:\EAC\Tubby Hayes - Jazz Genius. The Flamingo Era (1956-1961) [3CD] {2010 Fantastic Voyage}\CD1\01 - The Theme - Through The Night Roared The Overland Express.wav

Pre-gap length 0:00:02.00

Peak level 85.8 %
Extraction speed 6.1 X
Track quality 100.0 %
Test CRC 9C81473B
Copy CRC 9C81473B
Accurately ripped (confidence 2) [D1EF9578] (AR v1)
Copy OK

Track 2

Filename C:\EAC\Tubby Hayes - Jazz Genius. The Flamingo Era (1956-1961) [3CD] {2010 Fantastic Voyage}\CD1\02 - Royal Ascot.wav

Peak level 100.0 %
Extraction speed 6.8 X
Track quality 100.0 %
Test CRC 9C74F91F
Copy CRC 9C74F91F
Accurately ripped (confidence 2) [9550C128] (AR v1)
Copy OK

Track 3

Filename C:\EAC\Tubby Hayes - Jazz Genius. The Flamingo Era (1956-1961) [3CD] {2010 Fantastic Voyage}\CD1\03 - On A Misty Night.wav

Peak level 83.2 %
Extraction speed 7.3 X
Track quality 100.0 %
Test CRC DDB0599C
Copy CRC DDB0599C
Accurately ripped (confidence 2) [B1317D3D] (AR v1)
Copy OK

Track 4

Filename C:\EAC\Tubby Hayes - Jazz Genius. The Flamingo Era (1956-1961) [3CD] {2010 Fantastic Voyage}\CD1\04 - Cheek To Cheek.wav

Peak level 100.0 %
Extraction speed 7.7 X
Track quality 100.0 %
Test CRC 7C97A08A
Copy CRC 7C97A08A
Accurately ripped (confidence 2) [27B5B44C] (AR v1)
Copy OK

Track 5

Filename C:\EAC\Tubby Hayes - Jazz Genius. The Flamingo Era (1956-1961) [3CD] {2010 Fantastic Voyage}\CD1\05 - Oh, My!.wav

Peak level 89.1 %
Extraction speed 8.2 X
Track quality 100.0 %
Test CRC 52EAA0C5
Copy CRC 52EAA0C5
Accurately ripped (confidence 2) [12C40813] (AR v1)
Copy OK

Track 6

Filename C:\EAC\Tubby Hayes - Jazz Genius. The Flamingo Era (1956-1961) [3CD] {2010 Fantastic Voyage}\CD1\06 - Plebus.wav

Peak level 91.0 %
Extraction speed 7.6 X
Track quality 99.9 %
Test CRC F1288265
Copy CRC F1288265
Accurately ripped (confidence 2) [A2BE7F96] (AR v1)
Copy OK

Track 7

Filename C:\EAC\Tubby Hayes - Jazz Genius. The Flamingo Era (1956-1961) [3CD] {2010 Fantastic Voyage}\CD1\07 - Reunion.wav

Peak level 86.3 %
Extraction speed 7.9 X
Track quality 99.9 %
Test CRC F8BE2612
Copy CRC F8BE2612
Accurately ripped (confidence 2) [74F1E840] (AR v1)
Copy OK

Track 8

Filename C:\EAC\Tubby Hayes - Jazz Genius. The Flamingo Era (1956-1961) [3CD] {2010 Fantastic Voyage}\CD1\08 - A Foggy Day.wav

Peak level 92.7 %
Extraction speed 10.0 X
Track quality 100.0 %
Test CRC D9D682A5
Copy CRC D9D682A5
Accurately ripped (confidence 2) [21EEF342] (AR v1)
Copy OK

Track 9

Filename C:\EAC\Tubby Hayes - Jazz Genius. The Flamingo Era (1956-1961) [3CD] {2010 Fantastic Voyage}\CD1\09 - Weber The Great.wav

Peak level 79.7 %
Extraction speed 9.4 X
Track quality 100.0 %
Test CRC CAE2D10D
Copy CRC CAE2D10D
Accurately ripped (confidence 2) [664D85FE] (AR v1)
Copy OK

Track 10

Filename C:\EAC\Tubby Hayes - Jazz Genius. The Flamingo Era (1956-1961) [3CD] {2010 Fantastic Voyage}\CD1\10 - World Of Blue.wav

Peak level 70.7 %
Extraction speed 10.5 X
Track quality 100.0 %
Test CRC 5658A5F6
Copy CRC 5658A5F6
Accurately ripped (confidence 2) [C3CA0294] (AR v1)
Copy OK

Track 11

Filename C:\EAC\Tubby Hayes - Jazz Genius. The Flamingo Era (1956-1961) [3CD] {2010 Fantastic Voyage}\CD1\11 - Girl In Blue.wav

Peak level 80.0 %
Extraction speed 10.4 X
Track quality 100.0 %
Test CRC 77FEA2E9
Copy CRC 77FEA2E9
Accurately ripped (confidence 2) [20C22EB5] (AR v1)
Copy OK

Track 12

Filename C:\EAC\Tubby Hayes - Jazz Genius. The Flamingo Era (1956-1961) [3CD] {2010 Fantastic Voyage}\CD1\12 - Bassman.wav

Peak level 78.9 %
Extraction speed 10.6 X
Track quality 100.0 %
Test CRC C34DEF44
Copy CRC C34DEF44
Accurately ripped (confidence 2) [F3498CB8] (AR v1)
Copy OK

Track 13

Filename C:\EAC\Tubby Hayes - Jazz Genius. The Flamingo Era (1956-1961) [3CD] {2010 Fantastic Voyage}\CD1\13 - Beathaven.wav

Peak level 77.9 %
Extraction speed 9.5 X
Track quality 99.9 %
Test CRC 99A8FA2F
Copy CRC 99A8FA2F
Accurately ripped (confidence 2) [1DD8941E] (AR v1)
Copy OK

Track 14

Filename C:\EAC\Tubby Hayes - Jazz Genius. The Flamingo Era (1956-1961) [3CD] {2010 Fantastic Voyage}\CD1\14 - What A Gas.wav

Peak level 77.6 %
Extraction speed 11.1 X
Track quality 100.0 %
Test CRC 90510AC5
Copy CRC 90510AC5
Accurately ripped (confidence 2) [6B430D5A] (AR v1)
Copy OK

Track 15

Filename C:\EAC\Tubby Hayes - Jazz Genius. The Flamingo Era (1956-1961) [3CD] {2010 Fantastic Voyage}\CD1\15 - Runnymede Groove.wav

Peak level 79.8 %
Extraction speed 11.1 X
Track quality 100.0 %
Test CRC 734C0B95
Copy CRC 734C0B95
Accurately ripped (confidence 2) [2DFAE234] (AR v1)
Copy OK

Track 16

Filename C:\EAC\Tubby Hayes - Jazz Genius. The Flamingo Era (1956-1961) [3CD] {2010 Fantastic Voyage}\CD1\16 - Portrait.wav

Peak level 78.1 %
Extraction speed 11.4 X
Track quality 100.0 %
Test CRC 32F9DDDD
Copy CRC 32F9DDDD
Accurately ripped (confidence 2) [FB412CC4] (AR v1)
Copy OK


All tracks accurately ripped

No errors occurred

End of status report

==== Log checksum C0C36B3DA128C36B90F501566C29CD4521F825904611616D4BBD7F6C362A0487 ====

Exact Audio Copy V1.0 beta 3 from 29. August 2011

EAC extraction logfile from 25. November 2012, 23:07

Tubby Hayes / Jazz Genius: The Flamingo Era (CD2)

Used drive : ATAPI iHAS124 B Adapter: 4 ID: 0

Read mode : Secure
Utilize accurate stream : Yes
Defeat audio cache : Yes
Make use of C2 pointers : No

Read offset correction : 6
Overread into Lead-In and Lead-Out : No
Fill up missing offset samples with silence : Yes
Delete leading and trailing silent blocks : No
Null samples used in CRC calculations : Yes
Used interface : Native Win32 interface for Win NT & 2000
Gap handling : Appended to previous track

Used output format : User Defined Encoder
Selected bitrate : 1024 kBit/s
Quality : High
Add ID3 tag : No
Command line compressor : C:\Program Files (x86)\FLAC\flac.exe
Additional command line options : -8 -V -T "ARTIST=%artist%" -T "TITLE=%title%" -T "ALBUM=%albumtitle%" -T "DATE=%year%" -T "TRACKNUMBER=%tracknr%" -T "GENRE=%genre%" -T "PERFORMER=%albuminterpret%" -T "COMPOSER=%composer%" %haslyrics%–tag-from-file=LYRICS="%lyricsfile%"%haslyrics% -T "ALBUMARTIST=%albumartist%" -T "DISCNUMBER=%cdnumber%" -T "TOTALDISCS=%totalcds%" -T "TOTALTRACKS=%numtracks%" -T "COMMENT=%comment%" %source% -o %dest%


TOC of the extracted CD

Track | Start | Length | Start sector | End sector
––––––––––––––––––––––––––––-
1 | 0:00.00 | 9:35.64 | 0 | 43188
2 | 9:35.64 | 9:47.10 | 43189 | 87223
3 | 19:22.74 | 6:06.00 | 87224 | 114673
4 | 25:28.74 | 5:49.14 | 114674 | 140862
5 | 31:18.13 | 7:21.30 | 140863 | 173967
6 | 38:39.43 | 8:58.03 | 173968 | 214320
7 | 47:37.46 | 3:15.65 | 214321 | 229010
8 | 50:53.36 | 4:55.68 | 229011 | 251203
9 | 55:49.29 | 3:58.48 | 251204 | 269101


Track 1

Filename C:\EAC\Tubby Hayes - Jazz Genius. The Flamingo Era (1956-1961) [3CD] {2010 Fantastic Voyage}\CD2\01 - A Night In Tunisia.wav

Pre-gap length 0:00:02.00

Peak level 74.9 %
Extraction speed 5.9 X
Track quality 100.0 %
Test CRC E3590E4B
Copy CRC E3590E4B
Accurately ripped (confidence 2) [755CA06C] (AR v1)
Copy OK

Track 2

Filename C:\EAC\Tubby Hayes - Jazz Genius. The Flamingo Era (1956-1961) [3CD] {2010 Fantastic Voyage}\CD2\02 - Laker's Day.wav

Peak level 70.9 %
Extraction speed 7.3 X
Track quality 100.0 %
Test CRC C3393216
Copy CRC C3393216
Accurately ripped (confidence 2) [DFEA7607] (AR v1)
Copy OK

Track 3

Filename C:\EAC\Tubby Hayes - Jazz Genius. The Flamingo Era (1956-1961) [3CD] {2010 Fantastic Voyage}\CD2\03 - What Is This Thing Called Love.wav

Peak level 95.4 %
Extraction speed 7.8 X
Track quality 100.0 %
Test CRC 2F85FC26
Copy CRC 2F85FC26
Accurately ripped (confidence 2) [B9C45005] (AR v1)
Copy OK

Track 4

Filename C:\EAC\Tubby Hayes - Jazz Genius. The Flamingo Era (1956-1961) [3CD] {2010 Fantastic Voyage}\CD2\04 - Some Of My Best Friends Are Blues.wav

Peak level 100.0 %
Extraction speed 8.4 X
Track quality 100.0 %
Test CRC 7C171401
Copy CRC 7C171401
Accurately ripped (confidence 2) [F8586AFD] (AR v1)
Copy OK

Track 5

Filename C:\EAC\Tubby Hayes - Jazz Genius. The Flamingo Era (1956-1961) [3CD] {2010 Fantastic Voyage}\CD2\05 - The Serpent.wav

Peak level 100.0 %
Extraction speed 9.1 X
Track quality 100.0 %
Test CRC E9710E2B
Copy CRC E9710E2B
Accurately ripped (confidence 2) [C1EC2AC5] (AR v1)
Copy OK

Track 6

Filename C:\EAC\Tubby Hayes - Jazz Genius. The Flamingo Era (1956-1961) [3CD] {2010 Fantastic Voyage}\CD2\06 - Guys And Dolls.wav

Peak level 88.5 %
Extraction speed 10.0 X
Track quality 100.0 %
Test CRC 3A070935
Copy CRC 3A070935
Accurately ripped (confidence 2) [F35D072D] (AR v1)
Copy OK

Track 7

Filename C:\EAC\Tubby Hayes - Jazz Genius. The Flamingo Era (1956-1961) [3CD] {2010 Fantastic Voyage}\CD2\07 - Time Was.wav

Peak level 90.7 %
Extraction speed 7.6 X
Track quality 99.9 %
Test CRC 27AE15A9
Copy CRC 27AE15A9
Accurately ripped (confidence 2) [0FB48A86] (AR v1)
Copy OK

Track 8

Filename C:\EAC\Tubby Hayes - Jazz Genius. The Flamingo Era (1956-1961) [3CD] {2010 Fantastic Voyage}\CD2\08 - Speak Low.wav

Peak level 91.1 %
Extraction speed 10.2 X
Track quality 100.0 %
Test CRC 869F658E
Copy CRC 869F658E
Accurately ripped (confidence 2) [9A166CCD] (AR v1)
Copy OK

Track 9

Filename C:\EAC\Tubby Hayes - Jazz Genius. The Flamingo Era (1956-1961) [3CD] {2010 Fantastic Voyage}\CD2\09 - Cheek To Cheek.wav

Peak level 100.0 %
Extraction speed 5.7 X
Track quality 99.8 %
Test CRC 3013FF75
Copy CRC 3013FF75
Accurately ripped (confidence 2) [87CCB696] (AR v1)
Copy OK


All tracks accurately ripped

No errors occurred

End of status report

==== Log checksum 470959589295B902C3ED9A777FE040D3168608FC2A9216FC0246493A0685A661 ====

Exact Audio Copy V1.0 beta 3 from 29. August 2011

EAC extraction logfile from 25. November 2012, 23:45

Tubby Hayes / Jazz Genius: The Flamingo Era (CD3)

Used drive : ATAPI iHAS124 B Adapter: 4 ID: 0

Read mode : Secure
Utilize accurate stream : Yes
Defeat audio cache : Yes
Make use of C2 pointers : No

Read offset correction : 6
Overread into Lead-In and Lead-Out : No
Fill up missing offset samples with silence : Yes
Delete leading and trailing silent blocks : No
Null samples used in CRC calculations : Yes
Used interface : Native Win32 interface for Win NT & 2000
Gap handling : Appended to previous track

Used output format : User Defined Encoder
Selected bitrate : 1024 kBit/s
Quality : High
Add ID3 tag : No
Command line compressor : C:\Program Files (x86)\FLAC\flac.exe
Additional command line options : -8 -V -T "ARTIST=%artist%" -T "TITLE=%title%" -T "ALBUM=%albumtitle%" -T "DATE=%year%" -T "TRACKNUMBER=%tracknr%" -T "GENRE=%genre%" -T "PERFORMER=%albuminterpret%" -T "COMPOSER=%composer%" %haslyrics%–tag-from-file=LYRICS="%lyricsfile%"%haslyrics% -T "ALBUMARTIST=%albumartist%" -T "DISCNUMBER=%cdnumber%" -T "TOTALDISCS=%totalcds%" -T "TOTALTRACKS=%numtracks%" -T "COMMENT=%comment%" %source% -o %dest%


TOC of the extracted CD

Track | Start | Length | Start sector | End sector
––––––––––––––––––––––––––––-
1 | 0:00.00 | 3:33.59 | 0 | 16033
2 | 3:33.59 | 2:57.36 | 16034 | 29344
3 | 6:31.20 | 2:36.41 | 29345 | 41085
4 | 9:07.61 | 2:26.68 | 41086 | 52103
5 | 11:34.54 | 2:55.74 | 52104 | 65302
6 | 14:30.53 | 3:39.51 | 65303 | 81778
7 | 18:10.29 | 3:23.74 | 81779 | 97077
8 | 21:34.28 | 3:07.69 | 97078 | 111171
9 | 24:42.22 | 2:57.49 | 111172 | 124495
10 | 27:39.71 | 2:38.34 | 124496 | 136379
11 | 30:18.30 | 2:47.18 | 136380 | 148922
12 | 33:05.48 | 2:50.04 | 148923 | 161676
13 | 35:55.52 | 3:21.22 | 161677 | 176773
14 | 39:16.74 | 2:56.20 | 176774 | 189993
15 | 42:13.19 | 3:22.71 | 189994 | 205214
16 | 45:36.15 | 2:42.52 | 205215 | 217416


Track 1

Filename C:\EAC\Tubby Hayes - Jazz Genius. The Flamingo Era (1956-1961) [3CD] {2010 Fantastic Voyage}\CD3\01 - Beryl's Bounce.wav

Pre-gap length 0:00:02.00

Peak level 76.5 %
Extraction speed 4.1 X
Track quality 99.9 %
Test CRC CE64A39C
Copy CRC CE64A39C
Accurately ripped (confidence 2) [20E806E6] (AR v2)
Copy OK

Track 2

Filename C:\EAC\Tubby Hayes - Jazz Genius. The Flamingo Era (1956-1961) [3CD] {2010 Fantastic Voyage}\CD3\02 - Odd Man Out.wav

Peak level 76.3 %
Extraction speed 5.2 X
Track quality 100.0 %
Test CRC EF31BF5F
Copy CRC EF31BF5F
Accurately ripped (confidence 2) [082C92B9] (AR v2)
Copy OK

Track 3

Filename C:\EAC\Tubby Hayes - Jazz Genius. The Flamingo Era (1956-1961) [3CD] {2010 Fantastic Voyage}\CD3\03 - Copper On The Beat.wav

Peak level 70.7 %
Extraction speed 5.5 X
Track quality 100.0 %
Test CRC A8D2506C
Copy CRC A8D2506C
Accurately ripped (confidence 2) [269EBD7C] (AR v2)
Copy OK

Track 4

Filename C:\EAC\Tubby Hayes - Jazz Genius. The Flamingo Era (1956-1961) [3CD] {2010 Fantastic Voyage}\CD3\04 - Slick Riff.wav

Peak level 95.8 %
Extraction speed 5.7 X
Track quality 100.0 %
Test CRC 43DEC439
Copy CRC 43DEC439
Accurately ripped (confidence 2) [D3552652] (AR v2)
Copy OK

Track 5

Filename C:\EAC\Tubby Hayes - Jazz Genius. The Flamingo Era (1956-1961) [3CD] {2010 Fantastic Voyage}\CD3\05 - Sadie's Song.wav

Peak level 100.0 %
Extraction speed 6.1 X
Track quality 100.0 %
Test CRC B515C558
Copy CRC B515C558
Accurately ripped (confidence 2) [BE8828AC] (AR v2)
Copy OK

Track 6

Filename C:\EAC\Tubby Hayes - Jazz Genius. The Flamingo Era (1956-1961) [3CD] {2010 Fantastic Voyage}\CD3\06 - The Toff.wav

Peak level 100.0 %
Extraction speed 6.7 X
Track quality 100.0 %
Test CRC 10F92F0E
Copy CRC 10F92F0E
Accurately ripped (confidence 2) [0A6F4116] (AR v2)
Copy OK

Track 7

Filename C:\EAC\Tubby Hayes - Jazz Genius. The Flamingo Era (1956-1961) [3CD] {2010 Fantastic Voyage}\CD3\07 - Wait And See.wav

Peak level 75.7 %
Extraction speed 7.0 X
Track quality 100.0 %
Test CRC 7937ECD7
Copy CRC 7937ECD7
Accurately ripped (confidence 2) [B5290D87] (AR v2)
Copy OK

Track 8

Filename C:\EAC\Tubby Hayes - Jazz Genius. The Flamingo Era (1956-1961) [3CD] {2010 Fantastic Voyage}\CD3\08 - Lakeland.wav

Peak level 96.6 %
Extraction speed 5.8 X
Track quality 99.9 %
Test CRC 92FFF3C7
Copy CRC 92FFF3C7
Accurately ripped (confidence 2) [93823DDA] (AR v2)
Copy OK

Track 9

Filename C:\EAC\Tubby Hayes - Jazz Genius. The Flamingo Era (1956-1961) [3CD] {2010 Fantastic Voyage}\CD3\09 - Big Ben Bounce.wav

Peak level 83.1 %
Extraction speed 7.4 X
Track quality 100.0 %
Test CRC 2AC2A77B
Copy CRC 2AC2A77B
Accurately ripped (confidence 2) [753009CE] (AR v2)
Copy OK

Track 10

Filename C:\EAC\Tubby Hayes - Jazz Genius. The Flamingo Era (1956-1961) [3CD] {2010 Fantastic Voyage}\CD3\10 - London Lament.wav

Peak level 91.7 %
Extraction speed 7.6 X
Track quality 100.0 %
Test CRC 1785CEFE
Copy CRC 1785CEFE
Accurately ripped (confidence 2) [5AF3F9A7] (AR v2)
Copy OK

Track 11

Filename C:\EAC\Tubby Hayes - Jazz Genius. The Flamingo Era (1956-1961) [3CD] {2010 Fantastic Voyage}\CD3\11 - Cheekie Chappie.wav

Peak level 88.4 %
Extraction speed 7.8 X
Track quality 100.0 %
Test CRC E5852740
Copy CRC E5852740
Accurately ripped (confidence 2) [DC2D97FA] (AR v2)
Copy OK

Track 12

Filename C:\EAC\Tubby Hayes - Jazz Genius. The Flamingo Era (1956-1961) [3CD] {2010 Fantastic Voyage}\CD3\12 - The Baron's Blues.wav

Peak level 62.7 %
Extraction speed 8.1 X
Track quality 100.0 %
Test CRC 3EE98AF2
Copy CRC 3EE98AF2
Accurately ripped (confidence 2) [B5D1F0D9] (AR v2)
Copy OK

Track 13

Filename C:\EAC\Tubby Hayes - Jazz Genius. The Flamingo Era (1956-1961) [3CD] {2010 Fantastic Voyage}\CD3\13 - Fishin' The Blues.wav

Peak level 84.8 %
Extraction speed 8.5 X
Track quality 100.0 %
Test CRC 0BFCE5A1
Copy CRC 0BFCE5A1
Accurately ripped (confidence 2) [7D6D88CF] (AR v2)
Copy OK

Track 14

Filename C:\EAC\Tubby Hayes - Jazz Genius. The Flamingo Era (1956-1961) [3CD] {2010 Fantastic Voyage}\CD3\14 - Mirage.wav

Peak level 80.3 %
Extraction speed 6.8 X
Track quality 99.9 %
Test CRC 45C303F4
Copy CRC 45C303F4
Accurately ripped (confidence 2) [63AFFE54] (AR v2)
Copy OK

Track 15

Filename C:\EAC\Tubby Hayes - Jazz Genius. The Flamingo Era (1956-1961) [3CD] {2010 Fantastic Voyage}\CD3\15 - Autumn In Cuba.wav

Peak level 73.0 %
Extraction speed 9.0 X
Track quality 100.0 %
Test CRC B0D8E3C2
Copy CRC B0D8E3C2
Accurately ripped (confidence 2) [6D8761B2] (AR v2)
Copy OK

Track 16

Filename C:\EAC\Tubby Hayes - Jazz Genius. The Flamingo Era (1956-1961) [3CD] {2010 Fantastic Voyage}\CD3\16 - Let Nature Take Its Course.wav

Peak level 82.6 %
Extraction speed 7.0 X
Track quality 99.9 %
Test CRC 2FA49BCA
Copy CRC 2FA49BCA
Accurately ripped (confidence 2) [CBE820A8] (AR v2)
Copy OK


All tracks accurately ripped

No errors occurred

End of status report

==== Log checksum 823FC436853B516445B85656F43D399B833ED2B6C73061FB0FEB21509743F10E ====


Tubby Hayes - Jazz Genius: The Flamingo Era (1956-1961) [3CD] {2010 Fantastic Voyage}