Subcategories

Jethro Tull - Minstrel In The Gallery (1975) {2CD+2DVD] {2015 Chrysalis 40th Anniversary La Grande Edition}

Posted By: ruskaval
Jethro Tull - Minstrel In The Gallery (1975) {2CD+2DVD] {2015 Chrysalis 40th Anniversary La Grande Edition}

Jethro Tull - Minstrel In The Gallery (1975) [2CD+2DVD] {2015 Chrysalis 40th Anniversary La Grande Edition}
EAC rip (secure mode) | FLAC (tracks)+CUE+LOG -> 878 Mb | MP3 @320 -> 366 Mb
2xDVD9 A/V -> 10.2 Gb | All Regions | NTSC 16:9 | LPCM / DTS / Dolby AC3 | 6 ch/2ch | 96kHz/24bit | ISO Images
Artwork @ 600 dpi (png) -> 1.99 Gb | 5% repair rar
© 1975, 2015 Chrysalis Records / Warner | 0825646157204
Rock / Prog Rock / Art Rock

Original album plus seven bonus tracks (six previously unreleased), two mixed to 5.1 surround, and all to stereo by Steven Wilson. The 40th Anniversary edition of Jethro Tull’s Minstrel In The Gallery. The album has been expanded to include the b-side Summerday Sands, several studio outtakes, and alternate session material recorded for a BBC broadcast. The second disc features a live recording of Jethro Tull performing at the Olympia in Paris on July 5, 1975, a few months prior to the release of Minstrel In The Gallery. During the show, the band played songs from several of its albums, including War Child and Aqualung, as well as an early performance of Minstrel In The Gallery. It was mixed to 5.1 & stereo by by King Crimson guitarist Jakko Jakszyk.
Jethro Tull - Minstrel In The Gallery (1975) {2CD+2DVD] {2015 Chrysalis 40th Anniversary La Grande Edition}

Jethro Tull - Minstrel In The Gallery (1975) {2CD+2DVD] {2015 Chrysalis 40th Anniversary La Grande Edition}

Highlights from the set include:

* Original album plus seven bonus tracks (six previously unreleased), two mixed to 5.1 surround, and all to stereo by Steven Wilson
* Flat transfers of the original LP mix at 96/24 plus additional track Summerday Sands
* Flat transfer of the original quad mix of the LP plus additional track Summerday Sands
* An eight and a half minute film of the band performing Minstrel In The Gallery in Paris from 1975
* Presented in a case-bound DVD book that includes an 80-page booklet featuring an extensive history of the album, track-by-track annotations by Ian Anderson, recollections by roadie Kenny Wylie, Maison Rouge maintenance engineer Pete Smith, and string section member Liz Edwards plus lyrics, tour itinerary and rare and unseen photographs.
Jethro Tull - Minstrel In The Gallery (1975) {2CD+2DVD] {2015 Chrysalis 40th Anniversary La Grande Edition}

The DVDs will feature the DTS & DD 5.1 surround mixes as well as the 96/24 PCM stereo mix and and an eight and half minute film of the band recorded in Paris on 6th July 1975.
Jethro Tull - Minstrel In The Gallery (1975) {2CD+2DVD] {2015 Chrysalis 40th Anniversary La Grande Edition}

Jethro Tull - Minstrel In The Gallery (1975) {2CD+2DVD] {2015 Chrysalis 40th Anniversary La Grande Edition}


Personnel:
Ian Anderson – flute, acoustic guitar, vocals
Martin Barre – electric guitars
John Evan – piano and organ
Jeffrey Hammond – bass guitar and string bass
Barriemore Barlow – drums, percussion

tracklist:
Disc One – New Steven Wilson Stereo Remix:

01. Minstrel In The Gallery
02. Cold Wind To Valhalla
03. Black Satin Dancer
04. Requiem
05. One White Duck / 010 = Nothing At All
06. Baker St. Muse
07. Baker St. Muse – Pig-Me And The Whore
08. Baker St. Muse – Nice Little Tune
09. Baker St. Muse – Crash-Barrier Waltzer
10. Baker St. Muse – Mother England Reverie
11. Grace
12. Summerday Sands
13. Requiem (Version 1)*
14. One White Duck (Take 5)*
15. Grace (Take 2)*
16. Minstrel In The Gallery (BBC version)*
17. Cold Wind To Valhalla (BBC version)*
18. Aqualung (BBC version)*

Jethro Tull - Minstrel In The Gallery (1975) {2CD+2DVD] {2015 Chrysalis 40th Anniversary La Grande Edition}


Disc Two – Live at The Palais Des Sports, Paris, July 5, 1975 (A Jakko Jakszyk Stereo Mix):
01. Introduction (The Beach Part 11)
02. Wind Up
03. Critique Oblique
04. Wond’ring Aloud
05. My God
a. Flute Solo Including: God Rest Ye Merry Gentlemen/Bouree/Quartet
b. Living In The Past
c. My God (Reprise)
06. Cross-Eyed Mary
07. Minstrel In The Gallery
08. Skating Away On The Thin Ice Of The New Day
09. Bungle In The Jungle
10. Aqualung
11. Guitar Improvisation
12. Back-Door Angels
13. Locomotive Breath with improvisation and including Hard Headed English General and Back-Door Angels (Reprise)

* Previously Unreleased

Jethro Tull - Minstrel In The Gallery (1975) {2CD+2DVD] {2015 Chrysalis 40th Anniversary La Grande Edition}


The DVDs will feature the DTS & DD 5.1 surround mixes as well as the 96/24 PCM stereo mix and and an eight and half minute film of the band recorded in Paris on 6th July 1975.

Jethro Tull - Minstrel In The Gallery (1975) {2CD+2DVD] {2015 Chrysalis 40th Anniversary La Grande Edition}

Jethro Tull - Minstrel In The Gallery (1975) {2CD+2DVD] {2015 Chrysalis 40th Anniversary La Grande Edition}


Exact Audio Copy V1.0 beta 3 from 29. August 2011

EAC extraction logfile from 9. May 2015, 12:58

Jethro Tull / Minstrel in the Gallery (40th Anniversary-La Grande Edition)

Used drive : PLEXTOR DVDR PX-891SAW Adapter: 2 ID: 1

Read mode : Secure
Utilize accurate stream : Yes
Defeat audio cache : Yes
Make use of C2 pointers : No

Read offset correction : 48
Overread into Lead-In and Lead-Out : No
Fill up missing offset samples with silence : Yes
Delete leading and trailing silent blocks : No
Null samples used in CRC calculations : Yes
Used interface : Native Win32 interface for Win NT & 2000
Gap handling : Appended to previous track

Used output format : User Defined Encoder
Selected bitrate : 128 kBit/s
Quality : High
Add ID3 tag : No
Command line compressor : C:\Program Files (x86)\Exact Audio Copy\FLAC\FLAC.EXE
Additional command line options : -8 -V -T "ARTIST=%artist%" -T "TITLE=%title%" -T "ALBUM=%albumtitle%" -T "DATE=%year%" -T "TRACKNUMBER=%tracknr%" -T "TOTALTRACKS=%numtracks%" -T "GENRE=%genre%" -T "ALBUMARTIST=%albumartist%" -T "ALBUM ARTIST=%albumartist%" -T "COMMENT=EAC Secure Mode, Test & Copy, AccurateRip, FLAC -8" %source%


TOC of the extracted CD

Track | Start | Length | Start sector | End sector
––––––––––––––––––––––––––––-
1 | 0:00.00 | 8:16.49 | 0 | 37248
2 | 8:16.49 | 4:17.52 | 37249 | 56575
3 | 12:34.26 | 6:53.41 | 56576 | 87591
4 | 19:27.67 | 3:43.07 | 87592 | 104323
5 | 23:10.74 | 4:39.43 | 104324 | 125291
6 | 27:50.42 | 5:09.06 | 125292 | 148472
7 | 32:59.48 | 1:30.21 | 148473 | 155243
8 | 34:29.69 | 1:09.10 | 155244 | 160428
9 | 35:39.04 | 3:09.12 | 160429 | 174615
10 | 38:48.16 | 5:45.73 | 174616 | 200563
11 | 44:34.14 | 0:36.66 | 200564 | 203329
12 | 45:11.05 | 3:42.32 | 203330 | 220011
13 | 48:53.37 | 3:42.56 | 220012 | 236717
14 | 52:36.18 | 2:26.24 | 236718 | 247691
15 | 55:02.42 | 0:40.60 | 247692 | 250751
16 | 55:43.27 | 8:27.24 | 250752 | 288800
17 | 64:10.51 | 4:21.54 | 288801 | 308429
18 | 68:32.30 | 8:01.31 | 308430 | 344535


Track 1

Filename G:\Flac Rips\01 - Minstrel In The Gallery.wav

Pre-gap length 0:00:02.00

Peak level 100.0 %
Extraction speed 4.6 X
Track quality 99.9 %
Test CRC 9074674E
Copy CRC 9074674E
Track not present in AccurateRip database
Copy OK

Track 2

Filename G:\Flac Rips\02 - Cold Wind To Valhalla.wav

Peak level 99.0 %
Extraction speed 6.1 X
Track quality 100.0 %
Test CRC FEC64436
Copy CRC FEC64436
Track not present in AccurateRip database
Copy OK

Track 3

Filename G:\Flac Rips\03 - Black Satin Dancer.wav

Peak level 99.0 %
Extraction speed 7.0 X
Track quality 100.0 %
Test CRC 06D1B95F
Copy CRC 06D1B95F
Track not present in AccurateRip database
Copy OK

Track 4

Filename G:\Flac Rips\04 - Requiem.wav

Peak level 44.7 %
Extraction speed 4.7 X
Track quality 99.9 %
Test CRC 35595E64
Copy CRC 35595E64
Track not present in AccurateRip database
Copy OK

Track 5

Filename G:\Flac Rips\05 - One White Duck.wav

Peak level 62.2 %
Extraction speed 7.6 X
Track quality 100.0 %
Test CRC 4753C296
Copy CRC 4753C296
Track not present in AccurateRip database
Copy OK

Track 6

Filename G:\Flac Rips\06 - Baker St. Muse.wav

Peak level 98.8 %
Extraction speed 5.9 X
Track quality 99.9 %
Test CRC 0707BB04
Copy CRC 0707BB04
Track not present in AccurateRip database
Copy OK

Track 7

Filename G:\Flac Rips\07 - Baker St. Muse - Pig Me and the Whore.wav

Peak level 80.0 %
Extraction speed 3.2 X
Track quality 99.8 %
Test CRC DC8103F4
Copy CRC DC8103F4
Track not present in AccurateRip database
Copy OK

Track 8

Filename G:\Flac Rips\08 - Baker St. Muse - Nice Little Tune.wav

Peak level 99.1 %
Extraction speed 6.1 X
Track quality 100.0 %
Test CRC 8AC1CFBC
Copy CRC 8AC1CFBC
Track not present in AccurateRip database
Copy OK

Track 9

Filename G:\Flac Rips\09 - Baker St. Muse - Crash-Barrier Waltzer.wav

Peak level 57.4 %
Extraction speed 8.0 X
Track quality 100.0 %
Test CRC 9B8642E9
Copy CRC 9B8642E9
Track not present in AccurateRip database
Copy OK

Track 10

Filename G:\Flac Rips\10 - Baker St. Muse - Mother England Reverie.wav

Peak level 99.3 %
Extraction speed 9.0 X
Track quality 100.0 %
Test CRC 8C59B4C8
Copy CRC 8C59B4C8
Track not present in AccurateRip database
Copy OK

Track 11

Filename G:\Flac Rips\11 - Grace.wav

Peak level 40.1 %
Extraction speed 4.9 X
Track quality 100.0 %
Test CRC 46D78CEF
Copy CRC 46D78CEF
Track not present in AccurateRip database
Copy OK

Track 12

Filename G:\Flac Rips\12 - Summerday Sands.wav

Peak level 99.2 %
Extraction speed 5.8 X
Track quality 99.9 %
Test CRC 3637BB85
Copy CRC 3637BB85
Track not present in AccurateRip database
Copy OK

Track 13

Filename G:\Flac Rips\13 - Requiem (Early Version).wav

Peak level 51.0 %
Extraction speed 6.0 X
Track quality 99.9 %
Test CRC 1256DC60
Copy CRC 1256DC60
Track not present in AccurateRip database
Copy OK

Track 14

Filename G:\Flac Rips\14 - One White Duck (Take 5).wav

Peak level 49.8 %
Extraction speed 8.8 X
Track quality 100.0 %
Test CRC 5903F63F
Copy CRC 5903F63F
Track not present in AccurateRip database
Copy OK

Track 15

Filename G:\Flac Rips\15 - Grace (Take 2).wav

Peak level 42.8 %
Extraction speed 2.0 X
Track quality 99.7 %
Test CRC 19E64541
Copy CRC 19E64541
Track not present in AccurateRip database
Copy OK

Track 16

Filename G:\Flac Rips\16 - Minstrel In The Gallery (BBC Version).wav

Peak level 99.0 %
Extraction speed 10.5 X
Track quality 100.0 %
Test CRC FBD8BF49
Copy CRC FBD8BF49
Track not present in AccurateRip database
Copy OK

Track 17

Filename G:\Flac Rips\17 - Cold Wind To Valhalla (BBC Version).wav

Peak level 98.8 %
Extraction speed 10.1 X
Track quality 100.0 %
Test CRC 70744B94
Copy CRC 70744B94
Track not present in AccurateRip database
Copy OK

Track 18

Filename G:\Flac Rips\18 - Aqualung (BBC Version).wav

Peak level 99.2 %
Extraction speed 8.8 X
Track quality 99.9 %
Test CRC 7DA8CD01
Copy CRC 7DA8CD01
Track not present in AccurateRip database
Copy OK


None of the tracks are present in the AccurateRip database

No errors occurred

End of status report

==== Log checksum 59EE88662803AE8999B40332534C734F016FB8A4DE4625ADA0F9CF80CDF58B7F ====

Exact Audio Copy V1.0 beta 3 from 29. August 2011

EAC extraction logfile from 9. May 2015, 13:24

Jethro Tull / Minstrel In The Gallery 40th Anniversary CD 2 (Live Palais Des Sports)

Used drive : PLEXTOR DVDR PX-891SAW Adapter: 2 ID: 1

Read mode : Secure
Utilize accurate stream : Yes
Defeat audio cache : Yes
Make use of C2 pointers : No

Read offset correction : 48
Overread into Lead-In and Lead-Out : No
Fill up missing offset samples with silence : Yes
Delete leading and trailing silent blocks : No
Null samples used in CRC calculations : Yes
Used interface : Native Win32 interface for Win NT & 2000
Gap handling : Appended to previous track

Used output format : User Defined Encoder
Selected bitrate : 128 kBit/s
Quality : High
Add ID3 tag : No
Command line compressor : C:\Program Files (x86)\Exact Audio Copy\FLAC\FLAC.EXE
Additional command line options : -8 -V -T "ARTIST=%artist%" -T "TITLE=%title%" -T "ALBUM=%albumtitle%" -T "DATE=%year%" -T "TRACKNUMBER=%tracknr%" -T "TOTALTRACKS=%numtracks%" -T "GENRE=%genre%" -T "ALBUMARTIST=%albumartist%" -T "ALBUM ARTIST=%albumartist%" -T "COMMENT=EAC Secure Mode, Test & Copy, AccurateRip, FLAC -8" %source%


TOC of the extracted CD

Track | Start | Length | Start sector | End sector
––––––––––––––––––––––––––––-
1 | 0:00.00 | 0:54.21 | 0 | 4070
2 | 0:54.21 | 3:01.38 | 4071 | 17683
3 | 3:55.59 | 4:05.05 | 17684 | 36063
4 | 8:00.64 | 5:16.36 | 36064 | 59799
5 | 13:17.25 | 11:34.43 | 59800 | 111892
6 | 24:51.68 | 4:05.19 | 111893 | 130286
7 | 28:57.12 | 9:23.73 | 130287 | 172584
8 | 38:21.10 | 4:39.25 | 172585 | 193534
9 | 43:00.35 | 3:17.21 | 193535 | 208330
10 | 46:17.56 | 9:41.36 | 208331 | 251941
11 | 55:59.17 | 3:29.27 | 251942 | 267643
12 | 59:28.44 | 6:06.38 | 267644 | 295131
13 | 65:35.07 | 11:50.68 | 295132 | 348449


Track 1

Filename G:\Flac Rips\01 - Introduction (The Beach Part II).wav

Pre-gap length 0:00:02.00

Peak level 28.8 %
Extraction speed 3.1 X
Track quality 100.0 %
Test CRC 308AFFDE
Copy CRC 308AFFDE
Track not present in AccurateRip database
Copy OK

Track 2

Filename G:\Flac Rips\02 - Wind Up.wav

Peak level 100.0 %
Extraction speed 4.9 X
Track quality 100.0 %
Test CRC C69F8311
Copy CRC C69F8311
Track not present in AccurateRip database
Copy OK

Track 3

Filename G:\Flac Rips\03 - Critique Oblique.wav

Peak level 100.0 %
Extraction speed 5.6 X
Track quality 100.0 %
Test CRC 5179DE76
Copy CRC 5179DE76
Track not present in AccurateRip database
Copy OK

Track 4

Filename G:\Flac Rips\04 - Wond'ring Aloud.wav

Peak level 54.9 %
Extraction speed 6.3 X
Track quality 100.0 %
Test CRC 3B71C662
Copy CRC 3B71C662
Track not present in AccurateRip database
Copy OK

Track 5

Filename G:\Flac Rips\05 - My God.wav

Peak level 100.0 %
Extraction speed 7.5 X
Track quality 100.0 %
Test CRC E31DB99B
Copy CRC E31DB99B
Track not present in AccurateRip database
Copy OK

Track 6

Filename G:\Flac Rips\06 - Cross-Eyed Mary.wav

Peak level 99.3 %
Extraction speed 7.6 X
Track quality 100.0 %
Test CRC 412FAF04
Copy CRC 412FAF04
Track not present in AccurateRip database
Copy OK

Track 7

Filename G:\Flac Rips\07 - Minstrel In The Gallery.wav

Peak level 100.0 %
Extraction speed 8.8 X
Track quality 100.0 %
Test CRC FF2AB2E1
Copy CRC FF2AB2E1
Track not present in AccurateRip database
Copy OK

Track 8

Filename G:\Flac Rips\08 - Skating Away On The Thin Ice Of The new Day.wav

Peak level 69.9 %
Extraction speed 8.8 X
Track quality 100.0 %
Test CRC D73AF850
Copy CRC D73AF850
Track not present in AccurateRip database
Copy OK

Track 9

Filename G:\Flac Rips\09 - Bungle In The Jungle.wav

Peak level 87.3 %
Extraction speed 8.7 X
Track quality 100.0 %
Test CRC F5898EE2
Copy CRC F5898EE2
Track not present in AccurateRip database
Copy OK

Track 10

Filename G:\Flac Rips\10 - Aqualung.wav

Peak level 87.1 %
Extraction speed 10.1 X
Track quality 100.0 %
Test CRC F097F387
Copy CRC F097F387
Track not present in AccurateRip database
Copy OK

Track 11

Filename G:\Flac Rips\11 - Guitar Improvisation.wav

Peak level 29.4 %
Extraction speed 9.4 X
Track quality 100.0 %
Test CRC 10EAE0A2
Copy CRC 10EAE0A2
Track not present in AccurateRip database
Copy OK

Track 12

Filename G:\Flac Rips\12 - Bach-Door Angels.wav

Peak level 87.2 %
Extraction speed 7.7 X
Track quality 99.9 %
Test CRC 67B0233C
Copy CRC 67B0233C
Track not present in AccurateRip database
Copy OK

Track 13

Filename G:\Flac Rips\13 - Locomotive Breath.wav

Peak level 87.3 %
Extraction speed 11.1 X
Track quality 100.0 %
Test CRC 932FF243
Copy CRC 932FF243
Track not present in AccurateRip database
Copy OK


None of the tracks are present in the AccurateRip database

No errors occurred

End of status report

==== Log checksum 67572D17F7E5C23B10DF0F3BED2D82EC37CB3948A46C9212D1526CFEC5871F3F ====

I 13:26:12 DVD Decrypter Version 3.5.4.0 started!
I 13:26:12 Home Edition (6.1, Build 7601 : Service Pack 1)
I 13:26:12 Initialising SPTI…
I 13:26:12 Searching for SCSI / ATAPI devices…
I 13:26:12 Found 1 DVD-ROM and 2 DVD-RAM/±RWs!
I 13:27:01 Operation Started!
I 13:27:01 Source Device: [2:1:0] PLEXTOR DVDR PX-891SAW 1.03 (H:) (ATA)
I 13:27:01 Source Media Type: DVD-ROM
I 13:27:01 Source Media Region Code: 1; 2; 3; 4; 5; 6; 7; 8
I 13:27:01 Source Media Copyright Protection System Type: CSS/CPPM
I 13:27:01 Source Media Implementation Identifier: DVDAfterEdit
I 13:27:01 Destination File: G:\Flac Rips\Jethro Tull - Minstrel in the Gallery (1975) [FLAC] {40th Anniversary-La Grande Edition}\Image 1of2\JT_MITG.ISO
I 13:27:01 File Splitting: None
I 13:27:01 Hardware Read Error Retries: 20
I 13:27:01 Detect Mastering Errors: No
I 13:27:01 Remove Macrovision Protection: Yes
I 13:27:01 Extracting Sectors… (LBA: 0 - 3852591)
I 13:27:01 Found IFO File: VIDEO_TS.IFO - (LBA: 300 - 307)
I 13:27:01 Found VOB File: VIDEO_TS.VOB - (LBA: 308 - 40112) - KEY: N/A
I 13:27:19 Found BUP File: VIDEO_TS.BUP - (LBA: 40113 - 40120)
I 13:27:19 Found IFO File: VTS_01_0.IFO - (LBA: 40121 - 40129)
I 13:27:19 Found VOB File: VTS_01_0.VOB - (LBA: 40130 - 72907) - KEY: CD 2F 1A C1 9C
I 13:27:34 Found VOB File: VTS_01_1.VOB - (LBA: 72908 - 72964) - KEY: CD 2F 1A C1 9C
I 13:27:34 Found BUP File: VTS_01_0.BUP - (LBA: 72965 - 72973)
I 13:27:34 Found IFO File: VTS_02_0.IFO - (LBA: 72974 - 72995)
I 13:27:34 Found VOB File: VTS_02_1.VOB - (LBA: 72996 - 597224) - KEY: D0 4A FA DE E0
I 13:29:32 Found VOB File: VTS_02_2.VOB - (LBA: 597225 - 1121350) - KEY: D0 4A FA DE E0
I 13:31:02 Found VOB File: VTS_02_3.VOB - (LBA: 1121351 - 1645472) - KEY: D0 4A FA DE E0
I 13:32:17 Found VOB File: VTS_02_4.VOB - (LBA: 1645473 - 1666632) - KEY: D0 4A FA DE E0
I 13:32:20 Found BUP File: VTS_02_0.BUP - (LBA: 1666633 - 1666654)
I 13:32:20 Found IFO File: VTS_03_0.IFO - (LBA: 1666655 - 1666668)
I 13:32:20 Found VOB File: VTS_03_1.VOB - (LBA: 1666669 - 2190934) - KEY: D3 AE 46 97 B6
I 13:34:48 Found VOB File: VTS_03_2.VOB - (LBA: 2190935 - 2193747) - KEY: D3 AE 46 97 B6
I 13:34:48 Found BUP File: VTS_03_0.BUP - (LBA: 2193748 - 2193761)
I 13:34:48 Found IFO File: VTS_04_0.IFO - (LBA: 2193762 - 2193781)
I 13:34:48 Found VOB File: VTS_04_1.VOB - (LBA: 2193782 - 2717946) - KEY: D0 F7 83 CB 2F
I 13:36:04 Found VOB File: VTS_04_2.VOB - (LBA: 2717947 - 3242201) - KEY: D0 F7 83 CB 2F
I 13:37:28 Found VOB File: VTS_04_3.VOB - (LBA: 3242202 - 3264534) - KEY: D0 F7 83 CB 2F
I 13:37:32 Found BUP File: VTS_04_0.BUP - (LBA: 3264535 - 3264554)
I 13:37:32 Found IFO File: VTS_05_0.IFO - (LBA: 3264555 - 3264574)
I 13:37:32 Found VOB File: VTS_05_1.VOB - (LBA: 3264575 - 3788776) - KEY: C3 08 FB 53 28
I 13:39:17 Found VOB File: VTS_05_2.VOB - (LBA: 3788777 - 3852563) - KEY: C3 08 FB 53 28
I 13:39:33 Found BUP File: VTS_05_0.BUP - (LBA: 3852564 - 3852583)
I 13:39:33 Operation Successfully Completed! - Duration: 00:12:32
I 13:39:33 Average Read Rate: 10.246 KB/s (7.4x) - Maximum Read Rate: 15.704 KB/s (11.3x)

I 14:01:56 DVD Decrypter Version 3.5.4.0 started!
I 14:01:56 Home Edition (6.1, Build 7601 : Service Pack 1)
I 14:01:56 Initialising SPTI…
I 14:01:56 Searching for SCSI / ATAPI devices…
I 14:01:56 Found 1 DVD-ROM and 2 DVD-RAM/±RWs!
I 14:02:46 Operation Started!
I 14:02:46 Source Device: [2:1:0] PLEXTOR DVDR PX-891SAW 1.03 (H:) (ATA)
I 14:02:46 Source Media Type: DVD-ROM
I 14:02:46 Source Media Region Code: 1; 2; 3; 4; 5; 6; 7; 8
I 14:02:46 Source Media Copyright Protection System Type: CSS/CPPM
I 14:02:46 Source Media Implementation Identifier: DVDAfterEdit
I 14:02:46 Destination File: G:\Flac Rips\Jethro Tull - Minstrel in the Gallery (1975) [FLAC] {40th Anniversary-La Grande Edition}\Image 2of2\JT_PARIS_LIVE_75.ISO
I 14:02:46 File Splitting: None
I 14:02:46 Hardware Read Error Retries: 20
I 14:02:47 Detect Mastering Errors: No
I 14:02:47 Remove Macrovision Protection: Yes
I 14:02:47 Extracting Sectors… (LBA: 0 - 2815775)
I 14:02:47 Found IFO File: VIDEO_TS.IFO - (LBA: 301 - 308)
I 14:02:47 Found VOB File: VIDEO_TS.VOB - (LBA: 309 - 25020) - KEY: N/A
I 14:02:54 Found BUP File: VIDEO_TS.BUP - (LBA: 25021 - 25028)
I 14:02:54 Found IFO File: VTS_01_0.IFO - (LBA: 25029 - 25037)
I 14:02:54 Found VOB File: VTS_01_0.VOB - (LBA: 25038 - 61813) - KEY: CD 2F 1A C1 9C
I 14:03:05 Found VOB File: VTS_01_1.VOB - (LBA: 61814 - 61870) - KEY: CD 2F 1A C1 9C
I 14:03:05 Found BUP File: VTS_01_0.BUP - (LBA: 61871 - 61879)
I 14:03:05 Found IFO File: VTS_02_0.IFO - (LBA: 61880 - 61907)
I 14:03:05 Found VOB File: VTS_02_1.VOB - (LBA: 61908 - 586170) - KEY: D0 4A FA DE E0
I 14:05:04 Found VOB File: VTS_02_2.VOB - (LBA: 586171 - 1110386) - KEY: D0 4A FA DE E0
I 14:06:35 Found VOB File: VTS_02_3.VOB - (LBA: 1110387 - 1634598) - KEY: D0 4A FA DE E0
I 14:07:52 Found VOB File: VTS_02_4.VOB - (LBA: 1634599 - 2158666) - KEY: D0 4A FA DE E0
I 14:09:18 Found VOB File: VTS_02_5.VOB - (LBA: 2158667 - 2547893) - KEY: D0 4A FA DE E0
I 14:10:35 Found BUP File: VTS_02_0.BUP - (LBA: 2547894 - 2547921)
I 14:10:35 Found IFO File: VTS_03_0.IFO - (LBA: 2547922 - 2547931)
I 14:10:35 Found VOB File: VTS_03_1.VOB - (LBA: 2547932 - 2815758) - KEY: D3 AE 46 97 B6
I 14:11:40 Found BUP File: VTS_03_0.BUP - (LBA: 2815759 - 2815768)
I 14:11:41 Operation Successfully Completed! - Duration: 00:08:54
I 14:11:41 Average Read Rate: 10.545 KB/s (7.6x) - Maximum Read Rate: 14.361 KB/s (10.4x)


Jethro Tull - Minstrel In The Gallery (1975) {2CD+2DVD] {2015 Chrysalis 40th Anniversary La Grande Edition}

Jethro Tull - Minstrel In The Gallery (1975) {2CD+2DVD] {2015 Chrysalis 40th Anniversary La Grande Edition}

Jethro Tull - Minstrel In The Gallery (1975) {2CD+2DVD] {2015 Chrysalis 40th Anniversary La Grande Edition}

Jethro Tull - Minstrel In The Gallery (1975) {2CD+2DVD] {2015 Chrysalis 40th Anniversary La Grande Edition}

Jethro Tull - Minstrel In The Gallery (1975) {2CD+2DVD] {2015 Chrysalis 40th Anniversary La Grande Edition}

Jethro Tull - Minstrel In The Gallery (1975) {2CD+2DVD] {2015 Chrysalis 40th Anniversary La Grande Edition}

Jethro Tull - Minstrel In The Gallery (1975) {2CD+2DVD] {2015 Chrysalis 40th Anniversary La Grande Edition}

Jethro Tull - Minstrel In The Gallery (1975) {2CD+2DVD] {2015 Chrysalis 40th Anniversary La Grande Edition}

Jethro Tull - Minstrel In The Gallery (1975) {2CD+2DVD] {2015 Chrysalis 40th Anniversary La Grande Edition}

Jethro Tull - Minstrel In The Gallery (1975) {2CD+2DVD] {2015 Chrysalis 40th Anniversary La Grande Edition}



===