Subcategories

Ultravox - Return To Eden (2010 UK Deluxe Edition) [2CD+DVD] {Chrysalis}

Posted By: ruskaval
Ultravox - Return To Eden (2010 UK Deluxe Edition) [2CD+DVD] {Chrysalis}

Ultravox - Return To Eden (2010 UK Deluxe Edition) [2CD+DVD] {Chrysalis}
EAC rip (secure mode) | FLAC (tracks)+CUE+LOG -> 716 Mb | MP3 @320 -> 242 Mb | Artwork
DVD9 -> 6,9 Gb | All Regions | NTSC 16:9 | Dolby AC3, 2 ch / DTS, 6 ch / Dolby AC3, 6 ch | ~ 140 m | ISO Image
Subs: English, Francais, Deutsch, Nederlands, Italiano, Espanol, Portugues, Japanese
© 2010 Chrysalis / EMI / Shamrock Sol. | 5099963151022
Rock / New Vave / Synth Pop

ULTRAVOX Return To Eden - Live At The Roundhouse (2010 UK Deluxe Edition 3-disc [2CD/1DVD] set - Recorded during the bands 2009 sell out UK tour on April 30th at the legendary Roundhouse in London. The 'Return to Eden' tour was the first time that the classic Ultravox line-up of Midge Ure, Billy Currie, Criss Cross and Warren Cann had performed together in over 2 decades. This 3-disc set comprises a 18-track collection of live recordings including 'All Stood Still', 'The Thin Wall', 'Reap The Wild Wind', 'Hymn', 'Visions In Blue', their classic hit 'Vienna' and more; plus a Bonus DVD featuring their live performance at the Roundhouse, and the 'Building Eden Reformation' Documentary. Presented in a sealed tri-fold card digipak picture sleeve).

Personnel:
Midge Ure
Billy Currie
Chris Cross
Warren Cann


tracklist:
CD1:
01. Astradyne
02. Passing Strangers
03. We Stand Alone
04. Mr X
05. Visions In Blue
06. The Thin Wall
07. I Remember (Death In The Afternoon)
08. Rage In Eden
09. Lament

CD2:
01. One Small Day
02. All Stood Still
03. Your Name (Has Slipped My Mind)
04. Vienna
05. Reap The Wild Wind
06. Dancing With Tears In My Eyes
07. Hymn
08. Sleepwalk
09. The Voice

DVD:
01. Astradyne
02. Passing Strangers
03. We Stand Alone
04. Mr X
05. Visions In Blue
06. The Thin Wall
07. I Remember (Death In The Afternoon)
08. Rage In Eden
09. Lament
10. One Small Day
11. All Stood Still
12. Your Name (Has Slipped My Mind)
13. Vienna
14. Reap The Wild Wind
15. Dancing With Tears In My Eyes
16. Hymn
17. Sleepwalk
18. The Voice

Bonus Material:
19. Building Eden Reformation Documentary


Exact Audio Copy V1.0 beta 3 from 29. August 2011

EAC extraction logfile from 9. February 2012, 23:52

Ultravox / Return To Eden (CD1)

Used drive : HL-DT-STDVDRAM GSA-H60N Adapter: 4 ID: 0

Read mode : Secure
Utilize accurate stream : Yes
Defeat audio cache : Yes
Make use of C2 pointers : No

Read offset correction : 667
Overread into Lead-In and Lead-Out : No
Fill up missing offset samples with silence : Yes
Delete leading and trailing silent blocks : No
Null samples used in CRC calculations : Yes
Used interface : Native Win32 interface for Win NT & 2000
Gap handling : Appended to previous track

Used output format : User Defined Encoder
Selected bitrate : 1024 kBit/s
Quality : High
Add ID3 tag : No
Command line compressor : C:\Program Files (x86)\Exact Audio Copy\Flac\flac.exe
Additional command line options : -8 -V -T "ARTIST=%artist%" -T "TITLE=%title%" -T "ALBUM=%albumtitle%" -T "DATE=%year%" -T "TRACKNUMBER=%tracknr%" -T "GENRE=%genre%" -T "PERFORMER=%albuminterpret%" -T "COMPOSER=%composer%" %haslyrics%–tag-from-file=LYRICS="%lyricsfile%"%haslyrics% -T "ALBUMARTIST=%albumartist%" -T "DISCNUMBER=%cdnumber%" -T "TOTALDISCS=%totalcds%" -T "TOTALTRACKS=%numtracks%" -T "COMMENT=EAC V1.0 beta 3, Secure Mode, Test & Copy, FLAC -8%comment%" %source% -o %dest%


TOC of the extracted CD

Track | Start | Length | Start sector | End sector
––––––––––––––––––––––––––––-
1 | 0:00.00 | 7:18.61 | 0 | 32910
2 | 7:18.61 | 5:02.09 | 32911 | 55569
3 | 12:20.70 | 6:04.50 | 55570 | 82919
4 | 18:25.45 | 6:58.28 | 82920 | 114297
5 | 25:23.73 | 5:11.71 | 114298 | 137693
6 | 30:35.69 | 6:19.22 | 137694 | 166140
7 | 36:55.16 | 5:10.52 | 166141 | 189442
8 | 42:05.68 | 4:12.00 | 189443 | 208342
9 | 46:17.68 | 5:02.07 | 208343 | 230999


Track 1

Filename c:\Ultravox - Return To Eden (CD1) (2010) [FLAC]\01 - Astradyne (Live).wav

Pre-gap length 0:00:02.00

Peak level 99.9 %
Extraction speed 4.0 X
Track quality 100.0 %
Test CRC 52EC28C1
Copy CRC 52EC28C1
Copy OK

Track 2

Filename c:\Ultravox - Return To Eden (CD1) (2010) [FLAC]\02 - Passing Strangers (Live).wav

Peak level 99.9 %
Extraction speed 4.0 X
Track quality 100.0 %
Test CRC 48D13128
Copy CRC 48D13128
Copy OK

Track 3

Filename c:\Ultravox - Return To Eden (CD1) (2010) [FLAC]\03 - We Stand Alone (Live).wav

Pre-gap length 0:00:00.01

Peak level 99.9 %
Extraction speed 4.4 X
Track quality 100.0 %
Test CRC D536F331
Copy CRC D536F331
Copy OK

Track 4

Filename c:\Ultravox - Return To Eden (CD1) (2010) [FLAC]\04 - Mr X (Live).wav

Peak level 99.9 %
Extraction speed 4.2 X
Track quality 100.0 %
Test CRC 326EC63A
Copy CRC 326EC63A
Copy OK

Track 5

Filename c:\Ultravox - Return To Eden (CD1) (2010) [FLAC]\05 - Visions in Blue (Live).wav

Peak level 99.9 %
Extraction speed 4.1 X
Track quality 100.0 %
Test CRC A2B8FC77
Copy CRC A2B8FC77
Copy OK

Track 6

Filename c:\Ultravox - Return To Eden (CD1) (2010) [FLAC]\06 - The Thin Wall (Live).wav

Pre-gap length 0:00:00.13

Peak level 99.9 %
Extraction speed 4.4 X
Track quality 100.0 %
Test CRC E47029EA
Copy CRC E47029EA
Copy OK

Track 7

Filename c:\Ultravox - Return To Eden (CD1) (2010) [FLAC]\07 - I Remember (Death in the Afternoon) (Live).wav

Peak level 99.9 %
Extraction speed 4.0 X
Track quality 100.0 %
Test CRC 6392254D
Copy CRC 6392254D
Copy OK

Track 8

Filename c:\Ultravox - Return To Eden (CD1) (2010) [FLAC]\08 - Rage In Eden (Live).wav

Peak level 99.9 %
Extraction speed 4.4 X
Track quality 100.0 %
Test CRC 8E8DC4F5
Copy CRC 8E8DC4F5
Copy OK

Track 9

Filename c:\Ultravox - Return To Eden (CD1) (2010) [FLAC]\09 - Lament (Live).wav

Pre-gap length 0:00:00.09

Peak level 99.9 %
Extraction speed 4.0 X
Track quality 100.0 %
Test CRC 1C88B5F1
Copy CRC 1C88B5F1
Copy OK

No errors occurred

End of status report

==== Log checksum A9D16D7786C47B097AD0F7E13A757010AF0961332E6B80177DF0E9D8C1C8DF1F ====

Exact Audio Copy V1.0 beta 3 from 29. August 2011

EAC extraction logfile from 9. February 2012, 21:35

Ultravox / Return To Eden (CD2)

Used drive : HL-DT-STDVDRAM GSA-H60N Adapter: 4 ID: 0

Read mode : Secure
Utilize accurate stream : Yes
Defeat audio cache : Yes
Make use of C2 pointers : No

Read offset correction : 667
Overread into Lead-In and Lead-Out : No
Fill up missing offset samples with silence : Yes
Delete leading and trailing silent blocks : No
Null samples used in CRC calculations : Yes
Used interface : Native Win32 interface for Win NT & 2000
Gap handling : Appended to previous track

Used output format : User Defined Encoder
Selected bitrate : 1024 kBit/s
Quality : High
Add ID3 tag : No
Command line compressor : C:\Program Files (x86)\Exact Audio Copy\Flac\flac.exe
Additional command line options : -8 -V -T "ARTIST=%artist%" -T "TITLE=%title%" -T "ALBUM=%albumtitle%" -T "DATE=%year%" -T "TRACKNUMBER=%tracknr%" -T "GENRE=%genre%" -T "PERFORMER=%albuminterpret%" -T "COMPOSER=%composer%" %haslyrics%–tag-from-file=LYRICS="%lyricsfile%"%haslyrics% -T "ALBUMARTIST=%albumartist%" -T "DISCNUMBER=%cdnumber%" -T "TOTALDISCS=%totalcds%" -T "TOTALTRACKS=%numtracks%" -T "COMMENT=EAC V1.0 beta 3, Secure Mode, Test & Copy, FLAC -8%comment%" %source% -o %dest%


TOC of the extracted CD

Track | Start | Length | Start sector | End sector
––––––––––––––––––––––––––––-
1 | 0:00.00 | 4:48.62 | 0 | 21661
2 | 4:48.62 | 4:44.16 | 21662 | 42977
3 | 9:33.03 | 5:42.23 | 42978 | 68650
4 | 15:15.26 | 5:21.50 | 68651 | 92775
5 | 20:37.01 | 4:33.35 | 92776 | 113285
6 | 25:10.36 | 5:29.48 | 113286 | 138008
7 | 30:40.09 | 7:41.71 | 138009 | 172654
8 | 38:22.05 | 3:52.01 | 172655 | 190055
9 | 42:14.06 | 7:24.17 | 190056 | 223372


Track 1

Filename c:\Ultravox - Return To Eden (CD2) (2010) [FLAC]\01 - One Small Day.wav

Pre-gap length 0:00:02.00

Peak level 99.9 %
Extraction speed 4.1 X
Track quality 100.0 %
Test CRC 4758ECD7
Copy CRC 4758ECD7
Copy OK

Track 2

Filename c:\Ultravox - Return To Eden (CD2) (2010) [FLAC]\02 - All Stood Still.wav

Peak level 99.9 %
Extraction speed 4.0 X
Track quality 100.0 %
Test CRC B8F424C6
Copy CRC B8F424C6
Copy OK

Track 3

Filename c:\Ultravox - Return To Eden (CD2) (2010) [FLAC]\03 - Your Name (Has Slipped My Mind).wav

Pre-gap length 0:00:00.04

Peak level 99.4 %
Extraction speed 4.3 X
Track quality 100.0 %
Test CRC 3238832F
Copy CRC 3238832F
Copy OK

Track 4

Filename c:\Ultravox - Return To Eden (CD2) (2010) [FLAC]\04 - Vienna.wav

Pre-gap length 0:00:00.12

Peak level 99.9 %
Extraction speed 4.1 X
Track quality 100.0 %
Test CRC 0E35D4D2
Copy CRC 0E35D4D2
Copy OK

Track 5

Filename c:\Ultravox - Return To Eden (CD2) (2010) [FLAC]\05 - Reap The Wild Wind.wav

Pre-gap length 0:00:00.12

Peak level 99.9 %
Extraction speed 4.4 X
Track quality 100.0 %
Test CRC 65DCDFC6
Copy CRC 65DCDFC6
Copy OK

Track 6

Filename c:\Ultravox - Return To Eden (CD2) (2010) [FLAC]\06 - Dancing With Tears In My Eyes.wav

Pre-gap length 0:00:00.04

Peak level 99.9 %
Extraction speed 4.2 X
Track quality 100.0 %
Test CRC ECF39C28
Copy CRC ECF39C28
Copy OK

Track 7

Filename c:\Ultravox - Return To Eden (CD2) (2010) [FLAC]\07 - Hymn.wav

Peak level 99.9 %
Extraction speed 4.3 X
Track quality 100.0 %
Test CRC 222759CB
Copy CRC 222759CB
Copy OK

Track 8

Filename c:\Ultravox - Return To Eden (CD2) (2010) [FLAC]\08 - Sleepwalk.wav

Peak level 99.9 %
Extraction speed 4.2 X
Track quality 100.0 %
Test CRC F1A6A137
Copy CRC F1A6A137
Copy OK

Track 9

Filename c:\Ultravox - Return To Eden (CD2) (2010) [FLAC]\09 - The Voice.wav

Pre-gap length 0:00:00.01

Peak level 99.9 %
Extraction speed 4.4 X
Track quality 100.0 %
Test CRC FD50BCC7
Copy CRC FD50BCC7
Copy OK

No errors occurred

End of status report

==== Log checksum 18B39D4465869CFCD459AA8A5C866C58A45DB8DB9FC515AA3AF1E97B3E486AF3 ====


Ultravox - Return To Eden (2010 UK Deluxe Edition) [2CD+DVD] {Chrysalis}

Ultravox - Return To Eden (2010 UK Deluxe Edition) [2CD+DVD] {Chrysalis}

Ultravox - Return To Eden (2010 UK Deluxe Edition) [2CD+DVD] {Chrysalis}

Ultravox - Return To Eden (2010 UK Deluxe Edition) [2CD+DVD] {Chrysalis}

Ultravox - Return To Eden (2010 UK Deluxe Edition) [2CD+DVD] {Chrysalis}

Ultravox - Return To Eden (2010 UK Deluxe Edition) [2CD+DVD] {Chrysalis}


Thanks to Igor_O25 & agnus!