Subcategories

V.A. - Bar Lounge Classics - Late Night Edition (3CD)

Posted By: FLESH
V.A. - Bar Lounge Classics - Late Night Edition (3CD)

V.A. - Bar Lounge Classics - Late Night Edition (3CD)
Electronic, Downtempo, Chillout, Lounge
FLAC+cue+log | 1.4 Gb | MP3, 192 Kbps | 316.1 Mb | Covers
Label: Sony Music | Catalog#: 88697374002 | Country: EU | Released: 2009

Tracklisting:
CD1:
01. Nightmares On Wax — Calling
02. Blank & Jones with Vanessa Daou — Heart Of Wax
03. Karen Gibson Roc — Painted Room
04. Tafubar — The Man Who Had Bad Dreams
05. Homme Beige — June
06. Groove Armada — Dusk You & Me
07. Bliss — Positive Reaction
08. Northbound — Dawn Stroll
09. Gxr — Groove Diving
10. Stardelay — Earthlight
11. Gabriel Le Mar feat. Catenia Quentin — Welcome To Dreamland
12. M.Age.Project — Distant Disturbance
13. Beese & Brtschitsch — My Attitude
14. Marga Sol — Poison & Passion
15. Slackwax — Nightout
16. Mystefy — Stardust I Keep

CD2:
01. Pit Baumgarten — Virgin Forest
02. Clelia Felix — Under The Moonlight
03. Unit Blue — Deejays Feel
04. Leftfield — A Final Hit
05. Musetta — Red Star
06. JetTricks — Love Hangover
07. GreenLab — Virtual Mandala
08. Living Room — Brasilian Flair
09. Barrio Jazz Gang — Linda Cancao
10. Natalia Clavier — Dormida
11. Asheni — Easy Come
12. SoulChillaz — La Musica
13. uNN — Escape The Time
14. Under Pressure — Wanna Talk
15. Sabo & Zeb — Con Chill
16. Lira — Feel Good
17. Marbert Rocel — The Harder They Come

CD3:
01. Cesar Martinez Ensemble — Contigo
02. Christian Hornbostel — Waiting At Potsdamer Chaussee
03. Don Gorda Project — Daydreaming
04. Premasara Council — Song Of The Self (Part 2)
05. Blue Wave — Blue Wave
06. Don Gorda & The Sura Quintet — (Theme From) I Remember
07. Enrico Donner — On The Lake
08. Christian Hornbostel — A Vineyard In The Desert
09. The Sura Quintet — Ultima Noite De Verao
10. Cane Garden Quartet — Into The Green
11. The Dream Catchers — Flower Of Spring
12. Proxy Brides — Everything
13. Suntheca Productions — Kiss Of Life
14. Christian Hornbostel — Love Supreme

Exact Audio Copy V0.99 prebeta 4 from 23. January 2008

EAC extraction logfile from 31. March 2009, 1:20

Various / Bar Lounge Classics - Late Night Edition - CD1

Used drive : PIONEER DVD-RW DVR-112D Adapter: 1 ID: 0

Read mode : Secure
Utilize accurate stream : Yes
Defeat audio cache : Yes
Make use of C2 pointers : No

Read offset correction : 48
Overread into Lead-In and Lead-Out : No
Fill up missing offset samples with silence : Yes
Delete leading and trailing silent blocks : No
Null samples used in CRC calculations : Yes
Used interface : Installed external ASPI interface

Used output format : User Defined Encoder
Selected bitrate : 192 kBit/s
Quality : Low
Add ID3 tag : Yes
Command line compressor : C:\Program Files\E A C Audio\Flac\flac.exe
Additional command line options : -V -8 -T "artist=%a" -T "title=%t" -T "album=%g" -T "date=%y" -T "tracknumber=%n" -T "genre=%m" %s


TOC of the extracted CD

Track | Start | Length | Start sector | End sector
––––––––––––––––––––––––––––-
1 | 0:00.00 | 7:42.39 | 0 | 34688
2 | 7:42.39 | 4:42.30 | 34689 | 55868
3 | 12:24.69 | 4:06.00 | 55869 | 74318
4 | 16:30.69 | 3:54.08 | 74319 | 91876
5 | 20:25.02 | 6:56.27 | 91877 | 123103
6 | 27:21.29 | 5:35.36 | 123104 | 148264
7 | 32:56.65 | 3:51.12 | 148265 | 165601
8 | 36:48.02 | 5:17.40 | 165602 | 189416
9 | 42:05.42 | 4:53.32 | 189417 | 211423
10 | 46:58.74 | 2:56.00 | 211424 | 224623
11 | 49:54.74 | 4:02.50 | 224624 | 242823
12 | 53:57.49 | 4:51.36 | 242824 | 264684
13 | 58:49.10 | 4:35.03 | 264685 | 285312
14 | 63:24.13 | 4:58.33 | 285313 | 307695
15 | 68:22.46 | 5:21.25 | 307696 | 331795
16 | 73:43.71 | 5:03.19 | 331796 | 354539


Range status and errors

Selected range

Filename G:\lossless-room.nnm.ru\Various - Bar Lounge Classics - Late Night Edition - 2009\Various - Bar Lounge Classics - Late Night Edition - CD1.wav

Peak level 99.6 %
Range quality 99.9 %
Test CRC FFA2FB8A
Copy CRC FFA2FB8A
Copy OK

No errors occurred


AccurateRip summary

Track 1 not present in database
Track 2 not present in database
Track 3 not present in database
Track 4 not present in database
Track 5 not present in database
Track 6 not present in database
Track 7 not present in database
Track 8 not present in database
Track 9 not present in database
Track 10 not present in database
Track 11 not present in database
Track 12 not present in database
Track 13 not present in database
Track 14 not present in database
Track 15 not present in database
Track 16 not present in database

None of the tracks are present in the AccurateRip database

End of status report

Exact Audio Copy V0.99 prebeta 4 from 23. January 2008

EAC extraction logfile from 31. March 2009, 1:49

Various / Bar Lounge Classics - Late Night Edition - CD2

Used drive : PIONEER DVD-RW DVR-112D Adapter: 1 ID: 0

Read mode : Secure
Utilize accurate stream : Yes
Defeat audio cache : Yes
Make use of C2 pointers : No

Read offset correction : 48
Overread into Lead-In and Lead-Out : No
Fill up missing offset samples with silence : Yes
Delete leading and trailing silent blocks : No
Null samples used in CRC calculations : Yes
Used interface : Installed external ASPI interface

Used output format : User Defined Encoder
Selected bitrate : 192 kBit/s
Quality : Low
Add ID3 tag : Yes
Command line compressor : C:\Program Files\E A C Audio\Flac\flac.exe
Additional command line options : -V -8 -T "artist=%a" -T "title=%t" -T "album=%g" -T "date=%y" -T "tracknumber=%n" -T "genre=%m" %s


TOC of the extracted CD

Track | Start | Length | Start sector | End sector
––––––––––––––––––––––––––––-
1 | 0:00.00 | 4:00.48 | 0 | 18047
2 | 4:00.48 | 4:32.45 | 18048 | 38492
3 | 8:33.18 | 4:22.16 | 38493 | 58158
4 | 12:55.34 | 3:09.21 | 58159 | 72354
5 | 16:04.55 | 3:21.07 | 72355 | 87436
6 | 19:25.62 | 5:45.70 | 87437 | 113381
7 | 25:11.57 | 4:30.43 | 113382 | 133674
8 | 29:42.25 | 3:27.66 | 133675 | 149265
9 | 33:10.16 | 4:01.73 | 149266 | 167413
10 | 37:12.14 | 3:20.11 | 167414 | 182424
11 | 40:32.25 | 5:11.32 | 182425 | 205781
12 | 45:43.57 | 4:15.16 | 205782 | 224922
13 | 49:58.73 | 5:45.01 | 224923 | 250798
14 | 55:43.74 | 5:45.08 | 250799 | 276681
15 | 61:29.07 | 5:37.40 | 276682 | 301996
16 | 67:06.47 | 5:05.74 | 301997 | 324945
17 | 72:12.46 | 6:22.49 | 324946 | 353644


Range status and errors

Selected range

Filename G:\lossless-room.nnm.ru\Various - Bar Lounge Classics - Late Night Edition - 2009\Various - Bar Lounge Classics - Late Night Edition - CD2.wav

Peak level 100.0 %
Range quality 99.9 %
Test CRC 63EF67D4
Copy CRC 63EF67D4
Copy OK

No errors occurred


AccurateRip summary

Track 1 not present in database
Track 2 not present in database
Track 3 not present in database
Track 4 not present in database
Track 5 not present in database
Track 6 not present in database
Track 7 not present in database
Track 8 not present in database
Track 9 not present in database
Track 10 not present in database
Track 11 not present in database
Track 12 not present in database
Track 13 not present in database
Track 14 not present in database
Track 15 not present in database
Track 16 not present in database
Track 17 not present in database

None of the tracks are present in the AccurateRip database

End of status report

Exact Audio Copy V0.99 prebeta 4 from 23. January 2008

EAC extraction logfile from 31. March 2009, 9:15

Various / Bar Lounge Classics - Late Night Edition - CD3

Used drive : PIONEER DVD-RW DVR-112D Adapter: 1 ID: 0

Read mode : Secure
Utilize accurate stream : Yes
Defeat audio cache : Yes
Make use of C2 pointers : No

Read offset correction : 48
Overread into Lead-In and Lead-Out : No
Fill up missing offset samples with silence : Yes
Delete leading and trailing silent blocks : No
Null samples used in CRC calculations : Yes
Used interface : Installed external ASPI interface

Used output format : User Defined Encoder
Selected bitrate : 192 kBit/s
Quality : Low
Add ID3 tag : Yes
Command line compressor : C:\Program Files\E A C Audio\Flac\flac.exe
Additional command line options : -V -8 -T "artist=%a" -T "title=%t" -T "album=%g" -T "date=%y" -T "tracknumber=%n" -T "genre=%m" %s


TOC of the extracted CD

Track | Start | Length | Start sector | End sector
––––––––––––––––––––––––––––-
1 | 0:00.00 | 5:37.27 | 0 | 25301
2 | 5:37.27 | 5:37.08 | 25302 | 50584
3 | 11:14.35 | 5:52.04 | 50585 | 76988
4 | 17:06.39 | 5:04.61 | 76989 | 99849
5 | 22:11.25 | 5:54.56 | 99850 | 126455
6 | 28:06.06 | 6:24.42 | 126456 | 155297
7 | 34:30.48 | 5:08.13 | 155298 | 178410
8 | 39:38.61 | 4:40.00 | 178411 | 199410
9 | 44:18.61 | 5:52.14 | 199411 | 225824
10 | 50:11.00 | 5:09.19 | 225825 | 249018
11 | 55:20.19 | 6:08.33 | 249019 | 276651
12 | 61:28.52 | 4:39.61 | 276652 | 297637
13 | 66:08.38 | 4:24.04 | 297638 | 317441
14 | 70:32.42 | 4:19.47 | 317442 | 336913


Range status and errors

Selected range

Filename G:\lossless-room.nnm.ru\Various - Bar Lounge Classics - Late Night Edition - 2009\Various - Bar Lounge Classics - Late Night Edition - CD3\Various - Bar Lounge Classics - Late Night Edition - CD3.wav

Peak level 99.8 %
Range quality 99.9 %
Test CRC C59F614E
Copy CRC C59F614E
Copy OK

No errors occurred


AccurateRip summary

Track 1 not present in database
Track 2 not present in database
Track 3 not present in database
Track 4 not present in database
Track 5 not present in database
Track 6 not present in database
Track 7 not present in database
Track 8 not present in database
Track 9 not present in database
Track 10 not present in database
Track 11 not present in database
Track 12 not present in database
Track 13 not present in database
Track 14 not present in database

None of the tracks are present in the AccurateRip database

End of status report


lossless
Скачать с RapidShare
CD1
Part 1 | Part 2 | Part 3 | Part 4 | Part 5
CD2
Part 1 | Part 2 | Part 3 | Part 4 | Part 5 | Part 6
CD3
Part 1 | Part 2 | Part 3 | Part 4 | Part 5

MP3
Скачать с RapidShare
CD1
Part 1 | Part 2
CD2
Part 1 | Part 2
CD3
Part 1 | Part 2

Covers
Covers

Folder1 Music RapidShare
Folder2 Music RapidShare

Welcome to my Blog