Tags
Language
Tags

VA - Corsu - Mezu Mezu (2015)

Posted By: aasana
VA - Corsu - Mezu Mezu (2015)

Various Artists - Corsu - Mezu Mezu (2015)
EAC Rip | FLAC (tracks+.cue+.log) | 1:02:47 | 399 MB
Chanson française | Label: Sony Music Entertainment

Corsu Mezu Mezu est un album de reprises de chansons corses sorti le 25 septembre 2015.

Patrick Fiori est à l'initiative de ce projet. C'est grâce à sa mère corse qu'il découvre le répertoire de chants traditionnels. Il réunit 30 artistes corses et continentaux lors de 16 duos en langue corse.

En juillet 2015, le titre Corsica interprété par Patrick Fiori et Patrick Bruel est extrait de l'album. Un clip est tourné à Carchetu ė Brusticu, dans la vallée de l'Orezza, sous la direction de Carole Mathieu-Castelli.

Dès sa sortie, l'album est n°1 des ventes. Il se vend à 300 000 exemplaires.

Tracklist:
0:44 | 01. Antoine Ciosi - Introduction
3:57 | 02. Patrick Fiori & Patrick Bruel - Corsica
2:57 | 03. Petru Santu Guelfucci & Maxime Le Forestier - Versu Té
0:24 | 04. Antoine Ciosi - Interlude Le Prisonnier
2:40 | 05. Christophe Mondoloni & Bénabar - Le Prisonnier
4:15 | 06. Jean-Charles papi & Les Gypsies - Moru Biancu è Blù
3:43 | 07. Laurent Bruschini & Jenifer - Ricordu
0:27 | 08. Antoine Ciosi - Interlude Furtunatu
3:34 | 09. Petru Guelfucci & Francis Cabrel - Furtunatu
0:26 | 10. Antoine Ciosi - Interlude Sintineddi
4:07 | 11. A Filetta & Grand Corps Malade - Sintineddi
3:34 | 12. Chjami Aghjalisi & Patrick Fiori - Ci Hè Dinù
0:38 | 13. Antoine Ciosi - Interlude Solenzara
2:36 | 14. Francine Massiani & Louis Bertignac - Solenzara
0:33 | 15. Antoine Ciosi - Interlude Ti Tengu Cara
3:49 | 16. Jean-Pierre Marcellesi & Claire keim - Ti Tengu Cara
3:59 | 17. Jean Meconi & Enrico Macias - Amareni
0:27 | 18. Antoine Ciosi - Interlude A l'Altru Mondu
3:48 | 19. Maï Pesce & Maurane - A l'Altru Mondu
4:09 | 20. Sutghjenti & Michel Fugain - Sinfunia Nustrale
3:06 | 21. Antoine Ciosi & Patrick Fiori - Ô Corse Ile d'Amour
4:03 | 22. Arapa & Anne Etchegoyen - Quand Je Reviens Ici
0:52 | 23. Antoine Ciosi - Interlude Diù Vi Salvi Regina
3:58 | 24. Isulatine, Ziteddi In Cantu & Le Choeur De La Corse - Diù Vi Salvi Regina

Exact Audio Copy V1.3 from 2. September 2016

EAC extraction logfile from 30. December 2018, 23:34

Various Artists / Corsu - Mezu Mezu

Used drive : HL-DT-STDVDRAM GH24NSC0 Adapter: 1 ID: 0

Read mode : Secure
Utilize accurate stream : Yes
Defeat audio cache : Yes
Make use of C2 pointers : No

Read offset correction : 6
Overread into Lead-In and Lead-Out : No
Fill up missing offset samples with silence : Yes
Delete leading and trailing silent blocks : No
Null samples used in CRC calculations : Yes
Used interface : Native Win32 interface for Win NT & 2000
Gap handling : Appended to previous track

Used output format : User Defined Encoder
Selected bitrate : 1024 kBit/s
Quality : High
Add ID3 tag : No
Command line compressor : C:\Program Files (x86)\Exact Audio Copy\FLAC\FLAC.EXE
Additional command line options : -8 -V -T "ARTIST=%artist%" -T "TITLE=%title%" -T "ALBUM=%albumtitle%" -T "DATE=%year%" -T "TRACKNUMBER=%tracknr%" -T "GENRE=%genre%" -T "PERFORMER=%albuminterpret%" -T "COMPOSER=%composer%" %haslyrics%–tag-from-file=LYRICS="%lyricsfile%"%haslyrics% -T "ALBUMARTIST=%albumartist%" -T "DISCNUMBER=%cdnumber%" -T "TOTALDISCS=%totalcds%" -T "TOTALTRACKS=%numtracks%" -T "COMMENT=%comment%" %source% -o %dest%


TOC of the extracted CD

Track | Start | Length | Start sector | End sector
––––––––––––––––––––––––––––-
1 | 0:00.00 | 0:44.02 | 0 | 3301
2 | 0:44.02 | 3:57.00 | 3302 | 21076
3 | 4:41.02 | 2:57.35 | 21077 | 34386
4 | 7:38.37 | 0:24.18 | 34387 | 36204
5 | 8:02.55 | 2:39.66 | 36205 | 48195
6 | 10:42.46 | 4:15.30 | 48196 | 67350
7 | 14:58.01 | 3:43.05 | 67351 | 84080
8 | 18:41.06 | 0:26.63 | 84081 | 86093
9 | 19:07.69 | 3:34.14 | 86094 | 102157
10 | 22:42.08 | 0:26.18 | 102158 | 104125
11 | 23:08.26 | 4:06.52 | 104126 | 122627
12 | 27:15.03 | 3:33.47 | 122628 | 138649
13 | 30:48.50 | 0:38.03 | 138650 | 141502
14 | 31:26.53 | 2:36.20 | 141503 | 153222
15 | 34:02.73 | 0:32.38 | 153223 | 155660
16 | 34:35.36 | 3:49.19 | 155661 | 172854
17 | 38:24.55 | 3:58.41 | 172855 | 190745
18 | 42:23.21 | 0:27.14 | 190746 | 192784
19 | 42:50.35 | 3:48.34 | 192785 | 209918
20 | 46:38.69 | 4:08.65 | 209919 | 228583
21 | 50:47.59 | 3:06.23 | 228584 | 242556
22 | 53:54.07 | 4:03.34 | 242557 | 260815
23 | 57:57.41 | 0:52.17 | 260816 | 264732
24 | 58:49.58 | 3:57.57 | 264733 | 282564


Track 1

Filename C:\EAC Rips\01 - Antoine Ciosi - Introduction.wav

Pre-gap length 0:00:02.00

Peak level 98.6 %
Extraction speed 0.6 X
Track quality 100.0 %
Test CRC E59EC380
Copy CRC E59EC380
Accurately ripped (confidence 7) [D51261F6] (AR v2)
Copy OK

Track 2

Filename C:\EAC Rips\02 - Patrick Fiori & Patrick Bruel - Corsica.wav

Peak level 100.0 %
Extraction speed 1.0 X
Track quality 100.0 %
Test CRC B74E15D4
Copy CRC B74E15D4
Accurately ripped (confidence 7) [BE18C2D6] (AR v2)
Copy OK

Track 3

Filename C:\EAC Rips\03 - Petru Santu Guelfucci & Maxime Le Forestier - Versu Té.wav

Peak level 100.0 %
Extraction speed 1.1 X
Track quality 100.0 %
Test CRC 86A7DAC7
Copy CRC 86A7DAC7
Accurately ripped (confidence 7) [7D3BF58E] (AR v2)
Copy OK

Track 4

Filename C:\EAC Rips\04 - Antoine Ciosi - Interlude Le Prisonnier.wav

Peak level 97.6 %
Extraction speed 0.3 X
Track quality 99.5 %
Test CRC 966DCC2E
Copy CRC 966DCC2E
Accurately ripped (confidence 7) [8430209C] (AR v2)
Copy OK

Track 5

Filename C:\EAC Rips\05 - Christophe Mondoloni & Bénabar - Le Prisonnier.wav

Peak level 100.0 %
Extraction speed 1.1 X
Track quality 100.0 %
Test CRC 781B06FB
Copy CRC 781B06FB
Accurately ripped (confidence 7) [D2673DAC] (AR v2)
Copy OK

Track 6

Filename C:\EAC Rips\06 - Jean-Charles papi & Les Gypsies - Moru Biancu è Blù.wav

Peak level 100.0 %
Extraction speed 1.3 X
Track quality 100.0 %
Test CRC C4CFEFCA
Copy CRC C4CFEFCA
Accurately ripped (confidence 7) [E06C2B9B] (AR v2)
Copy OK

Track 7

Filename C:\EAC Rips\07 - Laurent Bruschini & Jenifer - Ricordu.wav

Pre-gap length 0:00:01.81

Peak level 100.0 %
Extraction speed 1.2 X
Track quality 99.9 %
Test CRC 90C9199E
Copy CRC 90C9199E
Accurately ripped (confidence 7) [45DE4C98] (AR v2)
Copy OK

Track 8

Filename C:\EAC Rips\08 - Antoine Ciosi - Interlude Furtunatu.wav

Peak level 98.8 %
Extraction speed 0.7 X
Track quality 100.0 %
Test CRC 6884F81B
Copy CRC 6884F81B
Accurately ripped (confidence 7) [FFC5A502] (AR v2)
Copy OK

Track 9

Filename C:\EAC Rips\09 - Petru Guelfucci & Francis Cabrel - Furtunatu.wav

Peak level 100.0 %
Extraction speed 1.5 X
Track quality 100.0 %
Test CRC 7643ABA1
Copy CRC 7643ABA1
Accurately ripped (confidence 7) [8FE439DD] (AR v2)
Copy OK

Track 10

Filename C:\EAC Rips\10 - Antoine Ciosi - Interlude Sintineddi.wav

Peak level 87.2 %
Extraction speed 0.4 X
Track quality 99.5 %
Test CRC 562E25BE
Copy CRC 562E25BE
Accurately ripped (confidence 7) [B870047C] (AR v2)
Copy OK

Track 11

Filename C:\EAC Rips\11 - A Filetta & Grand Corps Malade - Sintineddi.wav

Peak level 100.0 %
Extraction speed 1.6 X
Track quality 100.0 %
Test CRC C27B8C59
Copy CRC C27B8C59
Accurately ripped (confidence 7) [37F7B6BC] (AR v2)
Copy OK

Track 12

Filename C:\EAC Rips\12 - Chjami Aghjalisi & Patrick Fiori - Ci Hè Dinù.wav

Pre-gap length 0:00:03.54

Peak level 100.0 %
Extraction speed 1.6 X
Track quality 100.0 %
Test CRC F27BDA85
Copy CRC F27BDA85
Accurately ripped (confidence 7) [D79147A4] (AR v2)
Copy OK

Track 13

Filename C:\EAC Rips\13 - Antoine Ciosi - Interlude Solenzara.wav

Peak level 100.0 %
Extraction speed 1.0 X
Track quality 100.0 %
Test CRC E832EBDA
Copy CRC E832EBDA
Accurately ripped (confidence 7) [2467CEEC] (AR v2)
Copy OK

Track 14

Filename C:\EAC Rips\14 - Francine Massiani & Louis Bertignac - Solenzara.wav

Peak level 100.0 %
Extraction speed 1.6 X
Track quality 100.0 %
Test CRC 0EE3A86D
Copy CRC 0EE3A86D
Accurately ripped (confidence 7) [2CBD91DB] (AR v2)
Copy OK

Track 15

Filename C:\EAC Rips\15 - Antoine Ciosi - Interlude Ti Tengu Cara.wav

Peak level 100.0 %
Extraction speed 0.6 X
Track quality 99.6 %
Test CRC 67C0FB9F
Copy CRC 67C0FB9F
Accurately ripped (confidence 7) [34D1EB24] (AR v2)
Copy OK

Track 16

Filename C:\EAC Rips\16 - Jean-Pierre Marcellesi & Claire keim - Ti Tengu Cara.wav

Peak level 74.8 %
Extraction speed 1.8 X
Track quality 100.0 %
Test CRC B6937CB0
Copy CRC B6937CB0
Accurately ripped (confidence 7) [FC7CEB54] (AR v2)
Copy OK

Track 17

Filename C:\EAC Rips\17 - Jean Meconi & Enrico Macias - Amareni.wav

Pre-gap length 0:00:01.05

Peak level 100.0 %
Extraction speed 1.8 X
Track quality 100.0 %
Test CRC 88BD2643
Copy CRC 88BD2643
Accurately ripped (confidence 7) [FE247E71] (AR v2)
Copy OK

Track 18

Filename C:\EAC Rips\18 - Antoine Ciosi - Interlude A l'Altru Mondu.wav

Peak level 100.0 %
Extraction speed 0.6 X
Track quality 99.6 %
Test CRC 78217C33
Copy CRC 78217C33
Accurately ripped (confidence 7) [558C1D59] (AR v2)
Copy OK

Track 19

Filename C:\EAC Rips\19 - Maï Pesce & Maurane - A l'Altru Mondu.wav

Pre-gap length 0:00:01.06

Peak level 99.7 %
Extraction speed 1.9 X
Track quality 100.0 %
Test CRC 957998CF
Copy CRC 957998CF
Accurately ripped (confidence 7) [1752A314] (AR v2)
Copy OK

Track 20

Filename C:\EAC Rips\20 - Sutghjenti & Michel Fugain - Sinfunia Nustrale.wav

Peak level 100.0 %
Extraction speed 2.0 X
Track quality 100.0 %
Test CRC C85837E4
Copy CRC C85837E4
Accurately ripped (confidence 7) [177A8A96] (AR v2)
Copy OK

Track 21

Filename C:\EAC Rips\21 - Antoine Ciosi & Patrick Fiori - Ô Corse Ile d'Amour.wav

Peak level 98.8 %
Extraction speed 1.9 X
Track quality 100.0 %
Test CRC 0F2AD06C
Copy CRC 0F2AD06C
Accurately ripped (confidence 7) [362BFB81] (AR v2)
Copy OK

Track 22

Filename C:\EAC Rips\22 - Arapa & Anne Etchegoyen - Quand Je Reviens Ici.wav

Peak level 100.0 %
Extraction speed 2.1 X
Track quality 100.0 %
Test CRC 7F1A4842
Copy CRC 7F1A4842
Accurately ripped (confidence 7) [D232A59E] (AR v2)
Copy OK

Track 23

Filename C:\EAC Rips\23 - Antoine Ciosi - Interlude Diù Vi Salvi Regina.wav

Pre-gap length 0:00:00.93

Peak level 100.0 %
Extraction speed 1.4 X
Track quality 100.0 %
Test CRC C5AB4656
Copy CRC C5AB4656
Accurately ripped (confidence 7) [ADCF9913] (AR v2)
Copy OK

Track 24

Filename C:\EAC Rips\24 - Isulatine, Ziteddi In Cantu & Le Choeur De La Corse - Diù Vi Salvi Regina.wav

Peak level 99.1 %
Extraction speed 2.1 X
Track quality 100.0 %
Test CRC B00CAF70
Copy CRC B00CAF70
Accurately ripped (confidence 7) [E03D5D92] (AR v2)
Copy OK


All tracks accurately ripped

No errors occurred

End of status report

–– CUETools DB Plugin V2.1.6

[CTDB TOCID: 2qf8ytp5MFDipxYNvY4lG9QQOmo-] found
Submit result: 2qf8ytp5MFDipxYNvY4lG9QQOmo- has been confirmed
Track | CTDB Status
1 | (66/68) Accurately ripped
2 | (67/68) Accurately ripped
3 | (67/68) Accurately ripped
4 | (67/68) Accurately ripped
5 | (67/68) Accurately ripped
6 | (67/68) Accurately ripped
7 | (67/68) Accurately ripped
8 | (67/68) Accurately ripped
9 | (67/68) Accurately ripped
10 | (67/68) Accurately ripped
11 | (67/68) Accurately ripped
12 | (67/68) Accurately ripped
13 | (67/68) Accurately ripped
14 | (67/68) Accurately ripped
15 | (67/68) Accurately ripped
16 | (67/68) Accurately ripped
17 | (67/68) Accurately ripped
18 | (67/68) Accurately ripped
19 | (67/68) Accurately ripped
20 | (67/68) Accurately ripped
21 | (67/68) Accurately ripped
22 | (67/68) Accurately ripped
23 | (67/68) Accurately ripped
24 | (67/68) Accurately ripped


==== Log checksum 43A009DB3C0E72FD6AC5A739EDC95EF4DC22960F5CA4F920B00642D3F14CA8AB ====