Tags
Language
Tags
May 2024
Su Mo Tu We Th Fr Sa
28 29 30 1 2 3 4
5 6 7 8 9 10 11
12 13 14 15 16 17 18
19 20 21 22 23 24 25
26 27 28 29 30 31 1

VA - Disco Deutschland Disco (Disco, Funk & Philly Anthems From Germany 1975-1980) (2007) Lossless

Posted By: Mocha
VA - Disco Deutschland Disco (Disco, Funk & Philly Anthems From Germany 1975-1980) (2007) Lossless

VA - Disco Deutschland Disco (Disco, Funk & Philly Anthems From Germany 1975-1980) (2007) Lossless
Label: Marina Records | FLAC (image+.cue,log,scans) | Time: 01:16:22 | 556,7 Mb
Genre: Soul, R&B, Funk, Disco


Tracklist

01. Su Kramer - You've Got The Power Pt.1 [0:04:06.14]
02. Supermax - Love Machine [0:08:35.53]
03. Amanda Lear - Fashion Pack (Studio 54) [0:05:11.39]
04. Marianne Rosenberg - Wieder Zusammen [0:04:27.63]
05. Alfie Khan Sound Orchestra - Illegal Toys [0:05:22.39]
06. Veronika Fischer & Band - Philodendron [0:04:16.72]
07. Berry Lipman - Sex World [0:02:26.53]
08. Munich Machine - Get On The Funk Train Pt. 1 [0:04:01.11]
09. Ambros Seelos - Gimmi More [0:03:06.34]
10. Ganymed - Dancing In A Disco [0:04:54.69]
11. James Last - I Can't Move No Mountains [0:03:23.56]
12. Silver Convention - Love In A Sleeper [0:05:34.70]
13. Christian Anders - Running Away [0:02:15.66]
14. Jackie Carter - Treat Me Like A Woman [0:03:37.23]
15. Peter Thomas Sound Orchestra - Opium [0:03:53.21]
16. Peter Herbolzheimer Rhythm Combination - Feedback Brother [0:04:00.54]
17. Carsten Bohn's Bandstand - Disco Cisco [0:04:09.20]
18. Su Kramer - You've Got The Power Pt.2 [0:02:57.28]

Exact Audio Copy V0.99 prebeta 3 from 28. July 2007

EAC extraction logfile from 26. March 2008, 16:33

V.A. / DISCO DEUTSCHLAND DISCO

Used drive : TSSTcorpCDDVDW SH-S203B Adapter: 6 ID: 0

Read mode : Secure
Utilize accurate stream : Yes
Defeat audio cache : Yes
Make use of C2 pointers : No

Read offset correction : 6
Overread into Lead-In and Lead-Out : No
Fill up missing offset samples with silence : Yes
Delete leading and trailing silent blocks : No
Null samples used in CRC calculations : Yes
Used interface : Installed external ASPI interface

Used output format : Monkey's Audio Lossless Encoder
Selected bitrate : Fast Lossless Compression
Quality : High
Add ID3 tag : No
Command line compressor : C:\Program Files\Monkey's Audio\MAC.exe
Additional command line options : -6 -V -T "ARTIST=%a" -T "TITLE=%t" -T "ALBUM=%g" -T "DATE=%y" -T "TRACKNUMBER=%n" -T "GENRE=%m" -T "COMMENT=%e" %s -o %d


TOC of the extracted CD

Track | Start | Length | Start sector | End sector
––––––––––––––––––––––––––––-
1 | 0:00.00 | 4:06.14 | 0 | 18463
2 | 4:06.14 | 8:35.53 | 18464 | 57141
3 | 12:41.67 | 5:11.39 | 57142 | 80505
4 | 17:53.31 | 4:27.63 | 80506 | 100593
5 | 22:21.19 | 5:22.39 | 100594 | 124782
6 | 27:43.58 | 4:16.72 | 124783 | 144054
7 | 32:00.55 | 2:26.53 | 144055 | 155057
8 | 34:27.33 | 4:01.11 | 155058 | 173143
9 | 38:28.44 | 3:06.34 | 173144 | 187127
10 | 41:35.03 | 4:54.69 | 187128 | 209246
11 | 46:29.72 | 3:23.56 | 209247 | 224527
12 | 49:53.53 | 5:34.70 | 224528 | 249647
13 | 55:28.48 | 2:15.66 | 249648 | 259838
14 | 57:44.39 | 3:37.23 | 259839 | 276136
15 | 61:21.62 | 3:53.21 | 276137 | 293632
16 | 65:15.08 | 4:00.54 | 293633 | 311686
17 | 69:15.62 | 4:09.20 | 311687 | 330381
18 | 73:25.07 | 2:57.28 | 330382 | 343684


Range status and errors

Selected range

Filename C:\uTorrent\CD\V.A. - DISCO DEUTSCHLAND DISCO\V.A. - DISCO DEUTSCHLAND DISCO.wav

Peak level 93.3 %
Range quality 99.9 %
Copy CRC 3A708E88
Copy OK

No errors occurred


AccurateRip summary

Track 1 not present in database
Track 2 not present in database
Track 3 not present in database
Track 4 not present in database
Track 5 not present in database
Track 6 not present in database
Track 7 not present in database
Track 8 not present in database
Track 9 not present in database
Track 10 not present in database
Track 11 not present in database
Track 12 not present in database
Track 13 not present in database
Track 14 not present in database
Track 15 not present in database
Track 16 not present in database
Track 17 not present in database
Track 18 not present in database

None of the tracks are present in the AccurateRip database

End of status report