Subcategories

VA - L'Aperitivio Italiano Style (2CD)

Posted By: FLESH
VA - L'Aperitivio Italiano Style (2CD)

VA - L'Aperitivio Italiano Style (2CD)
Electronic, Lounge, Bossa, Easy Listening
FLAC+cue+log | 0.9 Gb | MP3, 192 Kbps | 201.2 Mb | Covers
Label: Water Music Records | Catalog#: 3302 060 729 2 | Country: USA | Released: 2007

Tracklisting:
CD 1:
01. Bossa Nostra - Roxanne Nao Ligar
02. Sarah Jane Morris - Me And Mrs Jones
03. Sirius B - Things She Said Today
04. Archoiris - Horse With No Name
05. LTJ Xperience - And I Love Him (Remix)
06. Nu Braz - Donna
07. Maruca & Anastacia - Dancing Queen
08. 12 Fingers - Argomenti
09. Montefiori Cocktail - Gypsy Woman
10. Kaleidoscopiio - Madalena
11. Sepia - Last Tango In Paris
12. Voo Doo Phunk - Do It Again
13. Bass Bingo Bonegat - She's Leaving Home
14. Gazzara - Turn It On Again
15. Monsieur Blumenberg - Can't Get You Out Of My Head

CD 2:
01. Ohm Guru - Please, Please, Please, Let Me Get What I Want
02. Riovolt - It Ain't Over Till It's Over
03. Melania - Resta Cu'mme
04. Le Berry - Message In A Bottle
05. Capiozzo & Mecco - Spinning Wheel
06. Marcheselli Produzioni - Libertango
07. Arcoiris - Walk On The Wind Side
08. Black Mighty Wax - Psycho Killer
09. Pinku Vaaty - A Long Walk
10. Clan Greco - Rotation(Eric Kupper Remix)
11. Massimo Tagliata - Cera Una Volta In America
12. Maru A Rodriguez - Redemption Song
13. I-Dep - Tem Que Valer
14. Black Mighty Orchestra - Light My Fire

Exact Audio Copy V0.99 prebeta 4 from 23. January 2008

EAC extraction logfile from 27. May 2009, 12:06

Various / L'Aperitivio Italiano - CD1

Used drive : PIONEER DVD-RW DVR-112D Adapter: 1 ID: 0

Read mode : Secure
Utilize accurate stream : Yes
Defeat audio cache : Yes
Make use of C2 pointers : No

Read offset correction : 48
Overread into Lead-In and Lead-Out : No
Fill up missing offset samples with silence : Yes
Delete leading and trailing silent blocks : No
Null samples used in CRC calculations : Yes
Used interface : Installed external ASPI interface

Used output format : User Defined Encoder
Selected bitrate : 192 kBit/s
Quality : Low
Add ID3 tag : Yes
Command line compressor : C:\Program Files\E A C Audio\Flac\flac.exe
Additional command line options : -V -8 -T "artist=%a" -T "title=%t" -T "album=%g" -T "date=%y" -T "tracknumber=%n" -T "genre=%m" %s


TOC of the extracted CD

Track | Start | Length | Start sector | End sector
––––––––––––––––––––––––––––-
1 | 0:00.00 | 2:50.15 | 0 | 12764
2 | 2:50.15 | 3:28.61 | 12765 | 28425
3 | 6:19.01 | 5:04.72 | 28426 | 51297
4 | 11:23.73 | 4:47.13 | 51298 | 72835
5 | 16:11.11 | 5:47.67 | 72836 | 98927
6 | 21:59.03 | 4:55.49 | 98928 | 121101
7 | 26:54.52 | 4:56.19 | 121102 | 143320
8 | 31:50.71 | 5:30.24 | 143321 | 168094
9 | 37:21.20 | 6:59.56 | 168095 | 199575
10 | 44:21.01 | 3:38.53 | 199576 | 215978
11 | 47:59.54 | 5:46.23 | 215979 | 241951
12 | 53:46.02 | 4:40.66 | 241952 | 263017
13 | 58:26.68 | 5:54.66 | 263018 | 289633
14 | 64:21.59 | 3:54.22 | 289634 | 307205
15 | 68:16.06 | 4:28.59 | 307206 | 327364


Range status and errors

Selected range

Filename G:\www.subj.biz\Various - L'Aperitivio Italiano - 2CD\Various - L'Aperitivio Italiano - CD1\Various - L'Aperitivio Italiano - CD1.wav

Peak level 98.8 %
Range quality 99.9 %
Test CRC 48E7227C
Copy CRC 48E7227C
Copy OK

No errors occurred


AccurateRip summary

Track 1 not present in database
Track 2 not present in database
Track 3 not present in database
Track 4 not present in database
Track 5 not present in database
Track 6 not present in database
Track 7 not present in database
Track 8 not present in database
Track 9 not present in database
Track 10 not present in database
Track 11 not present in database
Track 12 not present in database
Track 13 not present in database
Track 14 not present in database
Track 15 not present in database

None of the tracks are present in the AccurateRip database

End of status report

Exact Audio Copy V0.99 prebeta 4 from 23. January 2008

EAC extraction logfile from 27. May 2009, 13:09

Various / L'Aperitivio Italiano - CD2

Used drive : PIONEER DVD-RW DVR-112D Adapter: 1 ID: 0

Read mode : Secure
Utilize accurate stream : Yes
Defeat audio cache : Yes
Make use of C2 pointers : No

Read offset correction : 48
Overread into Lead-In and Lead-Out : No
Fill up missing offset samples with silence : Yes
Delete leading and trailing silent blocks : No
Null samples used in CRC calculations : Yes
Used interface : Installed external ASPI interface

Used output format : User Defined Encoder
Selected bitrate : 192 kBit/s
Quality : Low
Add ID3 tag : Yes
Command line compressor : C:\Program Files\E A C Audio\Flac\flac.exe
Additional command line options : -V -8 -T "artist=%a" -T "title=%t" -T "album=%g" -T "date=%y" -T "tracknumber=%n" -T "genre=%m" %s


TOC of the extracted CD

Track | Start | Length | Start sector | End sector
––––––––––––––––––––––––––––-
1 | 0:00.00 | 3:34.26 | 0 | 16075
2 | 3:34.26 | 4:22.03 | 16076 | 35728
3 | 7:56.29 | 4:56.30 | 35729 | 57958
4 | 12:52.59 | 5:47.54 | 57959 | 84037
5 | 18:40.38 | 5:06.35 | 84038 | 107022
6 | 23:46.73 | 7:27.19 | 107023 | 140566
7 | 31:14.17 | 5:29.05 | 140567 | 165246
8 | 36:43.22 | 4:57.46 | 165247 | 187567
9 | 41:40.68 | 3:33.58 | 187568 | 203600
10 | 45:14.51 | 6:29.44 | 203601 | 232819
11 | 51:44.20 | 5:00.25 | 232820 | 255344
12 | 56:44.45 | 4:41.32 | 255345 | 276451
13 | 61:26.02 | 8:58.45 | 276452 | 316846
14 | 70:24.47 | 4:30.26 | 316847 | 337122


Range status and errors

Selected range

Filename G:\www.subj.biz\Various - L'Aperitivio Italiano - 2CD\Various - L'Aperitivio Italiano - CD1\Various - L'Aperitivio Italiano - CD2.wav

Peak level 98.8 %
Range quality 99.9 %
Test CRC BC331A41
Copy CRC BC331A41
Copy OK

No errors occurred


AccurateRip summary

Track 1 not present in database
Track 2 not present in database
Track 3 not present in database
Track 4 not present in database
Track 5 not present in database
Track 6 not present in database
Track 7 not present in database
Track 8 not present in database
Track 9 not present in database
Track 10 not present in database
Track 11 not present in database
Track 12 not present in database
Track 13 not present in database
Track 14 not present in database

None of the tracks are present in the AccurateRip database

End of status report


lossless
Скачать с RapidShare
CD1
Part 1 | Part 2 | Part 3 | Part 4 | Part 5 | Part 6
CD2
Part 1 | Part 2 | Part 3 | Part 4 | Part 5 | Part 6

MP3
Скачать с RapidShare
CD1
Part 1 | Part 2
CD2
Part 1 | Part 2

Covers
Covers

Folder1 Music RapidShare
Folder2 Music RapidShare

Welcome to my Blog