Subcategories

VA - Now That's What I Call Music! 98 (2017)

Posted By: barker
VA - Now That's What I Call Music! 98 (2017)

VA - Now That's What I Call Music! 98 (2017)
EAC Rip | FLAC (tracks+.cue+log) | Covers | 1.02 GB | 2:35:10
Genre: Pop | RAR 5% Rec. | Label: Sony Music

Now That's What I Call Music! 98 or Now 98 is a double-disc compilation album which was released in the United Kingdom and Ireland on 17 November 2017. It is the 98th edition of the UK Now! series and available on compact disc and from digital music retailers.



Tracklist:

Disc: 1
1. Havana - Camila Cabello feat. Young Thug
2. rockstar - Post Malone feat. 21 Savage
3. Too Good at Goodbyes - Sam Smith
4. What About Us - P!nk
5. New Rules - Dua Lipa
6. Galway Girl - Ed Sheeran
7. How Long - Charlie Puth
8. Reggaetón Lento (Remix) - CNCO & Little Mix
9. Mi Gente - J Balvin & Willy William
10. Friends - Justin Bieber & BloodPop®
11. Dusk Till Dawn - ZAYN feat. Sia
12. Swish Swish - Katy Perry feat. Nicki Minaj
13. Sorry Not Sorry - Demi Lovato
14. Hurtin' Me - Stefflon Don feat. French Montana
15. Back to You - Louis Tomlinson feat. Bebe Rexha & Digital Farm Animals
16. Young Dumb & Broke - Khalid
17. What Lovers Do - Maroon 5 feat. SZA
18. If I'm Lucky - Jason Derulo
19. I Miss You - Clean Bandit feat. Julia Michaels
20. Chasing Highs - Alma
21. Get Low - Zedd & Liam Payne
22. Boys - Charli XCX
23. Anywhere - RITA ORA

Exact Audio Copy V1.3 from 2. September 2016

EAC extraction logfile from 14. November 2017, 21:38

Various Artists / Now That's What I Call Music! 98 Disc 1

Used drive : HL-DT-STDVDRAM GP57EW40 Adapter: 1 ID: 0

Read mode : Secure
Utilize accurate stream : Yes
Defeat audio cache : Yes
Make use of C2 pointers : No

Read offset correction : 6
Overread into Lead-In and Lead-Out : No
Fill up missing offset samples with silence : Yes
Delete leading and trailing silent blocks : No
Null samples used in CRC calculations : Yes
Used interface : Native Win32 interface for Win NT & 2000
Gap handling : Appended to previous track

Used output format : User Defined Encoder
Selected bitrate : 896 kBit/s
Quality : High
Add ID3 tag : No
Command line compressor : C:\Program Files (x86)\Exact Audio Copy\Flac\flac.exe
Additional command line options : -6 -V -T "ARTIST=%artist%" -T "TITLE=%title%" -T "ALBUM=%albumtitle%" -T "DATE=%year%" -T "TRACKNUMBER=%tracknr%" -T "GENRE=%genre%" -T "COMMENT=%comment%" -T "BAND=%albuminterpret%" -T "ALBUMARTIST=%albuminterpret%" -T "COMPOSER=%composer%" %haslyrics%–tag-from-file=LYRICS="%lyricsfile%"%haslyrics% -T "DISCNUMBER=%cdnumber%" -T "TOTALDISCS=%totalcds%" -T "TOTALTRACKS=%numtracks%" %hascover%–picture="%coverfile%"%hascover% %source% -o %dest%


TOC of the extracted CD

Track | Start | Length | Start sector | End sector
––––––––––––––––––––––––––––-
1 | 0:00.00 | 2:57.60 | 0 | 13334
2 | 2:57.60 | 3:39.17 | 13335 | 29776
3 | 6:37.02 | 3:22.38 | 29777 | 44964
4 | 9:59.40 | 4:31.55 | 44965 | 65344
5 | 14:31.20 | 3:30.62 | 65345 | 81156
6 | 18:02.07 | 2:50.54 | 81157 | 93960
7 | 20:52.61 | 3:19.55 | 93961 | 108940
8 | 24:12.41 | 3:09.44 | 108941 | 123159
9 | 27:22.10 | 3:06.66 | 123160 | 137175
10 | 30:29.01 | 3:10.10 | 137176 | 151435
11 | 33:39.11 | 3:59.03 | 151436 | 169363
12 | 37:38.14 | 4:03.17 | 169364 | 187605
13 | 41:41.31 | 3:24.18 | 187606 | 202923
14 | 45:05.49 | 3:34.24 | 202924 | 218997
15 | 48:39.73 | 3:11.33 | 218998 | 233355
16 | 51:51.31 | 3:24.04 | 233356 | 248659
17 | 55:15.35 | 3:21.08 | 248660 | 263742
18 | 58:36.43 | 3:32.58 | 263743 | 279700
19 | 62:09.26 | 3:18.16 | 279701 | 294566
20 | 65:27.42 | 3:17.13 | 294567 | 309354
21 | 68:44.55 | 3:25.65 | 309355 | 324794
22 | 72:10.45 | 2:44.07 | 324795 | 337101
23 | 74:54.52 | 3:37.17 | 337102 | 353393


Track 1

Filename C:\Music\01 Havana.wav

Pre-gap length 0:00:02.00

Peak level 87.0 %
Extraction speed 1.2 X
Track quality 100.0 %
Test CRC 91355B3A
Copy CRC 91355B3A
Track not present in AccurateRip database
Copy OK

Track 2

Filename C:\Music\02 Rockstar.wav

Pre-gap length 0:00:01.19

Peak level 88.1 %
Extraction speed 1.4 X
Track quality 100.0 %
Test CRC A5433E8A
Copy CRC A5433E8A
Track not present in AccurateRip database
Copy OK

Track 3

Filename C:\Music\03 Too Good at Goodbyes.wav

Pre-gap length 0:00:01.19

Peak level 97.7 %
Extraction speed 1.2 X
Track quality 99.9 %
Test CRC 1725A732
Copy CRC 1725A732
Track not present in AccurateRip database
Copy OK

Track 4

Filename C:\Music\04 What About Us.wav

Pre-gap length 0:00:01.20

Peak level 96.6 %
Extraction speed 1.6 X
Track quality 100.0 %
Test CRC 2E8C5015
Copy CRC 2E8C5015
Track not present in AccurateRip database
Copy OK

Track 5

Filename C:\Music\05 New Rules.wav

Pre-gap length 0:00:01.19

Peak level 94.4 %
Extraction speed 1.4 X
Track quality 99.9 %
Test CRC B5263CB2
Copy CRC B5263CB2
Track not present in AccurateRip database
Copy OK

Track 6

Filename C:\Music\06 Galway Girl.wav

Pre-gap length 0:00:01.20

Peak level 97.8 %
Extraction speed 1.6 X
Track quality 100.0 %
Test CRC 2ADE66AB
Copy CRC 2ADE66AB
Track not present in AccurateRip database
Copy OK

Track 7

Filename C:\Music\07 How Long.wav

Pre-gap length 0:00:01.19

Peak level 98.7 %
Extraction speed 1.7 X
Track quality 100.0 %
Test CRC 1F6F5EB8
Copy CRC 1F6F5EB8
Track not present in AccurateRip database
Copy OK

Track 8

Filename C:\Music\08 Reggaetón Lento (Remix).wav

Pre-gap length 0:00:01.19

Peak level 95.6 %
Extraction speed 1.5 X
Track quality 99.9 %
Test CRC 114C34FF
Copy CRC 114C34FF
Track not present in AccurateRip database
Copy OK

Track 9

Filename C:\Music\09 Mi Gente.wav

Pre-gap length 0:00:01.20

Peak level 98.8 %
Extraction speed 1.6 X
Track quality 99.9 %
Test CRC 9EA0D49C
Copy CRC 9EA0D49C
Track not present in AccurateRip database
Copy OK

Track 10

Filename C:\Music\10 Friends.wav

Pre-gap length 0:00:01.19

Peak level 98.8 %
Extraction speed 1.9 X
Track quality 100.0 %
Test CRC F3B899C2
Copy CRC F3B899C2
Track not present in AccurateRip database
Copy OK

Track 11

Filename C:\Music\11 Dusk Till Daw.wav

Pre-gap length 0:00:01.20

Peak level 93.2 %
Extraction speed 1.8 X
Track quality 99.9 %
Test CRC C65A3406
Copy CRC C65A3406
Track not present in AccurateRip database
Copy OK

Track 12

Filename C:\Music\12 Swish Swish.wav

Pre-gap length 0:00:01.20

Peak level 98.8 %
Extraction speed 2.1 X
Track quality 100.0 %
Test CRC 96E307DC
Copy CRC 96E307DC
Track not present in AccurateRip database
Copy OK

Track 13

Filename C:\Music\13 Sorry Not Sorry.wav

Pre-gap length 0:00:01.19

Peak level 98.8 %
Extraction speed 2.2 X
Track quality 100.0 %
Test CRC 929A472A
Copy CRC 929A472A
Track not present in AccurateRip database
Copy OK

Track 14

Filename C:\Music\14 Hurtin' Me.wav

Pre-gap length 0:00:01.19

Peak level 97.8 %
Extraction speed 2.2 X
Track quality 100.0 %
Test CRC E644E7C1
Copy CRC E644E7C1
Track not present in AccurateRip database
Copy OK

Track 15

Filename C:\Music\15 Back to You.wav

Pre-gap length 0:00:01.20

Peak level 94.2 %
Extraction speed 2.2 X
Track quality 100.0 %
Test CRC A4FCEE1D
Copy CRC A4FCEE1D
Track not present in AccurateRip database
Copy OK

Track 16

Filename C:\Music\16 Young Dumb & Broke.wav

Pre-gap length 0:00:01.19

Peak level 97.7 %
Extraction speed 2.3 X
Track quality 100.0 %
Test CRC 2CFEE2BA
Copy CRC 2CFEE2BA
Track not present in AccurateRip database
Copy OK

Track 17

Filename C:\Music\17 What Lovers Do.wav

Pre-gap length 0:00:01.20

Peak level 95.3 %
Extraction speed 2.4 X
Track quality 100.0 %
Test CRC 93E1AC60
Copy CRC 93E1AC60
Track not present in AccurateRip database
Copy OK

Track 18

Filename C:\Music\18 If I'm Lucky.wav

Pre-gap length 0:00:01.19

Peak level 98.7 %
Extraction speed 2.5 X
Track quality 100.0 %
Test CRC 6054191E
Copy CRC 6054191E
Track not present in AccurateRip database
Copy OK

Track 19

Filename C:\Music\19 I Miss You.wav

Pre-gap length 0:00:01.19

Peak level 97.8 %
Extraction speed 2.1 X
Track quality 99.9 %
Test CRC 4C41483F
Copy CRC 4C41483F
Track not present in AccurateRip database
Copy OK

Track 20

Filename C:\Music\20 Chasing Highs.wav

Pre-gap length 0:00:01.20

Peak level 97.7 %
Extraction speed 2.2 X
Track quality 99.9 %
Test CRC 3295B459
Copy CRC 3295B459
Track not present in AccurateRip database
Copy OK

Track 21

Filename C:\Music\21 Get Low.wav

Pre-gap length 0:00:01.19

Peak level 97.7 %
Extraction speed 2.6 X
Track quality 100.0 %
Test CRC 671C1A2E
Copy CRC 671C1A2E
Track not present in AccurateRip database
Copy OK

Track 22

Filename C:\Music\22 Anywhere.wav

Pre-gap length 0:00:01.19

Peak level 100.0 %
Extraction speed 2.5 X
Track quality 100.0 %
Test CRC 3DD043DF
Copy CRC 3DD043DF
Track not present in AccurateRip database
Copy OK

Track 23

Filename C:\Music\23 Track23.wav

Pre-gap length 0:00:01.20

Peak level 92.8 %
Extraction speed 2.7 X
Track quality 100.0 %
Test CRC 6ACB724E
Copy CRC 6ACB724E
Track not present in AccurateRip database
Copy OK


None of the tracks are present in the AccurateRip database

No errors occurred

End of status report

–– CUETools DB Plugin V2.1.6

[CTDB TOCID: swb3gEMRusHyQxTaw6qwNYGKFLM-] disk not present in database
Submit result: swb3gEMRusHyQxTaw6qwNYGKFLM- has been uploaded


==== Log checksum 32F53D128531986B30EBE5786705E5BBB6A893EF06C3138F669A234BD7856EA2 ====


Disc: 2
1. Silence - Marshmello feat. Khalid
2. Lonely Together - Avicii feat. Rita Ora
3. More Than Friends - James Hype feat. Kelli-Leigh
4. Bestie - Yungen feat. Yxng Bane
5. Finders Keepers - Mabel feat. Kojo Funds
6. Questions - Chris Brown
7. Heartline - Craig David
8. Wolves - Selena Gomez feat. Marshmello
9. 17 - MK
10. More Than You Know - Axwell & Ingrosso
11. Bedroom Floor - Liam Payne
12. Real Life - Duke Dumont & Gorgon City feat. Naations
13. Cola - CamelPhat & Elderbrook
14. XO TOUR Llif3 - Lil Uzi Vert
15. Man's Not Hot - Big Shaq
16. Little Bit Leave It - Chris & Kem
17. Bodak Yellow - Cardi B
18. 1-800-273-8255 - Logic feat. Alessia Cara & Khalid
19. Crybaby - Paloma Faith
20. Rain - The Script
21. Grace (We All Try) - Rag'n'Bone Man
22. Wall of Glass - Liam Gallagher
23. The Man - The Killers

Exact Audio Copy V1.3 from 2. September 2016

EAC extraction logfile from 14. November 2017, 23:10

Various Artists / Now That's What I Call Music! 98 Disc 2

Used drive : HL-DT-STDVDRAM GP57EW40 Adapter: 1 ID: 0

Read mode : Secure
Utilize accurate stream : Yes
Defeat audio cache : Yes
Make use of C2 pointers : No

Read offset correction : 6
Overread into Lead-In and Lead-Out : No
Fill up missing offset samples with silence : Yes
Delete leading and trailing silent blocks : No
Null samples used in CRC calculations : Yes
Used interface : Native Win32 interface for Win NT & 2000
Gap handling : Appended to previous track

Used output format : User Defined Encoder
Selected bitrate : 896 kBit/s
Quality : High
Add ID3 tag : No
Command line compressor : C:\Program Files (x86)\Exact Audio Copy\Flac\flac.exe
Additional command line options : -6 -V -T "ARTIST=%artist%" -T "TITLE=%title%" -T "ALBUM=%albumtitle%" -T "DATE=%year%" -T "TRACKNUMBER=%tracknr%" -T "GENRE=%genre%" -T "COMMENT=%comment%" -T "BAND=%albuminterpret%" -T "ALBUMARTIST=%albuminterpret%" -T "COMPOSER=%composer%" %haslyrics%–tag-from-file=LYRICS="%lyricsfile%"%haslyrics% -T "DISCNUMBER=%cdnumber%" -T "TOTALDISCS=%totalcds%" -T "TOTALTRACKS=%numtracks%" %hascover%–picture="%coverfile%"%hascover% %source% -o %dest%


TOC of the extracted CD

Track | Start | Length | Start sector | End sector
––––––––––––––––––––––––––––-
1 | 0:00.00 | 3:03.16 | 0 | 13740
2 | 3:03.16 | 3:03.24 | 13741 | 27489
3 | 6:06.40 | 2:22.15 | 27490 | 38154
4 | 8:28.55 | 3:37.64 | 38155 | 54493
5 | 12:06.44 | 3:37.05 | 54494 | 70773
6 | 15:43.49 | 2:10.73 | 70774 | 80596
7 | 17:54.47 | 3:12.70 | 80597 | 95066
8 | 21:07.42 | 3:17.28 | 95067 | 109869
9 | 24:24.70 | 3:16.57 | 109870 | 124626
10 | 27:41.52 | 3:22.49 | 124627 | 139825
11 | 31:04.26 | 3:09.64 | 139826 | 154064
12 | 34:14.15 | 3:25.17 | 154065 | 169456
13 | 37:39.32 | 3:45.28 | 169457 | 186359
14 | 41:24.60 | 3:04.17 | 186360 | 200176
15 | 44:29.02 | 3:07.39 | 200177 | 214240
16 | 47:36.41 | 2:37.15 | 214241 | 226030
17 | 50:13.56 | 3:43.56 | 226031 | 242811
18 | 53:57.37 | 4:11.51 | 242812 | 261687
19 | 58:09.13 | 3:55.03 | 261688 | 279315
20 | 62:04.16 | 3:30.73 | 279316 | 295138
21 | 65:35.14 | 3:25.74 | 295139 | 310587
22 | 69:01.13 | 3:45.03 | 310588 | 327465
23 | 72:46.16 | 4:10.43 | 327466 | 346258


Track 1

Filename C:\Music\01 Silence.wav

Pre-gap length 0:00:02.00

Peak level 63.8 %
Extraction speed 1.2 X
Track quality 100.0 %
Test CRC 87371193
Copy CRC 87371193
Track not present in AccurateRip database
Copy OK

Track 2

Filename C:\Music\02 Lonely Together.wav

Pre-gap length 0:00:01.19

Peak level 85.1 %
Extraction speed 1.3 X
Track quality 100.0 %
Test CRC C08AB1D5
Copy CRC C08AB1D5
Track not present in AccurateRip database
Copy OK

Track 3

Filename C:\Music\03 More Than Friends.wav

Pre-gap length 0:00:01.20

Peak level 97.7 %
Extraction speed 1.3 X
Track quality 100.0 %
Test CRC 0C39E6BB
Copy CRC 0C39E6BB
Track not present in AccurateRip database
Copy OK

Track 4

Filename C:\Music\04 Bestie.wav

Pre-gap length 0:00:01.20

Peak level 97.7 %
Extraction speed 1.5 X
Track quality 100.0 %
Test CRC E116DB5E
Copy CRC E116DB5E
Track not present in AccurateRip database
Copy OK

Track 5

Filename C:\Music\05 Finders Keepers.wav

Pre-gap length 0:00:01.19

Peak level 98.8 %
Extraction speed 1.6 X
Track quality 100.0 %
Test CRC 78B4534A
Copy CRC 78B4534A
Track not present in AccurateRip database
Copy OK

Track 6

Filename C:\Music\06 Questions.wav

Pre-gap length 0:00:01.20

Peak level 98.7 %
Extraction speed 1.5 X
Track quality 100.0 %
Test CRC F775351A
Copy CRC F775351A
Track not present in AccurateRip database
Copy OK

Track 7

Filename C:\Music\07 Heartline.wav

Pre-gap length 0:00:01.20

Peak level 91.3 %
Extraction speed 1.7 X
Track quality 100.0 %
Test CRC 30657AAA
Copy CRC 30657AAA
Track not present in AccurateRip database
Copy OK

Track 8

Filename C:\Music\08 Wolves.wav

Pre-gap length 0:00:01.19

Peak level 97.7 %
Extraction speed 1.7 X
Track quality 100.0 %
Test CRC 79A3CAF3
Copy CRC 79A3CAF3
Track not present in AccurateRip database
Copy OK

Track 9

Filename C:\Music\09 17.wav

Pre-gap length 0:00:01.19

Peak level 97.8 %
Extraction speed 1.8 X
Track quality 100.0 %
Test CRC C2F3B9DD
Copy CRC C2F3B9DD
Track not present in AccurateRip database
Copy OK

Track 10

Filename C:\Music\10 More Than You Know.wav

Pre-gap length 0:00:01.20

Peak level 98.7 %
Extraction speed 1.9 X
Track quality 100.0 %
Test CRC B7510A2E
Copy CRC B7510A2E
Track not present in AccurateRip database
Copy OK

Track 11

Filename C:\Music\11 Bedroom Floor.wav

Pre-gap length 0:00:01.19

Peak level 88.0 %
Extraction speed 1.9 X
Track quality 100.0 %
Test CRC ACDB83AA
Copy CRC ACDB83AA
Track not present in AccurateRip database
Copy OK

Track 12

Filename C:\Music\12 Real Life.wav

Pre-gap length 0:00:01.20

Peak level 98.9 %
Extraction speed 2.0 X
Track quality 100.0 %
Test CRC ADBA92FD
Copy CRC ADBA92FD
Track not present in AccurateRip database
Copy OK

Track 13

Filename C:\Music\13 Cola.wav

Pre-gap length 0:00:01.19

Peak level 97.7 %
Extraction speed 2.1 X
Track quality 100.0 %
Test CRC 3FBF99D9
Copy CRC 3FBF99D9
Track not present in AccurateRip database
Copy OK

Track 14

Filename C:\Music\14 XO TOUR Llif3.wav

Pre-gap length 0:00:01.20

Peak level 98.7 %
Extraction speed 1.8 X
Track quality 99.9 %
Test CRC 30B0FBC7
Copy CRC 30B0FBC7
Track not present in AccurateRip database
Copy OK

Track 15

Filename C:\Music\15 Man's Not Hot.wav

Pre-gap length 0:00:01.20

Peak level 97.0 %
Extraction speed 2.2 X
Track quality 100.0 %
Test CRC 298DBFA6
Copy CRC 298DBFA6
Track not present in AccurateRip database
Copy OK

Track 16

Filename C:\Music\16 Little Bit Leave It.wav

Pre-gap length 0:00:01.19

Peak level 97.8 %
Extraction speed 2.1 X
Track quality 100.0 %
Test CRC 6E920CB4
Copy CRC 6E920CB4
Track not present in AccurateRip database
Copy OK

Track 17

Filename C:\Music\17 Bodak Yellow.wav

Pre-gap length 0:00:01.20

Peak level 98.8 %
Extraction speed 2.0 X
Track quality 99.9 %
Test CRC A88C5FF0
Copy CRC A88C5FF0
Track not present in AccurateRip database
Copy OK

Track 18

Filename C:\Music\18 1-800-273-8255.wav

Pre-gap length 0:00:01.20

Peak level 98.8 %
Extraction speed 2.1 X
Track quality 99.9 %
Test CRC C517C98B
Copy CRC C517C98B
Track not present in AccurateRip database
Copy OK

Track 19

Filename C:\Music\19 Crybaby.wav

Pre-gap length 0:00:01.20

Peak level 86.0 %
Extraction speed 2.2 X
Track quality 99.9 %
Test CRC BB079464
Copy CRC BB079464
Track not present in AccurateRip database
Copy OK

Track 20

Filename C:\Music\20 Rain.wav

Pre-gap length 0:00:01.20

Peak level 97.7 %
Extraction speed 2.5 X
Track quality 100.0 %
Test CRC D2C0CECF
Copy CRC D2C0CECF
Track not present in AccurateRip database
Copy OK

Track 21

Filename C:\Music\21 Grace (We All Try).wav

Pre-gap length 0:00:01.19

Peak level 98.8 %
Extraction speed 2.5 X
Track quality 100.0 %
Test CRC 351A25E1
Copy CRC 351A25E1
Track not present in AccurateRip database
Copy OK

Track 22

Filename C:\Music\22 Wall of Glass.wav

Pre-gap length 0:00:01.20

Peak level 95.4 %
Extraction speed 2.6 X
Track quality 100.0 %
Test CRC F0CD1950
Copy CRC F0CD1950
Track not present in AccurateRip database
Copy OK

Track 23

Filename C:\Music\23 The Man.wav

Pre-gap length 0:00:01.19

Peak level 98.8 %
Extraction speed 2.7 X
Track quality 100.0 %
Test CRC 3CE703E5
Copy CRC 3CE703E5
Track not present in AccurateRip database
Copy OK


None of the tracks are present in the AccurateRip database

No errors occurred

End of status report

–– CUETools DB Plugin V2.1.6

[CTDB TOCID: 0O0sIWkEHgBn5YI6I30c0sQ2YGA-] disk not present in database
Submit result: 0O0sIWkEHgBn5YI6I30c0sQ2YGA- has been uploaded


==== Log checksum 0CE10DDF6BEF7E8075440B7CAC6E0C74A6149642CBB704052C25281EA1B712E7 ====