VA - Crossing Jordan: Music From The NBC Television Series (2003)

Posted By: delpotro
VA - Crossing Jordan: Music From The NBC Television Series (2003)

VA - Crossing Jordan: Music From The NBC Television Series (2003)
EAC Rip | FLAC (tracks+log+.cue) | 01:04:32 | 359 Mb
Folk, Country, Singer-Songwriter, Soundtrack | Label: Columbia Records

Helmed by T-Bone Burnett and Craig Street, the soundtrack to the music-intensive TV crime drama series gets ultra-hip artists to cover songs not necessarily associated with them—all with eerie musical backgrounds that match the program's tone. Unfortunately, the intriguing concept fares better on the small screen than on the big speaker, as artists like Richard Thompson, Lucinda Williams, and Joe Henry, among others, get lost in a uniformly listless production. Exceptions are Wendy Melvoin & Lisa Coleman's original instrumental "Crossing Jordan Themes," the Holmes Brothers' take on Blind Willie Johnson's "You're Gonna Need Somebody on Your Bond," and Alison Krauss' tackling of Blind Faith's "Can't Find My Way Home." Series star Jill Hennessy debuts with Tom Waits' "You're Innocent When You Dream" and Bob Dylan's "It's all Over Now, Baby Blue" and acquits herself well enough.
Tracklist:
1. I Wanna Be Your Man - Sam Phillips
2. Days - Marc Anthony Thompson
3. Can't Find My Way Home - Alison Krauss
4. The Wind Cries Mary - Cassandra Wilson
5. Season Of The Witch - Richard Thompson
6. Hang Down Your Head - Lucinda Williams
7. You're Gonna Need Somebody On Your Bond - The Holmes Brothers
8. Buckets of Rain - Vic Chesnutt
9. You're Innocent When You Dream - Jill Hennessey
10. Pale Blue Eyes - Joe Henry
11. Trouble - The Holmes Brothers
12. It's All Over Now, Baby Blue - Jill Hennessey
13. Crossing Jordan Themes - Wendy & Lisa
14. Black Coffee - Rosemary Clooney

Exact Audio Copy V1.0 beta 3 from 29. August 2011

EAC extraction logfile from 17. October 2012, 3:53

- / Music From The NBC Television Series Crossing Jordan

Used drive : Optiarc DVD RW AD-7260S Adapter: 2 ID: 1

Read mode : Secure
Utilize accurate stream : Yes
Defeat audio cache : Yes
Make use of C2 pointers : No

Read offset correction : 48
Overread into Lead-In and Lead-Out : No
Fill up missing offset samples with silence : Yes
Delete leading and trailing silent blocks : No
Null samples used in CRC calculations : Yes
Used interface : Native Win32 interface for Win NT & 2000
Gap handling : Appended to previous track

Used output format : User Defined Encoder
Selected bitrate : 1024 kBit/s
Quality : High
Add ID3 tag : No
Command line compressor : C:\Program Files\Exact Audio Copy\Flac\flac.exe
Additional command line options : -8 -V -T "ARTIST=%artist%" -T "TITLE=%title%" -T "ALBUM=%albumtitle%" -T "DATE=%year%" -T "TRACKNUMBER=%tracknr%" -T "GENRE=%genre%" -T "PERFORMER=%albuminterpret%" -T "COMPOSER=%composer%" %haslyrics%–tag-from-file=LYRICS="%lyricsfile%"%haslyrics% -T "ALBUMARTIST=%albumartist%" -T "DISCNUMBER=%cdnumber%" -T "TOTALDISCS=%totalcds%" -T "TOTALTRACKS=%numtracks%" -T "COMMENT=%comment%" %source% -o %dest%


TOC of the extracted CD

Track | Start | Length | Start sector | End sector
––––––––––––––––––––––––––––-
1 | 0:00.00 | 4:02.15 | 0 | 18164
2 | 4:02.15 | 3:54.37 | 18165 | 35751
3 | 7:56.52 | 3:23.23 | 35752 | 50999
4 | 11:20.00 | 4:46.12 | 51000 | 72461
5 | 16:06.12 | 9:19.25 | 72462 | 114411
6 | 25:25.37 | 3:15.35 | 114412 | 129071
7 | 28:40.72 | 5:14.48 | 129072 | 152669
8 | 33:55.45 | 4:27.27 | 152670 | 172721
9 | 38:22.72 | 4:29.08 | 172722 | 192904
10 | 42:52.05 | 5:44.40 | 192905 | 218744
11 | 48:36.45 | 3:37.70 | 218745 | 235089
12 | 52:14.40 | 4:43.72 | 235090 | 256386
13 | 56:58.37 | 3:52.33 | 256387 | 273819
14 | 60:50.70 | 3:41.10 | 273820 | 290404


Track 1

Filename G:\__New\_EAC rips\VA - Crossing Jordan [sdtk] (2003) flac\01 - Sam Phillips - I Wanna Be Your Man.wav

Pre-gap length 0:00:02.00

Peak level 99.9 %
Extraction speed 2.5 X
Track quality 100.0 %
Test CRC 145CFBCD
Copy CRC 145CFBCD
Cannot be verified as accurate (confidence 8) [D7D75F05], AccurateRip returned [5547F053] (AR v2)
Copy OK

Track 2

Filename G:\__New\_EAC rips\VA - Crossing Jordan [sdtk] (2003) flac\02 - Marc Anthony Thompson - Days.wav

Pre-gap length 0:00:00.93

Peak level 99.9 %
Extraction speed 2.7 X
Track quality 100.0 %
Test CRC 54DA44F2
Copy CRC 54DA44F2
Cannot be verified as accurate (confidence 8) [0FF744EB], AccurateRip returned [F9B0D383] (AR v2)
Copy OK

Track 3

Filename G:\__New\_EAC rips\VA - Crossing Jordan [sdtk] (2003) flac\03 - Alison Krauss - Can't Find My Way Home.wav

Pre-gap length 0:00:00.66

Peak level 99.9 %
Extraction speed 2.9 X
Track quality 100.0 %
Test CRC 03B0921C
Copy CRC 03B0921C
Cannot be verified as accurate (confidence 8) [6160A91F], AccurateRip returned [6175C9F7] (AR v2)
Copy OK

Track 4

Filename G:\__New\_EAC rips\VA - Crossing Jordan [sdtk] (2003) flac\04 - Cassandra Wilson - The Wind Cries Mary.wav

Peak level 99.9 %
Extraction speed 2.9 X
Track quality 99.9 %
Test CRC FDFF9BE5
Copy CRC FDFF9BE5
Cannot be verified as accurate (confidence 8) [8479DBC0], AccurateRip returned [DC1B545F] (AR v2)
Copy OK

Track 5

Filename G:\__New\_EAC rips\VA - Crossing Jordan [sdtk] (2003) flac\05 - Richard Thompson - Season Of The Witch.wav

Peak level 99.9 %
Extraction speed 3.7 X
Track quality 100.0 %
Test CRC 9062ABAB
Copy CRC 9062ABAB
Cannot be verified as accurate (confidence 8) [079CC106], AccurateRip returned [F5456173] (AR v2)
Copy OK

Track 6

Filename G:\__New\_EAC rips\VA - Crossing Jordan [sdtk] (2003) flac\06 - Lucinda Williams - Hang Down Your Head.wav

Peak level 99.9 %
Extraction speed 3.6 X
Track quality 100.0 %
Test CRC 04BEEE97
Copy CRC 04BEEE97
Cannot be verified as accurate (confidence 8) [9C53772E], AccurateRip returned [B8B49305] (AR v2)
Copy OK

Track 7

Filename G:\__New\_EAC rips\VA - Crossing Jordan [sdtk] (2003) flac\07 - The Holmes Brothers - You're Gonna Need Somebody On Your Bond.wav

Pre-gap length 0:00:00.82

Peak level 99.9 %
Extraction speed 4.0 X
Track quality 100.0 %
Test CRC 01C23777
Copy CRC 01C23777
Cannot be verified as accurate (confidence 8) [59E974B4], AccurateRip returned [4CBCA273] (AR v2)
Copy OK

Track 8

Filename G:\__New\_EAC rips\VA - Crossing Jordan [sdtk] (2003) flac\08 - Vic Chesnutt - Buckets Of Rain.wav

Peak level 99.9 %
Extraction speed 3.9 X
Track quality 100.0 %
Test CRC 1423C017
Copy CRC 1423C017
Cannot be verified as accurate (confidence 8) [54A3A7FD], AccurateRip returned [E6C53020] (AR v2)
Copy OK

Track 9

Filename G:\__New\_EAC rips\VA - Crossing Jordan [sdtk] (2003) flac\09 - Jill Hennessy - You're Innocent When You Dream.wav

Pre-gap length 0:00:01.02

Peak level 99.8 %
Extraction speed 4.3 X
Track quality 100.0 %
Test CRC 58052002
Copy CRC 58052002
Cannot be verified as accurate (confidence 8) [EB313D8D], AccurateRip returned [B882C150] (AR v2)
Copy OK

Track 10

Filename G:\__New\_EAC rips\VA - Crossing Jordan [sdtk] (2003) flac\10 - Joe Henry - Pale Blue Eyes.wav

Peak level 99.9 %
Extraction speed 4.6 X
Track quality 100.0 %
Test CRC 26934050
Copy CRC 26934050
Cannot be verified as accurate (confidence 8) [F580DE18], AccurateRip returned [B599ACAD] (AR v2)
Copy OK

Track 11

Filename G:\__New\_EAC rips\VA - Crossing Jordan [sdtk] (2003) flac\11 - The Holmes Brothers - Trouble.wav

Pre-gap length 0:00:00.90

Peak level 99.9 %
Extraction speed 4.6 X
Track quality 100.0 %
Test CRC 2281B5B2
Copy CRC 2281B5B2
Cannot be verified as accurate (confidence 8) [B68A15FB], AccurateRip returned [8A5B3CA0] (AR v2)
Copy OK

Track 12

Filename G:\__New\_EAC rips\VA - Crossing Jordan [sdtk] (2003) flac\12 - Jill Hennessy - It's All Over Now, Baby Blue.wav

Pre-gap length 0:00:00.93

Peak level 99.9 %
Extraction speed 4.8 X
Track quality 100.0 %
Test CRC B72DE938
Copy CRC B72DE938
Cannot be verified as accurate (confidence 8) [CE8DA7C7], AccurateRip returned [D81F1542] (AR v2)
Copy OK

Track 13

Filename G:\__New\_EAC rips\VA - Crossing Jordan [sdtk] (2003) flac\13 - Wendy Melvoin & Lisa Coleman - Crossing Jordan Themes.wav

Pre-gap length 0:00:12.60

Peak level 99.9 %
Extraction speed 4.9 X
Track quality 100.0 %
Test CRC 16ECB3BB
Copy CRC 16ECB3BB
Cannot be verified as accurate (confidence 8) [A0E87150], AccurateRip returned [8A57C323] (AR v2)
Copy OK

Track 14

Filename G:\__New\_EAC rips\VA - Crossing Jordan [sdtk] (2003) flac\14 - Rosemary Clooney - Black Coffee.wav

Peak level 89.5 %
Extraction speed 4.3 X
Track quality 99.9 %
Test CRC 52FBB1D2
Copy CRC 52FBB1D2
Cannot be verified as accurate (confidence 8) [B0EE146B], AccurateRip returned [6FB1E355] (AR v2)
Copy OK


No tracks could be verified as accurate
You may have a different pressing from the one(s) in the database

No errors occurred

End of status report

–– CUETools DB Plugin V2.1.3

[CTDB TOCID: tsVUSJZY03kNApkV8q.1R2xTAW0-] found, Submit result: tsVUSJZY03kNApkV8q.1R2xTAW0- has been confirmed
[66b5e4af] (13/13) Accurately ripped


==== Log checksum E7F827D7C44BE8C81E79D6535792C37E107146479CFD7FF062B32919C4DFBA80 ====

Thanks to the Original ripper OhReally !