Subcategories
Tags
Language
Tags

VA - Hard To Find Jukebox Classics, The Fifties: 31 Amazing Stereo Hits (2017)

Posted By: delpotro
VA - Hard To Find Jukebox Classics, The Fifties: 31 Amazing Stereo Hits (2017)

VA - Hard To Find Jukebox Classics, The Fifties: 31 Amazing Stereo Hits (2017)
EAC Rip | FLAC (tracks+log+.cue) | 01:18:48 | 473 Mb
Pop, Rock, Jazz, Oldies | Label: Hit Parade Records, Eric Records

No matter how many times you’ve heard these classic Fifties hits, you’ve never heard them like this – unless you were in the studio when they were recorded! Why? Because every one of these 31 original hits appears in jaw-dropping new or rare STEREO, most for the first time ever. Hearing the original hit versions of these all-time classics in crystal-clear stereo is like hearing them for the first time. Believe it or not, 24 of these famous hits have never appeared in stereo in their correct hit-single versions until now. And these are really huge hits, like Bill Haley’s “(We’re Gonna) Rock Around The Clock,” Gogi Grant’s “The Wayward Wind,” Paul Anka’s “Diana,” and “My Prayer” by The Platters. And those are only four of the thirteen #1 hits on this CD.

These stereo mixes will surround you with vocal harmonies, orchestras, drums, and electric guitars. The swelling strings and stirring crescendos of The Skyliners’ “Since I Don’t Have You” and Nelson Riddle’s “Lisbon Antigua” will sweep you off your feet. You’ll hear instruments, voices, and other details that you never noticed before, on a selection of hits that span the full spectrum of Fifties pop music: R&B, rock & roll, pre-rock pop, orchestral instrumentals, and more! Check out the track list and then listen to the sound samples below.

You won’t find these exclusive stereo cuts anywhere but on this CD. These Stereo original hits are simply not available from download services like iTunes and Spotify.
Tracklist:
1. (We re Gonna) Rock Around The Clock - Bill Haley & His Comets [STEREO DEBUT]
2. Blueberry Hill - Fats Domino [STEREO DEBUT]
3. Diana - Paul Anka [STEREO DEBUT]
4. Jailhouse Rock - Elvis Presley [STEREO SINGLE DEBUT]
5. Only You (And You Alone) - The Platters [STEREO DEBUT]
6. My Prayer - The Platters [STEREO DEBUT]
7. The Wayward Wind - Gogi Grant [STEREO DEBUT]
8. Catch A Falling Star - Perry Como
9. Melodie D Amour (Melody Of Love) - The Ames Brothers
10. Tammy - The Ames Brothers
11. Wonderful! Wonderful! - Johnny Mathis [STEREO DEBUT]
12. It s Not For Me To Say - Johnny Mathis [STEREO DEBUT]
13. The Tennessee Waltz - Patti Page [STEREO DEBUT]
14. My Special Angel - Bobby Helms [STEREO DEBUT]
15. The Great Pretender - The Platters [STEREO DEBUT]
16. Heartbreak Hotel - Elvis Presley [STEREO DEBUT]
17. The Green Door - Jim Lowe [STEREO DEBUT]
18. Baubles, Bangles And Beads - The Kirby Stone Four [RARE STEREO]
19. Mack The Knife - Bobby Darin [STEREO REMIX]
20. Splish Splash - Bobby Darin [STEREO SINGLE DEBUT]
21. A Lover s Question - Clyde Mcphatter [RARE STEREO]
22. It Will Stand - The Showmen [STEREO DEBUT]
23. Without You - Johnny Tillotson [STEREO DEBUT]
24. The Twelfth Of Never - Johnny Mathis [STEREO DEBUT]
25. Since I Don t Have You - The Skyliners [STEREO DEBUT]
26. Come Softly To Me - The Fleetwoods [STEREO DEBUT]
27. See You In September - The Tempos [RARE STEREO]
28. 26 Miles (Santa Catalina) - The Four Preps [STEREO DEBUT]
29. Happy Whistler - Don Robertson [STEREO DEBUT]
30. Soft Summer Breeze - Eddie Heywood [STEREO DEBUT]
31. Lisbon Antigua - Nelson Riddle [STEREO DEBUT]

Exact Audio Copy V1.3 from 2. September 2016

EAC extraction logfile from 24. July 2017, 17:27

Various Artists / Hard To Find Jukebox Classics (The Fifties) (2017)

Used drive : HL-DT-STDVDRAM GP57EW40 Adapter: 1 ID: 0

Read mode : Secure
Utilize accurate stream : Yes
Defeat audio cache : Yes
Make use of C2 pointers : No

Read offset correction : 6
Overread into Lead-In and Lead-Out : No
Fill up missing offset samples with silence : Yes
Delete leading and trailing silent blocks : No
Null samples used in CRC calculations : Yes
Used interface : Native Win32 interface for Win NT & 2000
Gap handling : Appended to previous track

Used output format : User Defined Encoder
Selected bitrate : 1024 kBit/s
Quality : High
Add ID3 tag : No
Command line compressor : C:\Program Files (x86)\Exact Audio Copy\Flac\flac.exe
Additional command line options : -8 -V -T "ARTIST=%artist%" -T "TITLE=%title%" -T "ALBUM=%albumtitle%" -T "DATE=%year%" -T "TRACKNUMBER=%tracknr%" -T "GENRE=%genre%" -T "PERFORMER=%albuminterpret%" -T "COMPOSER=%composer%" %haslyrics%–tag-from-file=LYRICS="%lyricsfile%"%haslyrics% -T "ALBUMARTIST=%albumartist%" -T "DISCNUMBER=%cdnumber%" -T "TOTALDISCS=%totalcds%" -T "TOTALTRACKS=%numtracks%" -T "COMMENT=%comment%" %source% -o %dest%


TOC of the extracted CD

Track | Start | Length | Start sector | End sector
––––––––––––––––––––––––––––-
1 | 0:00.00 | 2:12.16 | 0 | 9915
2 | 2:12.16 | 2:22.49 | 9916 | 20614
3 | 4:34.65 | 2:28.49 | 20615 | 31763
4 | 7:03.39 | 2:27.23 | 31764 | 42811
5 | 9:30.62 | 2:37.54 | 42812 | 54640
6 | 12:08.41 | 2:46.40 | 54641 | 67130
7 | 14:55.06 | 2:58.41 | 67131 | 80521
8 | 17:53.47 | 2:28.33 | 80522 | 91654
9 | 20:22.05 | 2:38.49 | 91655 | 103553
10 | 23:00.54 | 2:23.35 | 103554 | 114313
11 | 25:24.14 | 2:49.16 | 114314 | 127004
12 | 28:13.30 | 3:04.46 | 127005 | 140850
13 | 31:18.01 | 3:03.04 | 140851 | 154579
14 | 34:21.05 | 2:57.51 | 154580 | 167905
15 | 37:18.56 | 2:38.64 | 167906 | 179819
16 | 39:57.45 | 2:09.65 | 179820 | 189559
17 | 42:07.35 | 2:13.54 | 189560 | 199588
18 | 44:21.14 | 2:12.21 | 199589 | 209509
19 | 46:33.35 | 3:04.72 | 209510 | 223381
20 | 49:38.32 | 2:12.07 | 223382 | 233288
21 | 51:50.39 | 2:33.28 | 233289 | 244791
22 | 54:23.67 | 2:21.62 | 244792 | 255428
23 | 56:45.54 | 2:08.27 | 255429 | 265055
24 | 58:54.06 | 2:27.00 | 265056 | 276080
25 | 61:21.06 | 2:40.54 | 276081 | 288134
26 | 64:01.60 | 2:26.67 | 288135 | 299151
27 | 66:28.52 | 2:09.18 | 299152 | 308844
28 | 68:37.70 | 2:26.55 | 308845 | 319849
29 | 71:04.50 | 2:25.74 | 319850 | 330798
30 | 73:30.49 | 2:44.18 | 330799 | 343116
31 | 76:14.67 | 2:33.68 | 343117 | 354659


Track 1

Filename K:\EAC\01 - Bill Haley & His Comets - Rock Around The Clock [1954].wav

Pre-gap length 0:00:02.00

Peak level 99.8 %
Extraction speed 1.1 X
Track quality 100.0 %
Test CRC EA16FAC1
Copy CRC EA16FAC1
Accurately ripped (confidence 8) [7507DDA5] (AR v2)
Copy OK

Track 2

Filename K:\EAC\02 - Fats Domino - Blueberry Hill [1956].wav

Pre-gap length 0:00:00.40

Peak level 86.0 %
Extraction speed 1.2 X
Track quality 100.0 %
Test CRC 9AAD416A
Copy CRC 9AAD416A
Accurately ripped (confidence 8) [34E70EB2] (AR v2)
Copy OK

Track 3

Filename K:\EAC\03 - Paul Anka - Diana [1957].wav

Pre-gap length 0:00:00.40

Peak level 100.0 %
Extraction speed 1.3 X
Track quality 100.0 %
Test CRC 0E6C5CF6
Copy CRC 0E6C5CF6
Accurately ripped (confidence 8) [817AC9D0] (AR v2)
Copy OK

Track 4

Filename K:\EAC\04 - Elvis Presley - Jailhouse Rock [1957].wav

Peak level 98.8 %
Extraction speed 1.3 X
Track quality 100.0 %
Test CRC C86226A9
Copy CRC C86226A9
Accurately ripped (confidence 8) [99728CEE] (AR v2)
Copy OK

Track 5

Filename K:\EAC\05 - Platters - Only You (And You Alone) [1955].wav

Peak level 85.3 %
Extraction speed 1.2 X
Track quality 99.9 %
Test CRC 4DFD7DF9
Copy CRC 4DFD7DF9
Accurately ripped (confidence 8) [D344370E] (AR v2)
Copy OK

Track 6

Filename K:\EAC\06 - Platters - My Prayer [1956].wav

Pre-gap length 0:00:00.01

Peak level 76.9 %
Extraction speed 1.5 X
Track quality 100.0 %
Test CRC CAD68AB5
Copy CRC CAD68AB5
Accurately ripped (confidence 8) [8B90FFE5] (AR v2)
Copy OK

Track 7

Filename K:\EAC\07 - Gogi Grant - The Wayward Wind [1956].wav

Pre-gap length 0:00:00.52

Peak level 92.2 %
Extraction speed 1.6 X
Track quality 100.0 %
Test CRC 6AE8BEC4
Copy CRC 6AE8BEC4
Accurately ripped (confidence 8) [AB320A99] (AR v2)
Copy OK

Track 8

Filename K:\EAC\08 - Perry Como - Catch A Falling Star [1957].wav

Pre-gap length 0:00:00.80

Peak level 82.0 %
Extraction speed 1.6 X
Track quality 100.0 %
Test CRC 8139FA9D
Copy CRC 8139FA9D
Accurately ripped (confidence 8) [DC7B3657] (AR v2)
Copy OK

Track 9

Filename K:\EAC\09 - Ames Brothers & Hugo Winterhalter & His Orchestra - Melodie d'Amour (Melodie Of Love) [1953].wav

Pre-gap length 0:00:00.93

Peak level 92.7 %
Extraction speed 1.7 X
Track quality 100.0 %
Test CRC C0AC4FBA
Copy CRC C0AC4FBA
Accurately ripped (confidence 8) [FDE8F4A0] (AR v2)
Copy OK

Track 10

Filename K:\EAC\10 - Ames Brothers - Tammy [1957].wav

Pre-gap length 0:00:00.40

Peak level 98.8 %
Extraction speed 1.7 X
Track quality 100.0 %
Test CRC B88EF58D
Copy CRC B88EF58D
Accurately ripped (confidence 8) [EB56F295] (AR v2)
Copy OK

Track 11

Filename K:\EAC\11 - Johnny Mathis - Wonderful Wonderful [1956].wav

Pre-gap length 0:00:00.66

Peak level 92.2 %
Extraction speed 1.8 X
Track quality 100.0 %
Test CRC BC9F708E
Copy CRC BC9F708E
Accurately ripped (confidence 8) [9409AFF2] (AR v2)
Copy OK

Track 12

Filename K:\EAC\12 - Johnny Mathis - It's Not For Me To Say [1956].wav

Peak level 89.5 %
Extraction speed 1.6 X
Track quality 99.9 %
Test CRC A854378E
Copy CRC A854378E
Accurately ripped (confidence 8) [B4328983] (AR v2)
Copy OK

Track 13

Filename K:\EAC\13 - Patti Page - The Tennessee Waltz [1950].wav

Pre-gap length 0:00:00.53

Peak level 92.0 %
Extraction speed 1.9 X
Track quality 100.0 %
Test CRC 368753C8
Copy CRC 368753C8
Accurately ripped (confidence 8) [B77E7C4D] (AR v2)
Copy OK

Track 14

Filename K:\EAC\14 - Bobby Helms & The Anita Kerr Singers - My Special Angel [1957].wav

Peak level 82.2 %
Extraction speed 2.0 X
Track quality 100.0 %
Test CRC B28B6C2D
Copy CRC B28B6C2D
Accurately ripped (confidence 8) [F06F379B] (AR v2)
Copy OK

Track 15

Filename K:\EAC\15 - Platters - The Great Pretender [1955].wav

Pre-gap length 0:00:00.40

Peak level 92.9 %
Extraction speed 2.0 X
Track quality 100.0 %
Test CRC 77D26BD7
Copy CRC 77D26BD7
Accurately ripped (confidence 8) [F1D58877] (AR v2)
Copy OK

Track 16

Filename K:\EAC\16 - Elvis Presley - Heartbreak Hotel [1955].wav

Pre-gap length 0:00:00.13

Peak level 98.8 %
Extraction speed 1.9 X
Track quality 100.0 %
Test CRC 6E061450
Copy CRC 6E061450
Accurately ripped (confidence 8) [6714DF8C] (AR v2)
Copy OK

Track 17

Filename K:\EAC\17 - Jim Lowe & The High Fives - The Green Door [1956].wav

Peak level 99.9 %
Extraction speed 2.0 X
Track quality 100.0 %
Test CRC 1DF117D7
Copy CRC 1DF117D7
Accurately ripped (confidence 8) [16F41583] (AR v2)
Copy OK

Track 18

Filename K:\EAC\18 - Kirby Stone Four - Baubles Bangles And Beads [1958].wav

Pre-gap length 0:00:00.40

Peak level 88.0 %
Extraction speed 2.0 X
Track quality 100.0 %
Test CRC ECAB5172
Copy CRC ECAB5172
Accurately ripped (confidence 8) [2EBA3D3E] (AR v2)
Copy OK

Track 19

Filename K:\EAC\19 - Bobby Darin - Mack The Knife [1958].wav

Peak level 84.1 %
Extraction speed 2.2 X
Track quality 100.0 %
Test CRC 61934A7C
Copy CRC 61934A7C
Accurately ripped (confidence 8) [A181B01B] (AR v2)
Copy OK

Track 20

Filename K:\EAC\20 - Bobby Darin - Splish Splash [1958].wav

Pre-gap length 0:00:00.93

Peak level 95.9 %
Extraction speed 2.1 X
Track quality 100.0 %
Test CRC 36EE0C25
Copy CRC 36EE0C25
Accurately ripped (confidence 8) [EB3E42B0] (AR v2)
Copy OK

Track 21

Filename K:\EAC\21 - Clyde McPhatter - A Lover's Question [1958].wav

Peak level 76.3 %
Extraction speed 1.8 X
Track quality 99.9 %
Test CRC EA6668C4
Copy CRC EA6668C4
Accurately ripped (confidence 8) [DDA85222] (AR v2)
Copy OK

Track 22

Filename K:\EAC\22 - Showmen - It Will Stand [1961].wav

Pre-gap length 0:00:00.93

Peak level 88.4 %
Extraction speed 2.2 X
Track quality 100.0 %
Test CRC 36EDE25C
Copy CRC 36EDE25C
Accurately ripped (confidence 8) [902ED5D8] (AR v2)
Copy OK

Track 23

Filename K:\EAC\23 - Johnny Tillotson - Without You [1961].wav

Peak level 79.2 %
Extraction speed 2.1 X
Track quality 100.0 %
Test CRC 86295465
Copy CRC 86295465
Accurately ripped (confidence 8) [877CEE42] (AR v2)
Copy OK

Track 24

Filename K:\EAC\24 - Johnny Mathis - The Twelfth Of Never [1957].wav

Pre-gap length 0:00:00.38

Peak level 79.3 %
Extraction speed 2.2 X
Track quality 100.0 %
Test CRC F8CFF607
Copy CRC F8CFF607
Accurately ripped (confidence 8) [E370DE31] (AR v2)
Copy OK

Track 25

Filename K:\EAC\25 - Skyliners - Since I Don't Have You [1958].wav

Peak level 97.7 %
Extraction speed 2.3 X
Track quality 100.0 %
Test CRC 4C1D21B8
Copy CRC 4C1D21B8
Accurately ripped (confidence 8) [B1DB8687] (AR v2)
Copy OK

Track 26

Filename K:\EAC\26 - Fleetwoods - Come Softly To Me [1959].wav

Peak level 88.0 %
Extraction speed 2.3 X
Track quality 100.0 %
Test CRC 3B43480E
Copy CRC 3B43480E
Accurately ripped (confidence 8) [71479BFB] (AR v2)
Copy OK

Track 27

Filename K:\EAC\27 - Tempos - See You In September [1959].wav

Peak level 88.0 %
Extraction speed 2.3 X
Track quality 100.0 %
Test CRC DA61B097
Copy CRC DA61B097
Accurately ripped (confidence 8) [8E5D1B0A] (AR v2)
Copy OK

Track 28

Filename K:\EAC\28 - Four Preps - 26 Miles (Santa Catalina) [1957].wav

Peak level 87.7 %
Extraction speed 2.0 X
Track quality 99.9 %
Test CRC 6774059E
Copy CRC 6774059E
Accurately ripped (confidence 8) [A501531B] (AR v2)
Copy OK

Track 29

Filename K:\EAC\29 - Don Robertson - The Happy Whistler [1956].wav

Peak level 92.2 %
Extraction speed 2.4 X
Track quality 100.0 %
Test CRC 039E4DC7
Copy CRC 039E4DC7
Accurately ripped (confidence 8) [062259C4] (AR v2)
Copy OK

Track 30

Filename K:\EAC\30 - Eddie Heywood - Soft Summer Breeze [1956].wav

Peak level 86.7 %
Extraction speed 2.5 X
Track quality 100.0 %
Test CRC 0E9C3ABE
Copy CRC 0E9C3ABE
Accurately ripped (confidence 8) [F4C61403] (AR v2)
Copy OK

Track 31

Filename K:\EAC\31 - Nelson Riddle & His Orchestra - Lisbon Antigua [1955].wav

Peak level 86.4 %
Extraction speed 2.5 X
Track quality 100.0 %
Test CRC E53F355A
Copy CRC E53F355A
Accurately ripped (confidence 8) [3F701E07] (AR v2)
Copy OK


All tracks accurately ripped

No errors occurred

End of status report

–– CUETools DB Plugin V2.1.6

[CTDB TOCID: jvRcJYAJg_._Wwci8Y4EaHx7EkY-] found
Submit result: jvRcJYAJg_._Wwci8Y4EaHx7EkY- has been confirmed
Track | CTDB Status
1 | (12/12) Accurately ripped
2 | (12/12) Accurately ripped
3 | (12/12) Accurately ripped
4 | (12/12) Accurately ripped
5 | (12/12) Accurately ripped
6 | (11/12) Accurately ripped
7 | (12/12) Accurately ripped
8 | (12/12) Accurately ripped
9 | (12/12) Accurately ripped
10 | (12/12) Accurately ripped
11 | (12/12) Accurately ripped
12 | (11/12) Accurately ripped
13 | (11/12) Accurately ripped
14 | (12/12) Accurately ripped
15 | (12/12) Accurately ripped
16 | (11/12) Accurately ripped
17 | (11/12) Accurately ripped
18 | (11/12) Accurately ripped
19 | (11/12) Accurately ripped
20 | (12/12) Accurately ripped
21 | (11/12) Accurately ripped
22 | (12/12) Accurately ripped
23 | (12/12) Accurately ripped
24 | (11/12) Accurately ripped
25 | (12/12) Accurately ripped
26 | (12/12) Accurately ripped
27 | (12/12) Accurately ripped
28 | (12/12) Accurately ripped
29 | (12/12) Accurately ripped
30 | (12/12) Accurately ripped
31 | (10/12) Accurately ripped


==== Log checksum 0FD59D30FC59B0978F2BF83152C389220484A9CFB4F01C449B687F305D9DFECC ====

Thanks to the Original ripper StefMir !