Tags
Language
Tags
October 2022
Su Mo Tu We Th Fr Sa
25 26 27 28 29 30 1
2 3 4 5 6 7 8
9 10 11 12 13 14 15
16 17 18 19 20 21 22
23 24 25 26 27 28 29
30 31 1 2 3 4 5

Various Artists - Slow Grind Fever Vol. 5 & 6 (2016) {Stag-O-Lee Records STAG-O-081}

Posted By: ruskaval
Various Artists - Slow Grind Fever Vol. 5 & 6 (2016) {Stag-O-Lee Records STAG-O-081}

Various Artists - Slow Grind Fever Vol. 5 & 6 (2016) {Stag-O-Lee Records STAG-O-081}
EAC rip (secure mode) | FLAC (tracks)+CUE+LOG -> 227 Mb | MP3 @320 -> 154 Mb
Full Artwork @ 300 dpi (png) -> 54 Mb | 5% repair rar
© 2016 Stag-O-Lee Records | STAG-O-081
Rhythm & Blues / Rockabilly / Soul / Groove / Doo-Wop / Rock & Roll

The soundtrack to a smoky late night bar in Chicago, or a hot Sunday afternoon down at the Popcorn.
If you feel the cold sweat of soul, and the cool chills of haunted crooners singing out their final swansong, or the sinful shakes of R&B in it's twilight years, then you have a bad case of Slow Grind Fever!

This is a collection of haunting, hungry, heartbroken humdingers full of swing, sway and sleaze.
With obscure B-sides sitting next to some of these great artists' last outings on wax. –Stag-O-Lee Records
Various Artists - Slow Grind Fever Vol. 5 & 6 (2016) {Stag-O-Lee Records STAG-O-081}

Various Artists - Slow Grind Fever Vol. 5 & 6 (2016) {Stag-O-Lee Records STAG-O-081}


Track Listing:
1. Let's Talk It Over - The Hollywood Flames
2. Senor Blues - Rose Hardaway
3. Strange Is Love - The Marquis
4. Comprende - Jack Marshard & His Orchestra
5. Satan Is Her Name - Steve King & The Echelons
6. Touch Me - Johnny Burnette
7. Fever - Dee Clark
8. Haunted Sax - The Nightcaps
9. Tremblin' - Birdie Green
10. Nature Boy - The Shields
11. My Baby - Nappy Brown
12. Who's the Fool - Singin' Sammy Ward
13. Crazy Feelin' - King Coleman
14. I Want a Lip - April Stevens
15. Somewhere Down the Line - Little Jimmy Scott
16. The Great Grandfather - Bo Diddley
17. Medicine Man - Jeanette B. Washington
18. Voodoo Kiss - Don Sargent & The Buddies
19. Tie Me Tight - Bob Kayli
20. Laugh My Heart - Malcolm Dodds
21. Backwoods - Bill Doggett
22. Wild Child - Donnie Elbert
23. Comin' Home - Eddie Jacobs
24. Tiny Tim - Lavern Baker
25. Voodoo Drums - Aki
26. Sinners - Freddie & The Hitch-hikers
27. St. James Infirmary - The Delta Rhythm Boys
28. Hard Head Pt. 1 - Jon Thomas

Exact Audio Copy V1.2 from 12. August 2016

EAC extraction logfile from 11. February 2017, 18:15

Various Artists / Slow Grind Fever 5 & 6

Used drive : TSSTcorpCDDVDW SH-224BB Adapter: 1 ID: 0

Read mode : Secure
Utilize accurate stream : Yes
Defeat audio cache : Yes
Make use of C2 pointers : No

Read offset correction : 6
Overread into Lead-In and Lead-Out : No
Fill up missing offset samples with silence : Yes
Delete leading and trailing silent blocks : No
Null samples used in CRC calculations : Yes
Used interface : Native Win32 interface for Win NT & 2000
Gap handling : Appended to previous track

Used output format : User Defined Encoder
Selected bitrate : 768 kBit/s
Quality : High
Add ID3 tag : No
Command line compressor : C:\Program Files (x86)\Exact Audio Copy\Flac\flac.exe
Additional command line options : -8 -V -T "ARTIST=%artist%" -T "TITLE=%title%" -T "ALBUM=%albumtitle%" -T "DATE=%year%" -T "TRACKNUMBER=%tracknr%" -T "TOTALTRACKS=%numtracks%" -T "GENRE=%genre%" -T "ALBUMARTIST=%albumartist%" -T "ALBUM ARTIST=%albumartist%" -T "COMMENT=EAC Secure Mode, Test & Copy, AccurateRip, FLAC -8" %source%


TOC of the extracted CD

Track | Start | Length | Start sector | End sector
––––––––––––––––––––––––––––-
1 | 0:00.00 | 2:59.00 | 0 | 13424
2 | 2:59.00 | 2:24.64 | 13425 | 24288
3 | 5:23.64 | 2:29.33 | 24289 | 35496
4 | 7:53.22 | 2:09.23 | 35497 | 45194
5 | 10:02.45 | 2:34.15 | 45195 | 56759
6 | 12:36.60 | 2:27.66 | 56760 | 67850
7 | 15:04.51 | 2:33.28 | 67851 | 79353
8 | 17:38.04 | 2:20.62 | 79354 | 89915
9 | 19:58.66 | 2:31.05 | 89916 | 101245
10 | 22:29.71 | 2:38.46 | 101246 | 113141
11 | 25:08.42 | 2:34.48 | 113142 | 124739
12 | 27:43.15 | 2:43.18 | 124740 | 136982
13 | 30:26.33 | 2:49.69 | 136983 | 149726
14 | 33:16.27 | 2:32.67 | 149727 | 161193
15 | 35:49.19 | 2:29.09 | 161194 | 172377
16 | 38:18.28 | 2:17.40 | 172378 | 182692
17 | 40:35.68 | 2:26.24 | 182693 | 193666
18 | 43:02.17 | 2:01.03 | 193667 | 202744
19 | 45:03.20 | 2:16.22 | 202745 | 212966
20 | 47:19.42 | 2:29.58 | 212967 | 224199
21 | 49:49.25 | 3:04.70 | 224200 | 238069
22 | 52:54.20 | 2:31.05 | 238070 | 249399
23 | 55:25.25 | 2:22.10 | 249400 | 260059
24 | 57:47.35 | 2:20.58 | 260060 | 270617
25 | 60:08.18 | 2:20.63 | 270618 | 281180
26 | 62:29.06 | 2:40.12 | 281181 | 293192
27 | 65:09.18 | 3:23.73 | 293193 | 308490
28 | 68:33.16 | 1:45.27 | 308491 | 316392


Track 1

Filename C:\Rips\Various Artists - Slow Grind Fever 5 & 6 (2016) [FLAC]\01 - The Hollywood Flames - Let's Talk It Over.wav

Pre-gap length 0:00:02.00

Peak level 98.5 %
Extraction speed 1.7 X
Track quality 100.0 %
Test CRC 251D0486
Copy CRC 251D0486
Track not present in AccurateRip database
Copy OK

Track 2

Filename C:\Rips\Various Artists - Slow Grind Fever 5 & 6 (2016) [FLAC]\02 - Rose Hardaway - Senor Blues.wav

Pre-gap length 0:00:02.00

Peak level 100.0 %
Extraction speed 1.7 X
Track quality 100.0 %
Test CRC 55679625
Copy CRC 55679625
Track not present in AccurateRip database
Copy OK

Track 3

Filename C:\Rips\Various Artists - Slow Grind Fever 5 & 6 (2016) [FLAC]\03 - The Marquis - Strange Is Love.wav

Pre-gap length 0:00:02.00

Peak level 100.0 %
Extraction speed 1.8 X
Track quality 100.0 %
Test CRC 99667F2C
Copy CRC 99667F2C
Track not present in AccurateRip database
Copy OK

Track 4

Filename C:\Rips\Various Artists - Slow Grind Fever 5 & 6 (2016) [FLAC]\04 - Hillard Street with Jack Marshall's Music - Comprende.wav

Pre-gap length 0:00:02.00

Peak level 100.0 %
Extraction speed 1.8 X
Track quality 100.0 %
Test CRC 8B7BB776
Copy CRC 8B7BB776
Track not present in AccurateRip database
Copy OK

Track 5

Filename C:\Rips\Various Artists - Slow Grind Fever 5 & 6 (2016) [FLAC]\05 - Steve King & The Echelons - Satan Is Her Name.wav

Pre-gap length 0:00:02.00

Peak level 100.0 %
Extraction speed 2.0 X
Track quality 100.0 %
Test CRC DC7D487E
Copy CRC DC7D487E
Track not present in AccurateRip database
Copy OK

Track 6

Filename C:\Rips\Various Artists - Slow Grind Fever 5 & 6 (2016) [FLAC]\06 - Johnny Burnette - Touch Me.wav

Pre-gap length 0:00:02.00

Peak level 100.0 %
Extraction speed 2.0 X
Track quality 100.0 %
Test CRC AB1A1F77
Copy CRC AB1A1F77
Track not present in AccurateRip database
Copy OK

Track 7

Filename C:\Rips\Various Artists - Slow Grind Fever 5 & 6 (2016) [FLAC]\07 - Dee Clark - Fever.wav

Pre-gap length 0:00:02.00

Peak level 100.0 %
Extraction speed 1.7 X
Track quality 99.9 %
Test CRC 9C6DB355
Copy CRC 9C6DB355
Track not present in AccurateRip database
Copy OK

Track 8

Filename C:\Rips\Various Artists - Slow Grind Fever 5 & 6 (2016) [FLAC]\08 - The Night Caps - Haunted Sax.wav

Pre-gap length 0:00:02.00

Peak level 100.0 %
Extraction speed 2.2 X
Track quality 100.0 %
Test CRC D6FD5355
Copy CRC D6FD5355
Track not present in AccurateRip database
Copy OK

Track 9

Filename C:\Rips\Various Artists - Slow Grind Fever 5 & 6 (2016) [FLAC]\09 - Birdie Green - Tremblin'.wav

Pre-gap length 0:00:02.00

Peak level 100.0 %
Extraction speed 1.7 X
Track quality 99.9 %
Test CRC E930A474
Copy CRC E930A474
Track not present in AccurateRip database
Copy OK

Track 10

Filename C:\Rips\Various Artists - Slow Grind Fever 5 & 6 (2016) [FLAC]\10 - The Shields - Nature Boy.wav

Pre-gap length 0:00:02.00

Peak level 100.0 %
Extraction speed 2.4 X
Track quality 100.0 %
Test CRC BFD442F5
Copy CRC BFD442F5
Track not present in AccurateRip database
Copy OK

Track 11

Filename C:\Rips\Various Artists - Slow Grind Fever 5 & 6 (2016) [FLAC]\11 - Nappy Brown with Teacho Wiltshire's Orch. - My Baby.wav

Pre-gap length 0:00:02.00

Peak level 100.0 %
Extraction speed 2.4 X
Track quality 100.0 %
Test CRC E13C3F64
Copy CRC E13C3F64
Track not present in AccurateRip database
Copy OK

Track 12

Filename C:\Rips\Various Artists - Slow Grind Fever 5 & 6 (2016) [FLAC]\12 - Singin' Sammy Ward - Who's The Fool.wav

Pre-gap length 0:00:02.00

Peak level 100.0 %
Extraction speed 2.5 X
Track quality 100.0 %
Test CRC E527879A
Copy CRC E527879A
Track not present in AccurateRip database
Copy OK

Track 13

Filename C:\Rips\Various Artists - Slow Grind Fever 5 & 6 (2016) [FLAC]\13 - King Coleman - Crazy Feelin'.wav

Pre-gap length 0:00:02.00

Peak level 98.9 %
Extraction speed 2.6 X
Track quality 100.0 %
Test CRC 562053E4
Copy CRC 562053E4
Track not present in AccurateRip database
Copy OK

Track 14

Filename C:\Rips\Various Artists - Slow Grind Fever 5 & 6 (2016) [FLAC]\14 - April Stevens - I Want A Lip.wav

Pre-gap length 0:00:02.00

Peak level 100.0 %
Extraction speed 2.7 X
Track quality 100.0 %
Test CRC 3567E9CC
Copy CRC 3567E9CC
Track not present in AccurateRip database
Copy OK

Track 15

Filename C:\Rips\Various Artists - Slow Grind Fever 5 & 6 (2016) [FLAC]\15 - Little Jimmy Scott - Somewhere Down The Line.wav

Pre-gap length 0:00:02.00

Peak level 99.9 %
Extraction speed 2.7 X
Track quality 100.0 %
Test CRC D3EC0485
Copy CRC D3EC0485
Track not present in AccurateRip database
Copy OK

Track 16

Filename C:\Rips\Various Artists - Slow Grind Fever 5 & 6 (2016) [FLAC]\16 - Bo Diddley - The Great Grandfather.wav

Pre-gap length 0:00:02.00

Peak level 98.1 %
Extraction speed 2.7 X
Track quality 100.0 %
Test CRC E70824B7
Copy CRC E70824B7
Track not present in AccurateRip database
Copy OK

Track 17

Filename C:\Rips\Various Artists - Slow Grind Fever 5 & 6 (2016) [FLAC]\17 - Jeanette B. Washington - Medicine Man.wav

Pre-gap length 0:00:02.00

Peak level 99.9 %
Extraction speed 2.8 X
Track quality 100.0 %
Test CRC 97195AB6
Copy CRC 97195AB6
Track not present in AccurateRip database
Copy OK

Track 18

Filename C:\Rips\Various Artists - Slow Grind Fever 5 & 6 (2016) [FLAC]\18 - Don Sargent & The Buddies - Voodoo Kiss.wav

Pre-gap length 0:00:02.00

Peak level 99.9 %
Extraction speed 2.7 X
Track quality 100.0 %
Test CRC 1A195679
Copy CRC 1A195679
Track not present in AccurateRip database
Copy OK

Track 19

Filename C:\Rips\Various Artists - Slow Grind Fever 5 & 6 (2016) [FLAC]\19 - Bob Kayli - Tie Me Tight.wav

Pre-gap length 0:00:02.00

Peak level 99.8 %
Extraction speed 2.8 X
Track quality 100.0 %
Test CRC 7473ED75
Copy CRC 7473ED75
Track not present in AccurateRip database
Copy OK

Track 20

Filename C:\Rips\Various Artists - Slow Grind Fever 5 & 6 (2016) [FLAC]\20 - Malcolm Dodds - Laugh My Heart.wav

Pre-gap length 0:00:02.00

Peak level 99.7 %
Extraction speed 2.9 X
Track quality 100.0 %
Test CRC 15A341C0
Copy CRC 15A341C0
Track not present in AccurateRip database
Copy OK

Track 21

Filename C:\Rips\Various Artists - Slow Grind Fever 5 & 6 (2016) [FLAC]\21 - Bill Doggett - Backwoods.wav

Pre-gap length 0:00:02.00

Peak level 100.0 %
Extraction speed 2.2 X
Track quality 99.9 %
Test CRC 260FAB11
Copy CRC 260FAB11
Track not present in AccurateRip database
Copy OK

Track 22

Filename C:\Rips\Various Artists - Slow Grind Fever 5 & 6 (2016) [FLAC]\22 - Donnie Elbert - Wild Child.wav

Pre-gap length 0:00:02.00

Peak level 98.3 %
Extraction speed 2.1 X
Track quality 99.9 %
Test CRC BA6F9B27
Copy CRC BA6F9B27
Track not present in AccurateRip database
Copy OK

Track 23

Filename C:\Rips\Various Artists - Slow Grind Fever 5 & 6 (2016) [FLAC]\23 - Eddie Jacobs - Comin' Home.wav

Pre-gap length 0:00:02.00

Peak level 99.2 %
Extraction speed 3.1 X
Track quality 100.0 %
Test CRC E49A88D9
Copy CRC E49A88D9
Track not present in AccurateRip database
Copy OK

Track 24

Filename C:\Rips\Various Artists - Slow Grind Fever 5 & 6 (2016) [FLAC]\24 - Lavern Baker - Tiny Tim.wav

Pre-gap length 0:00:02.00

Peak level 99.8 %
Extraction speed 2.0 X
Track quality 99.9 %
Test CRC BD24B324
Copy CRC BD24B324
Track not present in AccurateRip database
Copy OK

Track 25

Filename C:\Rips\Various Artists - Slow Grind Fever 5 & 6 (2016) [FLAC]\25 - Aki - Voodoo Drums.wav

Pre-gap length 0:00:02.00

Peak level 99.5 %
Extraction speed 3.1 X
Track quality 100.0 %
Test CRC 78F0F662
Copy CRC 78F0F662
Track not present in AccurateRip database
Copy OK

Track 26

Filename C:\Rips\Various Artists - Slow Grind Fever 5 & 6 (2016) [FLAC]\26 - Freddie and The Hitch-Hikers - Sinners.wav

Pre-gap length 0:00:02.00

Peak level 94.0 %
Extraction speed 3.3 X
Track quality 100.0 %
Test CRC 563A6DDE
Copy CRC 563A6DDE
Track not present in AccurateRip database
Copy OK

Track 27

Filename C:\Rips\Various Artists - Slow Grind Fever 5 & 6 (2016) [FLAC]\27 - The Delta Rhythm Boys - St James Infirmary.wav

Pre-gap length 0:00:02.00

Peak level 100.0 %
Extraction speed 3.5 X
Track quality 100.0 %
Test CRC 95A70BA6
Copy CRC 95A70BA6
Track not present in AccurateRip database
Copy OK

Track 28

Filename C:\Rips\Various Artists - Slow Grind Fever 5 & 6 (2016) [FLAC]\28 - Jon Thomas - Hard Head Pt 1.wav

Pre-gap length 0:00:02.00

Peak level 99.2 %
Extraction speed 3.1 X
Track quality 100.0 %
Test CRC 636EA813
Copy CRC 636EA813
Track not present in AccurateRip database
Copy OK


None of the tracks are present in the AccurateRip database

No errors occurred

End of status report

–– CUETools DB Plugin V2.1.6

[CTDB TOCID: JUKYSPGMk78yP6YNIFN2m53cO1A-] disk not present in database
Submit result: Den underliggande anslutningen stängdes: En anslutning som förväntades hållas aktiv stängdes av servern..


==== Log checksum 1C5B5F5BAEDBFDC63B5841AD412703C9B697E55EDA00478E0B3325739DF370A3 ====


Various Artists - Slow Grind Fever Vol. 5 & 6 (2016) {Stag-O-Lee Records STAG-O-081}

Various Artists - Slow Grind Fever Vol. 5 & 6 (2016) {Stag-O-Lee Records STAG-O-081}


see more Slow Grind Fever Series…


===