Subcategories

Various Artists - Slow Grind Fever, Vol. 7 & 8 (2018) {Stag-O-Lee Records STAG-O-130}

Posted By: ruskaval
Various Artists - Slow Grind Fever, Vol. 7 & 8 (2018) {Stag-O-Lee Records STAG-O-130}

Various Artists - Slow Grind Fever, Vol. 7 & 8 (2018) {Stag-O-Lee Records STAG-O-130}
EAC rip (secure mode) | FLAC (tracks)+CUE+LOG -> 295 Mb | MP3 @320 -> 189 Mb
Full Artwork @ 300 dpi (png) -> 56 Mb | 5% repair rar
© 2018 Stag-O-Lee Records | STAG-O-130
Rhythm & Blues / Rockabilly / Soul / Groove / Doo-Wop / Rock & Roll

Volume #7 and 8 in this amazing series of slow grinding R&B/Soul/Exotica tunes as they are being played in a club in Melbourne/Australia. Around midnight on the last Saturday of every month, an assemblage of juiceheads, grifters, kittens, dandies and derelicts gather in a dimly-lit, smoke-filled room and dance together real slow. These are some of the records we dance to… Thanks to all the flute players and backing singers of yore for flavouring these old records up just like we like them. –Stag-O-Lee Records
Various Artists - Slow Grind Fever, Vol. 7 & 8 (2018) {Stag-O-Lee Records STAG-O-130}

Slow grinders and lots lots more – a sweet set of raunchy little numbers from the years in which teen pop and rock and roll were taking over the mainstream – but still left lots of space for the creation of nasty little singles like these! As with previous volumes, the music is a mix of jazz, R&B, early soul, and more – some tracks by familiar names, others by obscure artists who may have only cut the single track you'll hear on this set! There's a nicely moody, past-midnight vibe to the record – and titles include "Mama's Place" by Bing Day, "Jack That Cat Was Clean" by Dr Horse, "Snake Walk (parts 1 & 2)" by Swinging Tigers, "Demon Lover" by Bob & Lucille, "I'm A Fugitive" by The Ravons, "Shadow Street" by Kip Tyler, "Death Powder Cold Steel" by Johnnie Morisette, "Concrete Desert" by Jack Hammer, "Magic" by The Ideals, "Let Me Come Home" by Rudy Moore, "Don't Go" by The Chestnuts, "Fever/Barney Google" by Francis Faye, "Walk On The Wild Side" by Marilyn Brown, "The Voice Within" by Percy Mayfield, "My Buddy's Got My Baby" by Earl Haynes, "Lonely Island" by Eddie Cash, "Sugar Tree" by Allen Page, "I Get A Feeling" by Debby Moore, and "Face In the Rain" by The Charles McDevitt Skiffle Group! –Dusty Groove
Various Artists - Slow Grind Fever, Vol. 7 & 8 (2018) {Stag-O-Lee Records STAG-O-130}


Track Listing:
1. Bob And Lucille - Demon Lover
2. The Ravons - I'm A Fugitive
3. Kip Tyler - Shadow Street
4. Ferlin Husky - Boulevard Of Broken Dreams
5. Louis Armstrong - Go Down Moses
6. Johnnie Morisette - Death Powder, Cold Steel
07. Jack Hammer - Concrete Desert
8. Bing Day - Mama’s Place
9. Big Jack - Poor Boy Song
10. Jack Costanzo - Cat Walk
11. Peggy King - Up. Up, Up (Flying High)
12. Dr. Horse - Jack, That Cat Was Clean
13. Frank Minion - Watermelon
14. The Swinging Tigers - Snake Walk, Pts.1 & 2
15. Johnnie Ray – Lotus Blossom
16. Rudy Moore – Let Me Come Home
17. The Chestnuts – Don't Go
18. Frances Faye – Fever / Barney Google
19. Marilyn Brown – Walk On The Wild Side
20. The Ideals – Magic
21. La Mont Anthony – Just To Be Loved
22. Earl Haynes – My Buddy's Got My Baby
23. Eddie Cash – Lonely Island
24. Allen Page – Sugar Tree
25. The Chas Mcdevitt Skiffle Group Ft. Nancy Whiskey – Face In The Rain
26. Debby Moore – I Get A Feeling
27. Eddie Cooley – Fever
28. Percy Mayfield – The Voice Within

Exact Audio Copy V1.3 from 2. September 2016

EAC extraction logfile from 27. September 2019, 20:19

Various Artists / Slow Grind Fever Volume 7 & 8

Used drive : ASUS SDRW-08D2S-U Adapter: 1 ID: 0

Read mode : Secure
Utilize accurate stream : Yes
Defeat audio cache : Yes
Make use of C2 pointers : No

Read offset correction : 6
Overread into Lead-In and Lead-Out : No
Fill up missing offset samples with silence : Yes
Delete leading and trailing silent blocks : No
Null samples used in CRC calculations : Yes
Used interface : Native Win32 interface for Win NT & 2000
Gap handling : Appended to previous track

Used output format : User Defined Encoder
Selected bitrate : 1024 kBit/s
Quality : High
Add ID3 tag : No
Command line compressor : C:\Program Files (x86)\Exact Audio Copy\Flac\flac.exe
Additional command line options : -8 -V -T "ARTIST=%artist%" -T "TITLE=%title%" -T "ALBUM=%albumtitle%" -T "DATE=%year%" -T "TRACKNUMBER=%tracknr%" -T "GENRE=%genre%" -T "PERFORMER=%albuminterpret%" -T "COMPOSER=%composer%" %haslyrics%–tag-from-file=LYRICS="%lyricsfile%"%haslyrics% -T "ALBUMARTIST=%albumartist%" -T "DISCNUMBER=%cdnumber%" -T "TOTALDISCS=%totalcds%" -T "TOTALTRACKS=%numtracks%" -T "COMMENT=%comment%" %source% -o %dest%


TOC of the extracted CD

Track | Start | Length | Start sector | End sector
––––––––––––––––––––––––––––-
1 | 0:00.00 | 2:40.62 | 0 | 12061
2 | 2:40.62 | 2:46.33 | 12062 | 24544
3 | 5:27.20 | 2:41.43 | 24545 | 36662
4 | 8:08.63 | 2:43.67 | 36663 | 48954
5 | 10:52.55 | 3:37.63 | 48955 | 65292
6 | 14:30.43 | 3:38.31 | 65293 | 81673
7 | 18:08.74 | 2:30.09 | 81674 | 92932
8 | 20:39.08 | 2:09.60 | 92933 | 102667
9 | 22:48.68 | 2:09.46 | 102668 | 112388
10 | 24:58.39 | 2:13.51 | 112389 | 122414
11 | 27:12.15 | 2:17.17 | 122415 | 132706
12 | 29:29.32 | 3:30.10 | 132707 | 148466
13 | 32:59.42 | 2:47.72 | 148467 | 161063
14 | 35:47.39 | 5:11.38 | 161064 | 184426
15 | 40:59.02 | 3:46.50 | 184427 | 201426
16 | 44:45.52 | 2:43.00 | 201427 | 213651
17 | 47:28.52 | 3:00.17 | 213652 | 227168
18 | 50:28.69 | 3:43.39 | 227169 | 243932
19 | 54:12.33 | 2:37.70 | 243933 | 255777
20 | 56:50.28 | 2:40.44 | 255778 | 267821
21 | 59:30.72 | 2:52.48 | 267822 | 280769
22 | 62:23.45 | 2:36.67 | 280770 | 292536
23 | 65:00.37 | 2:26.65 | 292537 | 303551
24 | 67:27.27 | 1:59.40 | 303552 | 312516
25 | 69:26.67 | 2:41.54 | 312517 | 324645
26 | 72:08.46 | 2:09.11 | 324646 | 334331
27 | 74:17.57 | 2:23.72 | 334332 | 345128
28 | 76:41.54 | 2:29.12 | 345129 | 356315


Track 1

Filename C:\Rips\Various Artists - Slow Grind Fever Volume 7 & 8 (2018) [FLAC]\01 - Bob And Lucille - Demon Lover.wav

Pre-gap length 0:00:02.00

Peak level 100.0 %
Extraction speed 2.8 X
Track quality 100.0 %
Test CRC C51173D2
Copy CRC C51173D2
Track not present in AccurateRip database
Copy OK

Track 2

Filename C:\Rips\Various Artists - Slow Grind Fever Volume 7 & 8 (2018) [FLAC]\02 - The Ravons - I'm A Fugitive.wav

Peak level 99.6 %
Extraction speed 3.0 X
Track quality 100.0 %
Test CRC 52A8AA99
Copy CRC 52A8AA99
Track not present in AccurateRip database
Copy OK

Track 3

Filename C:\Rips\Various Artists - Slow Grind Fever Volume 7 & 8 (2018) [FLAC]\03 - Kip Tyler - Shadow Street.wav

Peak level 97.8 %
Extraction speed 3.1 X
Track quality 100.0 %
Test CRC C1D7FA26
Copy CRC C1D7FA26
Track not present in AccurateRip database
Copy OK

Track 4

Filename C:\Rips\Various Artists - Slow Grind Fever Volume 7 & 8 (2018) [FLAC]\04 - Ferlin Husky - Boulevard Of Broken Dreams.wav

Peak level 100.0 %
Extraction speed 3.3 X
Track quality 100.0 %
Test CRC 4D153F46
Copy CRC 4D153F46
Track not present in AccurateRip database
Copy OK

Track 5

Filename C:\Rips\Various Artists - Slow Grind Fever Volume 7 & 8 (2018) [FLAC]\05 - Louis Armstrong - Go Down Moses.wav

Peak level 94.4 %
Extraction speed 3.6 X
Track quality 100.0 %
Test CRC 2279C7E2
Copy CRC 2279C7E2
Track not present in AccurateRip database
Copy OK

Track 6

Filename C:\Rips\Various Artists - Slow Grind Fever Volume 7 & 8 (2018) [FLAC]\06 - Johnnie Morisette - Death Powder, Cold Steel.wav

Peak level 98.0 %
Extraction speed 3.8 X
Track quality 100.0 %
Test CRC 2B7BB326
Copy CRC 2B7BB326
Track not present in AccurateRip database
Copy OK

Track 7

Filename C:\Rips\Various Artists - Slow Grind Fever Volume 7 & 8 (2018) [FLAC]\07 - Jack Hammer - Concrete Desert.wav

Peak level 100.0 %
Extraction speed 3.7 X
Track quality 100.0 %
Test CRC A87F0C0A
Copy CRC A87F0C0A
Track not present in AccurateRip database
Copy OK

Track 8

Filename C:\Rips\Various Artists - Slow Grind Fever Volume 7 & 8 (2018) [FLAC]\08 - Bing Day - Mama's Place.wav

Peak level 100.0 %
Extraction speed 2.8 X
Track quality 99.9 %
Test CRC B1F8AF72
Copy CRC B1F8AF72
Track not present in AccurateRip database
Copy OK

Track 9

Filename C:\Rips\Various Artists - Slow Grind Fever Volume 7 & 8 (2018) [FLAC]\09 - Big Jack - Poor Boy Song.wav

Peak level 98.1 %
Extraction speed 3.8 X
Track quality 100.0 %
Test CRC EAA22C93
Copy CRC EAA22C93
Track not present in AccurateRip database
Copy OK

Track 10

Filename C:\Rips\Various Artists - Slow Grind Fever Volume 7 & 8 (2018) [FLAC]\10 - Jack Costanzo - Cat Walk.wav

Peak level 92.4 %
Extraction speed 3.9 X
Track quality 100.0 %
Test CRC D166C107
Copy CRC D166C107
Track not present in AccurateRip database
Copy OK

Track 11

Filename C:\Rips\Various Artists - Slow Grind Fever Volume 7 & 8 (2018) [FLAC]\11 - Peggy King - Up. Up, Up (Flying High).wav

Peak level 93.5 %
Extraction speed 4.1 X
Track quality 100.0 %
Test CRC 21CE559A
Copy CRC 21CE559A
Track not present in AccurateRip database
Copy OK

Track 12

Filename C:\Rips\Various Artists - Slow Grind Fever Volume 7 & 8 (2018) [FLAC]\12 - Dr. Horse - Jack, That Cat Was Clean.wav

Peak level 100.0 %
Extraction speed 3.7 X
Track quality 99.9 %
Test CRC 06C27FF1
Copy CRC 06C27FF1
Track not present in AccurateRip database
Copy OK

Track 13

Filename C:\Rips\Various Artists - Slow Grind Fever Volume 7 & 8 (2018) [FLAC]\13 - Frank Minion - Watermelon.wav

Peak level 100.0 %
Extraction speed 3.6 X
Track quality 99.9 %
Test CRC 05D97E72
Copy CRC 05D97E72
Track not present in AccurateRip database
Copy OK

Track 14

Filename C:\Rips\Various Artists - Slow Grind Fever Volume 7 & 8 (2018) [FLAC]\14 - The Swinging Tigers - Snake Walk, Pts.1 & 2.wav

Peak level 74.8 %
Extraction speed 5.1 X
Track quality 100.0 %
Test CRC 7FF524C5
Copy CRC 7FF524C5
Track not present in AccurateRip database
Copy OK

Track 15

Filename C:\Rips\Various Artists - Slow Grind Fever Volume 7 & 8 (2018) [FLAC]\15 - Johnnie Ray - Lotus Blossom.wav

Peak level 99.7 %
Extraction speed 5.1 X
Track quality 100.0 %
Test CRC BB227FED
Copy CRC BB227FED
Track not present in AccurateRip database
Copy OK

Track 16

Filename C:\Rips\Various Artists - Slow Grind Fever Volume 7 & 8 (2018) [FLAC]\16 - Rudy Moore - Let Me Come Home.wav

Peak level 98.5 %
Extraction speed 3.9 X
Track quality 99.9 %
Test CRC 73A3F922
Copy CRC 73A3F922
Track not present in AccurateRip database
Copy OK

Track 17

Filename C:\Rips\Various Artists - Slow Grind Fever Volume 7 & 8 (2018) [FLAC]\17 - The Chestnuts - Don't Go.wav

Peak level 99.8 %
Extraction speed 4.1 X
Track quality 99.9 %
Test CRC FDB2A0C2
Copy CRC FDB2A0C2
Track not present in AccurateRip database
Copy OK

Track 18

Filename C:\Rips\Various Artists - Slow Grind Fever Volume 7 & 8 (2018) [FLAC]\18 - Frances Faye - FeverBarney Google.wav

Peak level 99.8 %
Extraction speed 5.4 X
Track quality 100.0 %
Test CRC 4005393B
Copy CRC 4005393B
Track not present in AccurateRip database
Copy OK

Track 19

Filename C:\Rips\Various Artists - Slow Grind Fever Volume 7 & 8 (2018) [FLAC]\19 - Marilyn Brown - Walk On The Wild Side.wav

Peak level 97.9 %
Extraction speed 5.2 X
Track quality 100.0 %
Test CRC 5A2DF6D2
Copy CRC 5A2DF6D2
Track not present in AccurateRip database
Copy OK

Track 20

Filename C:\Rips\Various Artists - Slow Grind Fever Volume 7 & 8 (2018) [FLAC]\20 - The Ideals - Magic.wav

Peak level 99.9 %
Extraction speed 5.3 X
Track quality 100.0 %
Test CRC 86B3F97A
Copy CRC 86B3F97A
Track not present in AccurateRip database
Copy OK

Track 21

Filename C:\Rips\Various Artists - Slow Grind Fever Volume 7 & 8 (2018) [FLAC]\21 - La Mont Anthony - Just To Be Loved.wav

Peak level 98.0 %
Extraction speed 4.4 X
Track quality 99.9 %
Test CRC FDCBDD50
Copy CRC FDCBDD50
Track not present in AccurateRip database
Copy OK

Track 22

Filename C:\Rips\Various Artists - Slow Grind Fever Volume 7 & 8 (2018) [FLAC]\22 - Earl Haynes - My Buddy's Got My Baby.wav

Peak level 99.9 %
Extraction speed 5.4 X
Track quality 100.0 %
Test CRC DB1BFF13
Copy CRC DB1BFF13
Track not present in AccurateRip database
Copy OK

Track 23

Filename C:\Rips\Various Artists - Slow Grind Fever Volume 7 & 8 (2018) [FLAC]\23 - Eddie Cash - Lonely Island.wav

Peak level 99.3 %
Extraction speed 5.4 X
Track quality 100.0 %
Test CRC DE8039CA
Copy CRC DE8039CA
Track not present in AccurateRip database
Copy OK

Track 24

Filename C:\Rips\Various Artists - Slow Grind Fever Volume 7 & 8 (2018) [FLAC]\24 - Allen Page - Sugar Tree.wav

Peak level 99.2 %
Extraction speed 4.0 X
Track quality 99.9 %
Test CRC 00C06A65
Copy CRC 00C06A65
Track not present in AccurateRip database
Copy OK

Track 25

Filename C:\Rips\Various Artists - Slow Grind Fever Volume 7 & 8 (2018) [FLAC]\25 - The Chas McDevitt Skiffle Group Ft. Nancy Whiskey - Face In The Rain.wav

Peak level 99.9 %
Extraction speed 5.6 X
Track quality 100.0 %
Test CRC 7F22B9F2
Copy CRC 7F22B9F2
Track not present in AccurateRip database
Copy OK

Track 26

Filename C:\Rips\Various Artists - Slow Grind Fever Volume 7 & 8 (2018) [FLAC]\26 - Debby Moore - I Get A Feeling.wav

Peak level 99.8 %
Extraction speed 4.2 X
Track quality 99.9 %
Test CRC 0EB5D72B
Copy CRC 0EB5D72B
Track not present in AccurateRip database
Copy OK

Track 27

Filename C:\Rips\Various Artists - Slow Grind Fever Volume 7 & 8 (2018) [FLAC]\27 - Eddie Cooley - Fever.wav

Peak level 99.8 %
Extraction speed 5.7 X
Track quality 100.0 %
Test CRC 1F62836E
Copy CRC 1F62836E
Track not present in AccurateRip database
Copy OK

Track 28

Filename C:\Rips\Various Artists - Slow Grind Fever Volume 7 & 8 (2018) [FLAC]\28 - Percy Mayfield - The Voice Within.wav

Peak level 99.9 %
Extraction speed 5.8 X
Track quality 100.0 %
Test CRC 2F702F46
Copy CRC 2F702F46
Track not present in AccurateRip database
Copy OK


None of the tracks are present in the AccurateRip database

No errors occurred

End of status report

–– CUETools DB Plugin V2.1.6

[CTDB TOCID: ZOPtf5wC.gLRjYZEpSE9oCZtwcg-] found
Submit result: ZOPtf5wC.gLRjYZEpSE9oCZtwcg- has been confirmed
Track | CTDB Status
1 | (1/1) Accurately ripped
2 | (1/1) Accurately ripped
3 | (1/1) Accurately ripped
4 | (1/1) Accurately ripped
5 | (1/1) Accurately ripped
6 | (1/1) Accurately ripped
7 | (1/1) Accurately ripped
8 | (1/1) Accurately ripped
9 | (1/1) Accurately ripped
10 | (1/1) Accurately ripped
11 | (1/1) Accurately ripped
12 | (1/1) Accurately ripped
13 | (1/1) Accurately ripped
14 | (1/1) Accurately ripped
15 | (1/1) Accurately ripped
16 | (1/1) Accurately ripped
17 | (1/1) Accurately ripped
18 | (1/1) Accurately ripped
19 | (1/1) Accurately ripped
20 | (1/1) Accurately ripped
21 | (1/1) Accurately ripped
22 | (1/1) Accurately ripped
23 | (1/1) Accurately ripped
24 | (1/1) Accurately ripped
25 | (1/1) Accurately ripped
26 | (1/1) Accurately ripped
27 | (1/1) Accurately ripped
28 | (1/1) Accurately ripped


==== Log checksum 37944F94BE983D680B44AC99935747829B45D2B99A77BF61BEEF27A84B6D8797 ====


Various Artists - Slow Grind Fever, Vol. 7 & 8 (2018) {Stag-O-Lee Records STAG-O-130}

Various Artists - Slow Grind Fever, Vol. 7 & 8 (2018) {Stag-O-Lee Records STAG-O-130}


see more Slow Grind Fever Series…


===