Tags
Language
Tags

VA - So Frenchy So Chic 2015 (2014)

Posted By: delpotro
VA - So Frenchy So Chic 2015 (2014)

VA - So Frenchy So Chic 2015 (2014)
EAC Rip | FLAC (tracks+log+.cue) | 01:48:55 | 681 Mb
Pop, Chanson, Indie | Label: Cartell Music

The brand is highly recognised with its distinctive packaging and quality music selection. It is the unofficial soundtrack to the French Film Festival, which attracted 135,000 people nationally in 2014 - making it the biggest foreign film festival in Australia. This January So Frenchy So Chic live concert will be held around the country attracting an estimated audience of 10,000+ in addition to extensive media coverage. The extremely popular So Frenchy So Chic series is back with 29 tracks that lift the spirits, from jazz to pop to electronica. Just say Ye-Ye! and hop on board. After years of successful compilation albums and tours, Cartell Music has the savoir faire to pick French musicians that Australian audiences love. Continuing the fabulous compilations of the past few years comes So Frenchy So Chic 2015, featuring an amazing lineup, including Emilie Simon, The Do, La Femme, Francois & The Atlas Mountains and more!
Tracklist:
Disc 1/01 - Cléa Vincent - Retiens mon désir
Disc 1/02 - Feu! Chatterton - La malinche
Disc 1/03 - Boogers - Running in the Flame
Disc 1/04 - La Féline - La fumée dans la ciel
Disc 1/05 - Marie-Flore - Empty Walls
Disc 1/06 - Raphael Gualazzi with Camille - L'amie d'un italien (Rainbows)
Disc 1/07 - Juniore - La Fin du monde
Disc 1/08 - Scarecrow - The Well
Disc 1/09 - MLCD (My Little Cheap Dictaphone) - Bitter Taste of Life
Disc 1/10 - The Dø - Opposite Ways
Disc 1/11 - Poom - Les voiles
Disc 1/12 - La Femme - It's Time to Wake Up (2023)
Disc 1/13 - Simon Dalmais - Soleil libre
Disc 1/14 - Coralie Clément - Un dimanche en hive

Disc 2/01 - Lucas Santtana featuring Féfé - Diary of a Bike
Disc 2/02 - Mina Tindle - The Curse
Disc 2/03 - Soviet Suprem - French Romance
Disc 2/04 - Cliché - En catimini
Disc 2/05 - Robi - On ne meurt plus d'amour
Disc 2/06 - Mark Berube - Carnival
Disc 2/07 - Radio Elvis - La traversée
Disc 2/08 - Jesus Christ Fashion Barbe - Finger Is On
Disc 2/09 - Arthur H - L'autre côté de la lune
Disc 2/10 - Odezenne - Rien
Disc 2/11 - Émilie Simon - Des larmes
Disc 2/12 - Kid Francescoli - Blow Up
Disc 2/13 - Feu! Chatterton - À l'aube
Disc 2/14 - Marie Modiano - Exeter
Disc 2/15 - Franck Monnet - Différents

Exact Audio Copy V1.3 from 2. September 2016

EAC extraction logfile from 12. November 2017, 21:12

Various Artists / So Frenchy So Chic 2015

Used drive : SlimtypeDVD A DS8A5SH Adapter: 1 ID: 1

Read mode : Secure
Utilize accurate stream : Yes
Defeat audio cache : Yes
Make use of C2 pointers : No

Read offset correction : 6
Overread into Lead-In and Lead-Out : No
Fill up missing offset samples with silence : Yes
Delete leading and trailing silent blocks : No
Null samples used in CRC calculations : Yes
Used interface : Native Win32 interface for Win NT & 2000
Gap handling : Appended to previous track

Used output format : User Defined Encoder
Selected bitrate : 896 kBit/s
Quality : High
Add ID3 tag : No
Command line compressor : C:\Program Files (x86)\Exact Audio Copy\Flac\flac.exe
Additional command line options : -8 -e -p -V -T "ARTIST=%artist%" -T "TITLE=%title%" -T "ALBUM=%albumtitle%" -T "DATE=%year%" -T "TRACKNUMBER=%tracknr%" -T "GENRE=%genre%" -T "PERFORMER=%albuminterpret%" -T "COMPOSER=%composer%" %haslyrics%–tag-from-file=LYRICS="%lyricsfile%"%haslyrics% -T "ALBUMARTIST=%albumartist%" -T "DISCNUMBER=%cdnumber%" -T "TOTALDISCS=%totalcds%" -T "TOTALTRACKS=%numtracks%" -T "COMMENT=%comment%" %source% -o %dest%


TOC of the extracted CD

Track | Start | Length | Start sector | End sector
––––––––––––––––––––––––––––-
1 | 0:00.00 | 3:39.10 | 0 | 16434
2 | 3:39.10 | 3:52.51 | 16435 | 33885
3 | 7:31.61 | 3:09.11 | 33886 | 48071
4 | 10:40.72 | 3:50.71 | 48072 | 65392
5 | 14:31.68 | 2:38.72 | 65393 | 77314
6 | 17:10.65 | 3:10.13 | 77315 | 91577
7 | 20:21.03 | 2:54.49 | 91578 | 104676
8 | 23:15.52 | 3:09.39 | 104677 | 118890
9 | 26:25.16 | 3:44.52 | 118891 | 135742
10 | 30:09.68 | 4:11.07 | 135743 | 154574
11 | 34:21.00 | 4:29.38 | 154575 | 174787
12 | 38:50.38 | 6:52.26 | 174788 | 205713
13 | 45:42.64 | 3:15.50 | 205714 | 220388
14 | 48:58.39 | 3:27.63 | 220389 | 235976


Track 1

Filename C:\tempan\Various Artists - So Frenchy So Chic 2015\Disc 1\01 - Cléa Vincent - Retiens mon désir.wav

Pre-gap length 0:00:02.00

Peak level 97.7 %
Extraction speed 0.9 X
Track quality 99.9 %
Test CRC 3AB840E9
Copy CRC 3AB840E9
Accurately ripped (confidence 3) [F7CC2880] (AR v2)
Copy OK

Track 2

Filename C:\tempan\Various Artists - So Frenchy So Chic 2015\Disc 1\02 - Feu! Chatterton - La malinche.wav

Peak level 98.8 %
Extraction speed 1.2 X
Track quality 100.0 %
Test CRC DDBD18DF
Copy CRC DDBD18DF
Accurately ripped (confidence 3) [84C9A5A2] (AR v2)
Copy OK

Track 3

Filename C:\tempan\Various Artists - So Frenchy So Chic 2015\Disc 1\03 - Boogers - Running in the Flame.wav

Peak level 86.2 %
Extraction speed 1.2 X
Track quality 100.0 %
Test CRC 52F511AC
Copy CRC 52F511AC
Accurately ripped (confidence 3) [F0A6FE09] (AR v2)
Copy OK

Track 4

Filename C:\tempan\Various Artists - So Frenchy So Chic 2015\Disc 1\04 - La Féline - La fumée dans la ciel.wav

Peak level 100.0 %
Extraction speed 1.4 X
Track quality 100.0 %
Test CRC 058AA21A
Copy CRC 058AA21A
Accurately ripped (confidence 3) [83C874E4] (AR v2)
Copy OK

Track 5

Filename C:\tempan\Various Artists - So Frenchy So Chic 2015\Disc 1\05 - Marie-Flore - Empty Walls.wav

Peak level 97.7 %
Extraction speed 1.3 X
Track quality 100.0 %
Test CRC 249B00CF
Copy CRC 249B00CF
Accurately ripped (confidence 3) [C8B4A849] (AR v2)
Copy OK

Track 6

Filename C:\tempan\Various Artists - So Frenchy So Chic 2015\Disc 1\06 - Raphael Gualazzi with Camille - L'amie d'un italien (Rainbows).wav

Peak level 94.4 %
Extraction speed 1.5 X
Track quality 100.0 %
Test CRC FA1FDBBE
Copy CRC FA1FDBBE
Accurately ripped (confidence 3) [75B23718] (AR v2)
Copy OK

Track 7

Filename C:\tempan\Various Artists - So Frenchy So Chic 2015\Disc 1\07 - Juniore - La Fin du monde.wav

Peak level 92.8 %
Extraction speed 1.5 X
Track quality 100.0 %
Test CRC 66F2A225
Copy CRC 66F2A225
Accurately ripped (confidence 3) [3183E1BA] (AR v2)
Copy OK

Track 8

Filename C:\tempan\Various Artists - So Frenchy So Chic 2015\Disc 1\08 - Scarecrow - The Well.wav

Peak level 100.0 %
Extraction speed 1.6 X
Track quality 100.0 %
Test CRC D57CDF72
Copy CRC D57CDF72
Accurately ripped (confidence 3) [72E2303D] (AR v2)
Copy OK

Track 9

Filename C:\tempan\Various Artists - So Frenchy So Chic 2015\Disc 1\09 - MLCD (My Little Cheap Dictaphone) - Bitter Taste of Life.wav

Peak level 95.4 %
Extraction speed 1.7 X
Track quality 100.0 %
Test CRC 3C038178
Copy CRC 3C038178
Accurately ripped (confidence 3) [76020E49] (AR v2)
Copy OK

Track 10

Filename C:\tempan\Various Artists - So Frenchy So Chic 2015\Disc 1\10 - The Dø - Opposite Ways.wav

Peak level 84.9 %
Extraction speed 1.8 X
Track quality 100.0 %
Test CRC EC64E277
Copy CRC EC64E277
Accurately ripped (confidence 3) [BA850D52] (AR v2)
Copy OK

Track 11

Filename C:\tempan\Various Artists - So Frenchy So Chic 2015\Disc 1\11 - Poom - Les voiles.wav

Peak level 88.5 %
Extraction speed 1.9 X
Track quality 100.0 %
Test CRC C9BBEF69
Copy CRC C9BBEF69
Accurately ripped (confidence 3) [80E0520E] (AR v2)
Copy OK

Track 12

Filename C:\tempan\Various Artists - So Frenchy So Chic 2015\Disc 1\12 - La Femme - It's Time to Wake Up (2023).wav

Peak level 100.0 %
Extraction speed 0.3 X
Track quality 99.9 %
Test CRC E4AF437F
Copy CRC E4AF437F
Accurately ripped (confidence 3) [C743022E] (AR v2)
Copy OK

Track 13

Filename C:\tempan\Various Artists - So Frenchy So Chic 2015\Disc 1\13 - Simon Dalmais - Soleil libre.wav

Peak level 98.8 %
Extraction speed 2.0 X
Track quality 100.0 %
Test CRC 7244A25E
Copy CRC 7244A25E
Accurately ripped (confidence 3) [BEF40DD6] (AR v2)
Copy OK

Track 14

Filename C:\tempan\Various Artists - So Frenchy So Chic 2015\Disc 1\14 - Coralie Clément - Un dimanche en hiver.wav

Peak level 100.0 %
Extraction speed 1.7 X
Track quality 99.9 %
Test CRC 0E67B005
Copy CRC 0E67B005
Accurately ripped (confidence 3) [ECF6E7B6] (AR v2)
Copy OK


All tracks accurately ripped

No errors occurred

End of status report

–– CUETools DB Plugin V2.1.6

[CTDB TOCID: V9JZOOxoJ.QMmfOSBnMy4gvyE84-] found
Submit result: V9JZOOxoJ.QMmfOSBnMy4gvyE84- has been confirmed
Track | CTDB Status
1 | (12/12) Accurately ripped
2 | (12/12) Accurately ripped
3 | (12/12) Accurately ripped
4 | (12/12) Accurately ripped
5 | (12/12) Accurately ripped
6 | (12/12) Accurately ripped
7 | (12/12) Accurately ripped
8 | (12/12) Accurately ripped
9 | (12/12) Accurately ripped
10 | (12/12) Accurately ripped
11 | (12/12) Accurately ripped
12 | (12/12) Accurately ripped
13 | (11/12) Accurately ripped
14 | (12/12) Accurately ripped


==== Log checksum 37CD29B55E15629194BADD4F781A644D57ED412365EC096DF30FB05989F9997F ====

Exact Audio Copy V1.3 from 2. September 2016

EAC extraction logfile from 12. November 2017, 22:54

Various Artists / So Frenchy So Chic 2015

Used drive : SlimtypeDVD A DS8A5SH Adapter: 1 ID: 1

Read mode : Secure
Utilize accurate stream : Yes
Defeat audio cache : Yes
Make use of C2 pointers : No

Read offset correction : 6
Overread into Lead-In and Lead-Out : No
Fill up missing offset samples with silence : Yes
Delete leading and trailing silent blocks : No
Null samples used in CRC calculations : Yes
Used interface : Native Win32 interface for Win NT & 2000
Gap handling : Appended to previous track

Used output format : User Defined Encoder
Selected bitrate : 896 kBit/s
Quality : High
Add ID3 tag : No
Command line compressor : C:\Program Files (x86)\Exact Audio Copy\Flac\flac.exe
Additional command line options : -8 -e -p -V -T "ARTIST=%artist%" -T "TITLE=%title%" -T "ALBUM=%albumtitle%" -T "DATE=%year%" -T "TRACKNUMBER=%tracknr%" -T "GENRE=%genre%" -T "PERFORMER=%albuminterpret%" -T "COMPOSER=%composer%" %haslyrics%–tag-from-file=LYRICS="%lyricsfile%"%haslyrics% -T "ALBUMARTIST=%albumartist%" -T "DISCNUMBER=%cdnumber%" -T "TOTALDISCS=%totalcds%" -T "TOTALTRACKS=%numtracks%" -T "COMMENT=%comment%" %source% -o %dest%


TOC of the extracted CD

Track | Start | Length | Start sector | End sector
––––––––––––––––––––––––––––-
1 | 0:00.00 | 3:55.16 | 0 | 17640
2 | 3:55.16 | 4:44.42 | 17641 | 38982
3 | 8:39.58 | 3:53.63 | 38983 | 56520
4 | 12:33.46 | 3:49.68 | 56521 | 73763
5 | 16:23.39 | 4:25.33 | 73764 | 93671
6 | 20:48.72 | 3:41.04 | 93672 | 110250
7 | 24:30.01 | 3:27.68 | 110251 | 125843
8 | 27:57.69 | 2:45.28 | 125844 | 138246
9 | 30:43.22 | 3:42.30 | 138247 | 154926
10 | 34:25.52 | 3:50.05 | 154927 | 172181
11 | 38:15.57 | 3:54.49 | 172182 | 189780
12 | 42:10.31 | 3:42.10 | 189781 | 206440
13 | 45:52.41 | 4:40.50 | 206441 | 227490
14 | 50:33.16 | 3:14.02 | 227491 | 242042
15 | 53:47.18 | 2:41.71 | 242043 | 254188


Track 1

Filename C:\tempan\Various Artists - So Frenchy So Chic 2015\Disc 2\01 - Lucas Santtana featuring Féfé - Diary of a Bike.wav

Pre-gap length 0:00:02.00

Peak level 94.0 %
Extraction speed 1.1 X
Track quality 100.0 %
Test CRC 7EC11B6E
Copy CRC 7EC11B6E
Accurately ripped (confidence 3) [DAEDDB72] (AR v2)
Copy OK

Track 2

Filename C:\tempan\Various Artists - So Frenchy So Chic 2015\Disc 2\02 - Mina Tindle - The Curse.wav

Peak level 100.0 %
Extraction speed 1.2 X
Track quality 100.0 %
Test CRC 80846D27
Copy CRC 80846D27
Accurately ripped (confidence 3) [3ED6412D] (AR v2)
Copy OK

Track 3

Filename C:\tempan\Various Artists - So Frenchy So Chic 2015\Disc 2\03 - Soviet Suprem - French Romance.wav

Peak level 100.0 %
Extraction speed 1.3 X
Track quality 100.0 %
Test CRC C1CF5B6E
Copy CRC C1CF5B6E
Accurately ripped (confidence 3) [4D04ECC1] (AR v2)
Copy OK

Track 4

Filename C:\tempan\Various Artists - So Frenchy So Chic 2015\Disc 2\04 - Cliché - En catimini.wav

Peak level 99.0 %
Extraction speed 1.4 X
Track quality 100.0 %
Test CRC BE163755
Copy CRC BE163755
Accurately ripped (confidence 3) [B508B86D] (AR v2)
Copy OK

Track 5

Filename C:\tempan\Various Artists - So Frenchy So Chic 2015\Disc 2\05 - Robi - On ne meurt plus d'amour.wav

Peak level 99.4 %
Extraction speed 1.5 X
Track quality 100.0 %
Test CRC 2EAF979F
Copy CRC 2EAF979F
Accurately ripped (confidence 3) [C43BF9FF] (AR v2)
Copy OK

Track 6

Filename C:\tempan\Various Artists - So Frenchy So Chic 2015\Disc 2\06 - Mark Berube - Carnival.wav

Peak level 97.9 %
Extraction speed 1.6 X
Track quality 100.0 %
Test CRC 7246EE94
Copy CRC 7246EE94
Accurately ripped (confidence 3) [B4340C4D] (AR v2)
Copy OK

Track 7

Filename C:\tempan\Various Artists - So Frenchy So Chic 2015\Disc 2\07 - Radio Elvis - La traversée.wav

Peak level 98.0 %
Extraction speed 1.6 X
Track quality 100.0 %
Test CRC 75C93A5E
Copy CRC 75C93A5E
Accurately ripped (confidence 3) [62AA6BBB] (AR v2)
Copy OK

Track 8

Filename C:\tempan\Various Artists - So Frenchy So Chic 2015\Disc 2\08 - Jesus Christ Fashion Barbe - Finger Is On.wav

Peak level 97.7 %
Extraction speed 1.6 X
Track quality 100.0 %
Test CRC CE4F2159
Copy CRC CE4F2159
Accurately ripped (confidence 3) [DED9298E] (AR v2)
Copy OK

Track 9

Filename C:\tempan\Various Artists - So Frenchy So Chic 2015\Disc 2\09 - Arthur H - L'autre côté de la lune.wav

Peak level 89.1 %
Extraction speed 1.5 X
Track quality 99.9 %
Test CRC 32FAED81
Copy CRC 32FAED81
Accurately ripped (confidence 3) [7E5A7E90] (AR v2)
Copy OK

Track 10

Filename C:\tempan\Various Artists - So Frenchy So Chic 2015\Disc 2\10 - Odezenne - Rien.wav

Peak level 100.0 %
Extraction speed 1.6 X
Track quality 99.9 %
Test CRC 910080EC
Copy CRC 910080EC
Accurately ripped (confidence 3) [F8A8A4EB] (AR v2)
Copy OK

Track 11

Filename C:\tempan\Various Artists - So Frenchy So Chic 2015\Disc 2\11 - Émilie Simon - Des larmes.wav

Peak level 100.0 %
Extraction speed 1.9 X
Track quality 100.0 %
Test CRC 2C320948
Copy CRC 2C320948
Accurately ripped (confidence 3) [D1BFB655] (AR v2)
Copy OK

Track 12

Filename C:\tempan\Various Artists - So Frenchy So Chic 2015\Disc 2\12 - Kid Francescoli - Blow Up.wav

Peak level 98.9 %
Extraction speed 0.2 X
Track quality 100.0 %
Test CRC 2170495B
Copy CRC 2170495B
Accurately ripped (confidence 3) [2EA898E1] (AR v2)
Copy OK

Track 13

Filename C:\tempan\Various Artists - So Frenchy So Chic 2015\Disc 2\13 - Feu! Chatterton - À l'aube.wav

Peak level 88.9 %
Extraction speed 2.1 X
Track quality 100.0 %
Test CRC EF7E67A1
Copy CRC EF7E67A1
Accurately ripped (confidence 3) [584E6B82] (AR v2)
Copy OK

Track 14

Filename C:\tempan\Various Artists - So Frenchy So Chic 2015\Disc 2\14 - Marie Modiano - Exeter.wav

Peak level 99.4 %
Extraction speed 2.0 X
Track quality 100.0 %
Test CRC B1E12561
Copy CRC B1E12561
Accurately ripped (confidence 3) [6A4A91BE] (AR v2)
Copy OK

Track 15

Filename C:\tempan\Various Artists - So Frenchy So Chic 2015\Disc 2\15 - Franck Monnet - Différents.wav

Peak level 99.7 %
Extraction speed 2.0 X
Track quality 100.0 %
Test CRC EC641E11
Copy CRC EC641E11
Accurately ripped (confidence 3) [B6533F4E] (AR v2)
Copy OK


All tracks accurately ripped

No errors occurred

End of status report

–– CUETools DB Plugin V2.1.6

[CTDB TOCID: Yq.efPmIAH7YGWh7ddtYp1YOS_0-] found
Submit result: Yq.efPmIAH7YGWh7ddtYp1YOS_0- has been confirmed
Track | CTDB Status
1 | (12/12) Accurately ripped
2 | (12/12) Accurately ripped
3 | (12/12) Accurately ripped
4 | (12/12) Accurately ripped
5 | (12/12) Accurately ripped
6 | (12/12) Accurately ripped
7 | (12/12) Accurately ripped
8 | (12/12) Accurately ripped
9 | (12/12) Accurately ripped
10 | (12/12) Accurately ripped
11 | (12/12) Accurately ripped
12 | (11/12) Accurately ripped
13 | (12/12) Accurately ripped
14 | (12/12) Accurately ripped
15 | (12/12) Accurately ripped


==== Log checksum 0EDB4AA44038EF2F4DC689C86EAF67945C66ED8855583EADED6817011407165C ====

Thanks to the Original ripper tempan !