Tags
Language
Tags

VA - So Frenchy So Chic 2016 (2015)

Posted By: delpotro
VA - So Frenchy So Chic 2016 (2015)

VA - So Frenchy So Chic 2016 (2015)
EAC Rip | FLAC (tracks+log+.cue) | 01:45:49 | 637 Mb
Pop, Chanson, Indie | Label: Cartell Music

LIKE an early taste of summer, the new double CD compilation of ‘So Frenchy So Chic’ is here, with yet another great line up. Now is the chance to hear some of the musical acts who will appear at the January picnic parties in Melbourne and Sydney, such as Lou Doillon, who will be playing songs from her highly acclaimed folk rock record ‘Lay Low’. There is also the wonderful voice of the Franco-Moroccan singer Hindi Zahra, whose music is drenched in a hypnotic world blues universe.

Other highlights include the psychedelic garage pop sounds of The Limiñanas and Juniore, the funky attitude of Minuit and Hollysiz (the half-sister of actor Vincent Cassel), the unclassifiable jazzy universe of Bumcello and the raw electronic poetry of Aaron with a song called ‘Blouson Noir’ (don’t miss the beautiful video featuring John Malkovich).

There is much more to discover here, with a songs that will inspire you or make you want to dance. This is a chance for Australian listeners to discover an entirely new generation of French artists and bands such as Christine and the Queens, Marc Di Malta or Zoufris Maracas. Packed into an elegantly illustrated cover by Sarah Hankinson, this double album shows in thirty tracks the vitality and the diversity of the French pop scene today. More than ever, ‘So Frenchy So Chic 2016’ defines the idea of joie de vivre with, to quote Bumcello, a certain ‘je ne sais quality’ floating in the air.
Tracklist:
CD1:
01. Juniore - Marabout 3:46
02. The Liminanas - Je ne suis pas tres drogue 2:51
03. Baptiste W. Hamon & Alma Forrer - Peut-etre que nous serions heureux 2:53
04. Lou Doillon - Lay Low 2:49
05. Bumcello - Je ne sais quality 3:56
06. Nicolas Michaux - A la vie, a la mort 3:12
07. Isaac Delusion - Midnight Sun 3:52
08. Bertrand Belin - Folle folle folle 3:03
09. Vianney - Je te deteste 3:57
10. Sages comme des sauvages - Paris defend 3:16
11. Comme des rames - Comme des rames 3:43
12. Nord - Elle voudrait 3:28
13. Flavien Berger - Gravite 3:16
14. Alice on the roof - Easy Come Easy Go 3:31
15. Aaron - Blouson noir 4:36

CD2:
01. Minuit - Flash 3:14
02. Pony - L'amour l'argent 3:16
03. Camelia Jordana - A l'aveuglette 3:31
04. Brigitte - Oh Charlie cheri 3:48
05. Jain - Come 2:41
06. Yael Naim - I Walk Until 3:01
07. Marc Di Malta - Enfume 2:07
08. Hindi Zahra - To the Forces 4:39
09. Zoufris Maracas - Chienne de vie 4:44
10. Luce - Polka 2:59
11. Hollysiz - Better Than Yesterday 2:47
12. Broken Back - Happiest Man on Earth 3:03
13. Mansfield.TYA - Le monde du silence 3:49
14. Christine and the Queens - Paradis perdus 3:33
15. Radio Elvis - Goliath 6:15

Exact Audio Copy V1.3 from 2. September 2016

EAC extraction logfile from 25. November 2017, 3:35

Various Artists / So Frenchy So Chic 2016

Used drive : SlimtypeDVD A DS8A5SH Adapter: 1 ID: 1

Read mode : Secure
Utilize accurate stream : Yes
Defeat audio cache : Yes
Make use of C2 pointers : No

Read offset correction : 6
Overread into Lead-In and Lead-Out : No
Fill up missing offset samples with silence : Yes
Delete leading and trailing silent blocks : No
Null samples used in CRC calculations : Yes
Used interface : Native Win32 interface for Win NT & 2000
Gap handling : Appended to previous track

Used output format : User Defined Encoder
Selected bitrate : 896 kBit/s
Quality : High
Add ID3 tag : No
Command line compressor : C:\Program Files (x86)\Exact Audio Copy\Flac\flac.exe
Additional command line options : -8 -e -p -V -T "ARTIST=%artist%" -T "TITLE=%title%" -T "ALBUM=%albumtitle%" -T "DATE=%year%" -T "TRACKNUMBER=%tracknr%" -T "GENRE=%genre%" -T "PERFORMER=%albuminterpret%" -T "COMPOSER=%composer%" %haslyrics%–tag-from-file=LYRICS="%lyricsfile%"%haslyrics% -T "ALBUMARTIST=%albumartist%" -T "DISCNUMBER=%cdnumber%" -T "TOTALDISCS=%totalcds%" -T "TOTALTRACKS=%numtracks%" -T "COMMENT=%comment%" %source% -o %dest%


TOC of the extracted CD

Track | Start | Length | Start sector | End sector
––––––––––––––––––––––––––––-
1 | 0:00.00 | 3:46.08 | 0 | 16957
2 | 3:46.08 | 2:51.43 | 16958 | 29825
3 | 6:37.51 | 2:53.22 | 29826 | 42822
4 | 9:30.73 | 2:49.67 | 42823 | 55564
5 | 12:20.65 | 3:56.32 | 55565 | 73296
6 | 16:17.22 | 3:12.25 | 73297 | 87721
7 | 19:29.47 | 3:52.51 | 87722 | 105172
8 | 23:22.23 | 3:03.17 | 105173 | 118914
9 | 26:25.40 | 3:57.07 | 118915 | 136696
10 | 30:22.47 | 3:16.68 | 136697 | 151464
11 | 33:39.40 | 3:43.15 | 151465 | 168204
12 | 37:22.55 | 3:28.36 | 168205 | 183840
13 | 40:51.16 | 3:16.04 | 183841 | 198544
14 | 44:07.20 | 3:31.37 | 198545 | 214406
15 | 47:38.57 | 4:36.64 | 214407 | 235170


Track 1

Filename C:\tempan\Various Artists - So Frenchy So Chic 2016\Disc 1\01 - Juniore - Marabout.wav

Pre-gap length 0:00:02.00

Peak level 87.6 %
Extraction speed 0.9 X
Track quality 99.9 %
Test CRC E5008D4E
Copy CRC E5008D4E
Accurately ripped (confidence 1) [D7C7E21C] (AR v2)
Copy OK

Track 2

Filename C:\tempan\Various Artists - So Frenchy So Chic 2016\Disc 1\02 - The Limiñanas - Je ne suis pas très drogue.wav

Peak level 100.0 %
Extraction speed 1.1 X
Track quality 100.0 %
Test CRC CD5E6E70
Copy CRC CD5E6E70
Accurately ripped (confidence 1) [0756EA3A] (AR v2)
Copy OK

Track 3

Filename C:\tempan\Various Artists - So Frenchy So Chic 2016\Disc 1\03 - Baptiste W. Hamon & Alma Forrer - Peut-être que nous serions heureux.wav

Peak level 92.1 %
Extraction speed 1.0 X
Track quality 99.9 %
Test CRC 3129C006
Copy CRC 3129C006
Accurately ripped (confidence 1) [B33FF1E0] (AR v2)
Copy OK

Track 4

Filename C:\tempan\Various Artists - So Frenchy So Chic 2016\Disc 1\04 - Lou Doillon - Lay Low.wav

Peak level 91.0 %
Extraction speed 1.2 X
Track quality 100.0 %
Test CRC CAECC411
Copy CRC CAECC411
Accurately ripped (confidence 1) [40A57B8E] (AR v2)
Copy OK

Track 5

Filename C:\tempan\Various Artists - So Frenchy So Chic 2016\Disc 1\05 - Bumcello - Je ne sais quality.wav

Peak level 77.5 %
Extraction speed 1.4 X
Track quality 100.0 %
Test CRC 8B36E198
Copy CRC 8B36E198
Accurately ripped (confidence 1) [5B52DA7D] (AR v2)
Copy OK

Track 6

Filename C:\tempan\Various Artists - So Frenchy So Chic 2016\Disc 1\06 - Nicolas Michaux - À la vie, à la mort.wav

Peak level 100.0 %
Extraction speed 1.4 X
Track quality 100.0 %
Test CRC 8506ABB9
Copy CRC 8506ABB9
Accurately ripped (confidence 1) [E0654DEF] (AR v2)
Copy OK

Track 7

Filename C:\tempan\Various Artists - So Frenchy So Chic 2016\Disc 1\07 - Isaac Delusion - Midnight Sun.wav

Peak level 87.0 %
Extraction speed 1.6 X
Track quality 100.0 %
Test CRC E6052C3F
Copy CRC E6052C3F
Accurately ripped (confidence 1) [E761152C] (AR v2)
Copy OK

Track 8

Filename C:\tempan\Various Artists - So Frenchy So Chic 2016\Disc 1\08 - Bertrand Belin - Folle folle folle.wav

Peak level 99.0 %
Extraction speed 1.3 X
Track quality 99.9 %
Test CRC AB780669
Copy CRC AB780669
Accurately ripped (confidence 1) [176EEE71] (AR v2)
Copy OK

Track 9

Filename C:\tempan\Various Artists - So Frenchy So Chic 2016\Disc 1\09 - Vianney - Je te déteste.wav

Peak level 83.3 %
Extraction speed 1.7 X
Track quality 100.0 %
Test CRC 1499E378
Copy CRC 1499E378
Accurately ripped (confidence 1) [3CED8748] (AR v2)
Copy OK

Track 10

Filename C:\tempan\Various Artists - So Frenchy So Chic 2016\Disc 1\10 - Sages comme des sauvages - Paris défend.wav

Peak level 98.8 %
Extraction speed 1.7 X
Track quality 100.0 %
Test CRC 1670B065
Copy CRC 1670B065
Accurately ripped (confidence 1) [1C81102C] (AR v2)
Copy OK

Track 11

Filename C:\tempan\Various Artists - So Frenchy So Chic 2016\Disc 1\11 - Klô Pelgag - Comme des rames.wav

Peak level 100.0 %
Extraction speed 1.8 X
Track quality 100.0 %
Test CRC 1BC7ACCC
Copy CRC 1BC7ACCC
Accurately ripped (confidence 1) [032E4DD0] (AR v2)
Copy OK

Track 12

Filename C:\tempan\Various Artists - So Frenchy So Chic 2016\Disc 1\12 - Nord - Elle voudrait.wav

Peak level 92.5 %
Extraction speed 1.6 X
Track quality 99.9 %
Test CRC 76C7ED51
Copy CRC 76C7ED51
Accurately ripped (confidence 1) [742A80E8] (AR v2)
Copy OK

Track 13

Filename C:\tempan\Various Artists - So Frenchy So Chic 2016\Disc 1\13 - Flavien Berger - Gravité.wav

Peak level 94.1 %
Extraction speed 0.1 X
Track quality 100.0 %
Test CRC F729CBAF
Copy CRC F729CBAF
Accurately ripped (confidence 1) [0B788623] (AR v2)
Copy OK

Track 14

Filename C:\tempan\Various Artists - So Frenchy So Chic 2016\Disc 1\14 - Alice on the roof - Easy Come Easy Go.wav

Peak level 99.9 %
Extraction speed 1.7 X
Track quality 99.9 %
Test CRC 22E811C4
Copy CRC 22E811C4
Accurately ripped (confidence 1) [C0C5185D] (AR v2)
Copy OK

Track 15

Filename C:\tempan\Various Artists - So Frenchy So Chic 2016\Disc 1\15 - AaRON - Blouson noir.wav

Peak level 82.9 %
Extraction speed 2.1 X
Track quality 100.0 %
Test CRC EEA8C000
Copy CRC EEA8C000
Accurately ripped (confidence 1) [B87C0373] (AR v2)
Copy OK


All tracks accurately ripped

No errors occurred

End of status report

–– CUETools DB Plugin V2.1.6

[CTDB TOCID: tWSqLK7IgzfK5SOd7VWQ3bipoUE-] found
Submit result: tWSqLK7IgzfK5SOd7VWQ3bipoUE- has been confirmed
Track | CTDB Status
1 | (10/10) Accurately ripped
2 | (10/10) Accurately ripped
3 | ( 9/10) Accurately ripped
4 | (10/10) Accurately ripped
5 | (10/10) Accurately ripped
6 | (10/10) Accurately ripped
7 | (10/10) Accurately ripped
8 | ( 9/10) Accurately ripped
9 | (10/10) Accurately ripped
10 | (10/10) Accurately ripped
11 | (10/10) Accurately ripped
12 | (10/10) Accurately ripped
13 | (10/10) Accurately ripped
14 | ( 9/10) Accurately ripped
15 | (10/10) Accurately ripped


==== Log checksum 55AAA30E10C658B8EB52F5164FBAC5708E3B423DD0AEF07D0B496BA70F72B5EB ====

Exact Audio Copy V1.3 from 2. September 2016

EAC extraction logfile from 25. November 2017, 9:22

Various Artists / So Frenchy So Chic 2016

Used drive : SlimtypeDVD A DS8A5SH Adapter: 1 ID: 1

Read mode : Secure
Utilize accurate stream : Yes
Defeat audio cache : Yes
Make use of C2 pointers : No

Read offset correction : 6
Overread into Lead-In and Lead-Out : No
Fill up missing offset samples with silence : Yes
Delete leading and trailing silent blocks : No
Null samples used in CRC calculations : Yes
Used interface : Native Win32 interface for Win NT & 2000
Gap handling : Appended to previous track

Used output format : User Defined Encoder
Selected bitrate : 896 kBit/s
Quality : High
Add ID3 tag : No
Command line compressor : C:\Program Files (x86)\Exact Audio Copy\Flac\flac.exe
Additional command line options : -8 -e -p -V -T "ARTIST=%artist%" -T "TITLE=%title%" -T "ALBUM=%albumtitle%" -T "DATE=%year%" -T "TRACKNUMBER=%tracknr%" -T "GENRE=%genre%" -T "PERFORMER=%albuminterpret%" -T "COMPOSER=%composer%" %haslyrics%–tag-from-file=LYRICS="%lyricsfile%"%haslyrics% -T "ALBUMARTIST=%albumartist%" -T "DISCNUMBER=%cdnumber%" -T "TOTALDISCS=%totalcds%" -T "TOTALTRACKS=%numtracks%" -T "COMMENT=%comment%" %source% -o %dest%


TOC of the extracted CD

Track | Start | Length | Start sector | End sector
––––––––––––––––––––––––––––-
1 | 0:00.00 | 3:14.61 | 0 | 14610
2 | 3:14.61 | 3:16.07 | 14611 | 29317
3 | 6:30.68 | 3:31.18 | 29318 | 45160
4 | 10:02.11 | 3:48.54 | 45161 | 62314
5 | 13:50.65 | 2:41.20 | 62315 | 74409
6 | 16:32.10 | 3:01.21 | 74410 | 88005
7 | 19:33.31 | 2:07.37 | 88006 | 97567
8 | 21:40.68 | 4:39.34 | 97568 | 118526
9 | 26:20.27 | 4:44.63 | 118527 | 139889
10 | 31:05.15 | 2:59.24 | 139890 | 153338
11 | 34:04.39 | 2:47.00 | 153339 | 165863
12 | 36:51.39 | 3:03.39 | 165864 | 179627
13 | 39:55.03 | 3:49.21 | 179628 | 196823
14 | 43:44.24 | 3:33.74 | 196824 | 212872
15 | 47:18.23 | 6:15.50 | 212873 | 241047


Track 1

Filename C:\tempan\Various Artists - So Frenchy So Chic 2016\Disc 2\01 - Minuit - Flash.wav

Pre-gap length 0:00:02.00

Peak level 95.9 %
Extraction speed 1.0 X
Track quality 100.0 %
Test CRC 0A0F0791
Copy CRC 0A0F0791
Accurately ripped (confidence 1) [97B862AB] (AR v2)
Copy OK

Track 2

Filename C:\tempan\Various Artists - So Frenchy So Chic 2016\Disc 2\02 - PONY - L'amour argent.wav

Peak level 94.8 %
Extraction speed 1.1 X
Track quality 100.0 %
Test CRC 0715F184
Copy CRC 0715F184
Accurately ripped (confidence 1) [0BA229BC] (AR v2)
Copy OK

Track 3

Filename C:\tempan\Various Artists - So Frenchy So Chic 2016\Disc 2\03 - Camélia Jordana - À l'aveuglette.wav

Peak level 99.0 %
Extraction speed 1.2 X
Track quality 100.0 %
Test CRC C0176966
Copy CRC C0176966
Accurately ripped (confidence 1) [D1449C8F] (AR v2)
Copy OK

Track 4

Filename C:\tempan\Various Artists - So Frenchy So Chic 2016\Disc 2\04 - Brigitte - Oh Charlie chéri.wav

Peak level 98.1 %
Extraction speed 1.2 X
Track quality 99.9 %
Test CRC 23FD03FD
Copy CRC 23FD03FD
Accurately ripped (confidence 1) [FF80B557] (AR v2)
Copy OK

Track 5

Filename C:\tempan\Various Artists - So Frenchy So Chic 2016\Disc 2\05 - Jain - Come.wav

Peak level 95.1 %
Extraction speed 1.3 X
Track quality 100.0 %
Test CRC 7A950308
Copy CRC 7A950308
Accurately ripped (confidence 1) [228C290B] (AR v2)
Copy OK

Track 6

Filename C:\tempan\Various Artists - So Frenchy So Chic 2016\Disc 2\06 - Yael Naïm - I Walk Until.wav

Peak level 97.7 %
Extraction speed 1.2 X
Track quality 99.9 %
Test CRC 06CB6A9D
Copy CRC 06CB6A9D
Accurately ripped (confidence 1) [7BA064BA] (AR v2)
Copy OK

Track 7

Filename C:\tempan\Various Artists - So Frenchy So Chic 2016\Disc 2\07 - Marc di Malta - Enfumé.wav

Peak level 82.9 %
Extraction speed 1.1 X
Track quality 99.9 %
Test CRC 7299A3F7
Copy CRC 7299A3F7
Accurately ripped (confidence 1) [B7EA5020] (AR v2)
Copy OK

Track 8

Filename C:\tempan\Various Artists - So Frenchy So Chic 2016\Disc 2\08 - Hindi Zahra - To the Forces.wav

Peak level 99.1 %
Extraction speed 1.6 X
Track quality 100.0 %
Test CRC 0B533EB5
Copy CRC 0B533EB5
Accurately ripped (confidence 1) [920F9AC8] (AR v2)
Copy OK

Track 9

Filename C:\tempan\Various Artists - So Frenchy So Chic 2016\Disc 2\09 - Zoufris Maracas - Chienne de vie.wav

Peak level 98.8 %
Extraction speed 1.6 X
Track quality 99.9 %
Test CRC B6B70883
Copy CRC B6B70883
Accurately ripped (confidence 1) [06B59A7A] (AR v2)
Copy OK

Track 10

Filename C:\tempan\Various Artists - So Frenchy So Chic 2016\Disc 2\10 - Luce - Polka.wav

Peak level 98.3 %
Extraction speed 1.7 X
Track quality 100.0 %
Test CRC FA6FB99A
Copy CRC FA6FB99A
Accurately ripped (confidence 1) [D63519D9] (AR v2)
Copy OK

Track 11

Filename C:\tempan\Various Artists - So Frenchy So Chic 2016\Disc 2\11 - HollySiz - Better Than Yesterday.wav

Peak level 100.0 %
Extraction speed 1.4 X
Track quality 99.9 %
Test CRC 5116E777
Copy CRC 5116E777
Accurately ripped (confidence 1) [883344FA] (AR v2)
Copy OK

Track 12

Filename C:\tempan\Various Artists - So Frenchy So Chic 2016\Disc 2\12 - Broken Back - Happiest Man on Earth.wav

Peak level 85.9 %
Extraction speed 1.8 X
Track quality 100.0 %
Test CRC D4F90896
Copy CRC D4F90896
Accurately ripped (confidence 1) [EDD3575D] (AR v2)
Copy OK

Track 13

Filename C:\tempan\Various Artists - So Frenchy So Chic 2016\Disc 2\13 - Mansfield.TYA - Le monde du silence.wav

Peak level 99.1 %
Extraction speed 0.2 X
Track quality 100.0 %
Test CRC 1D3759F8
Copy CRC 1D3759F8
Accurately ripped (confidence 1) [AB8C0F02] (AR v2)
Copy OK

Track 14

Filename C:\tempan\Various Artists - So Frenchy So Chic 2016\Disc 2\14 - Christine and the Queens - Paradis perdus.wav

Peak level 91.1 %
Extraction speed 2.0 X
Track quality 100.0 %
Test CRC F3209B71
Copy CRC F3209B71
Accurately ripped (confidence 1) [DFB30630] (AR v2)
Copy OK

Track 15

Filename C:\tempan\Various Artists - So Frenchy So Chic 2016\Disc 2\15 - Radio Elvis - Goliath.wav

Peak level 91.2 %
Extraction speed 2.2 X
Track quality 100.0 %
Test CRC 1BF8A8EE
Copy CRC 1BF8A8EE
Accurately ripped (confidence 1) [F0684CE5] (AR v2)
Copy OK


All tracks accurately ripped

No errors occurred

End of status report

–– CUETools DB Plugin V2.1.6

[CTDB TOCID: oeZTQoeEEiMHMqnD5Kv5vvwQe_s-] found
Submit result: oeZTQoeEEiMHMqnD5Kv5vvwQe_s- has been confirmed
Track | CTDB Status
1 | (10/10) Accurately ripped
2 | (10/10) Accurately ripped
3 | (10/10) Accurately ripped
4 | ( 9/10) Accurately ripped
5 | ( 9/10) Accurately ripped
6 | ( 9/10) Accurately ripped
7 | (10/10) Accurately ripped
8 | (10/10) Accurately ripped
9 | ( 9/10) Accurately ripped
10 | (10/10) Accurately ripped
11 | (10/10) Accurately ripped
12 | (10/10) Accurately ripped
13 | (10/10) Accurately ripped
14 | (10/10) Accurately ripped
15 | (10/10) Accurately ripped


==== Log checksum 62CB49737A542CDD515954FEE88B6221CBFB86213DDBEC4E4139B351B04D1BC6 ====

Thanks to the Original ripper tempan !