Tags
Language
Tags

VA - So Frenchy So Chic: The Best of French Sounds (2016)

Posted By: delpotro
VA - So Frenchy So Chic: The Best of French Sounds (2016)

VA - So Frenchy So Chic: The Best of French Sounds (2016)
EAC Rip | FLAC (tracks+log+.cue) | 02:18:57 | 866 Mb
Pop, Chanson, Pop Rock, Indie Pop | Label: Cartell Music

This perennially popular annual compilation had Australia listening to Camille before she became a JJJ darling, Fade Out Line before The Avener’s remix topped charts across Europe, Yael Naim’s New Soul before it became the soundtrack to Apple’s MacBook Air, and to Lilly Wood and the Prick ahead of Prayer C becoming an international hit. Dancing, hanging out with friends, enjoying sunny afternoons in the garden with a glass of Champagne in hand; So Frenchy has been a soundtrack of musical joie de vivre. And now, to celebrate a decade of friendship, its curators have carefully culled its whopping 360-song playlist down to the very best of the best.
Tracklist:
Disc 1
1. Barbara Carlotti – Cannes
2. Françoiz Breut – La Certitude
3. M – Qui de nous deux
4. General Elektriks – Tu M’intrigues
5. Cvantez – Beaucoup Plus Que Moi
6. Jérémie Kisling – Les Abeilles
7. Keren Ann – End Of May
8. La Maison Tellier – Delta
9. Julien Ribot – La Nuit
10. Bertrand Belin – Un Déluge
11. Cyrz – Melimelopee
12. Féloche – Silbo
13. Phoebe Killdeer & The Short Straws – The Fade Out Line
14. Albin de la Simone – Mes épaules
15. Cocoon – On My Way
16. Revolver – Get Around Town
17. Yael Naim – New Soul
18. Bertrand Betsch – J’aime Bien
19. Anis – Dans Tes Yeux
20. Sébastien Tellier – La Ritournelle

Disc 2
1. Felipecha – J’aime Dormir
2. Brigitte – Battez-vous
3. Mickael Furnon – Encore
4. Sophie Hunger – Round And Round
5. Laetitia Shériff – Baby Man
6. L – Jalouse
7. Don Cavalli – Temperamental
8. Mathieu Boogaerts – Come To Me
9. Babx – Naomi Aime
10. Djeuhdjoah & Lieutenant Nicholson – Cool L’etang
11. Ours – Quand Nina Est Saôule
12. Camille – Pâle Septembre
13. Nouvelle Vague – Bela Lugosi’s Dead
14. Jérôme Attal – Comme Elle Se Donne
15. Charlotte Etc. – Label société
16. David Lafore Cinq Têtes – Un Baiser, Une Bombe
17. Pauline Croze – T’es Beau
18. Mansfield.TYA – Pour Oublier Je Dors
19. Emilie Simon – Des Larmes
20. Nicolas Repac – La Nuit Mène Une Existence Obscure

Exact Audio Copy V1.3 from 2. September 2016

EAC extraction logfile from 2. September 2018, 15:20

Various / So Frenchy So Chic

Used drive : PIONEER DVD-RW DVR-219L Adapter: 1 ID: 0

Read mode : Secure
Utilize accurate stream : Yes
Defeat audio cache : Yes
Make use of C2 pointers : No

Read offset correction : 6
Overread into Lead-In and Lead-Out : No
Fill up missing offset samples with silence : Yes
Delete leading and trailing silent blocks : No
Null samples used in CRC calculations : Yes
Used interface : Native Win32 interface for Win NT & 2000
Gap handling : Appended to previous track

Used output format : User Defined Encoder
Selected bitrate : 128 kBit/s
Quality : High
Add ID3 tag : No
Command line compressor : F:\~\installs. OS, music, general software\Music\flac-1.3.1-win\flac-1.3.1-win\win64\flac.exe
Additional command line options : -8 -V -T "ARTIST=%artist%" -T "TITLE=%title%" -T "ALBUM=%albumtitle%" -T "COMPOSER=%composer%" -T "DATE=%year%" -T "TRACKNUMBER=%tracknr%" -T "TOTALTRACKS=%numtracks%" -T "GENRE=%genre%" -T "ALBUMARTIST=%albumartist%" -T "ALBUM ARTIST=%albumartist%" -T "COMMENT=EAC Secure Mode, Test & Copy, AccurateRip, FLAC -8" %source%


TOC of the extracted CD

Track | Start | Length | Start sector | End sector
––––––––––––––––––––––––––––-
1 | 0:00.00 | 2:30.24 | 0 | 11273
2 | 2:30.24 | 3:20.60 | 11274 | 26333
3 | 5:51.09 | 3:44.27 | 26334 | 43160
4 | 9:35.36 | 4:45.57 | 43161 | 64592
5 | 14:21.18 | 4:28.01 | 64593 | 84693
6 | 18:49.19 | 3:37.39 | 84694 | 101007
7 | 22:26.58 | 3:30.13 | 101008 | 116770
8 | 25:56.71 | 2:44.66 | 116771 | 129136
9 | 28:41.62 | 3:21.08 | 129137 | 144219
10 | 32:02.70 | 3:55.73 | 144220 | 161917
11 | 35:58.68 | 3:48.21 | 161918 | 179038
12 | 39:47.14 | 3:59.65 | 179039 | 197028
13 | 43:47.04 | 3:30.16 | 197029 | 212794
14 | 47:17.20 | 3:11.12 | 212795 | 227131
15 | 50:28.32 | 2:47.52 | 227132 | 239708
16 | 53:16.09 | 2:18.21 | 239709 | 250079
17 | 55:34.30 | 3:42.63 | 250080 | 266792
18 | 59:17.18 | 2:57.69 | 266793 | 280136
19 | 62:15.12 | 4:00.35 | 280137 | 298171
20 | 66:15.47 | 7:35.29 | 298172 | 332325


Track 1

Filename F:\Torrents\NW\mklink\2018\09\VA - So Frenchy So Chic (2016) [CARTELL 051] {CD - FLAC}\CD1\01 - Barbara Carlotti - Cannes.wav

Pre-gap length 0:00:02.00

Peak level 90.8 %
Extraction speed 2.3 X
Track quality 100.0 %
Test CRC D5E74E0D
Copy CRC D5E74E0D
Accurately ripped (confidence 1) [0D65BEE6] (AR v2)
Copy OK

Track 2

Filename F:\Torrents\NW\mklink\2018\09\VA - So Frenchy So Chic (2016) [CARTELL 051] {CD - FLAC}\CD1\02 - Francoiz Breut - La Certitude.wav

Peak level 98.7 %
Extraction speed 2.5 X
Track quality 100.0 %
Test CRC 4E4171B2
Copy CRC 4E4171B2
Accurately ripped (confidence 1) [44305DEB] (AR v2)
Copy OK

Track 3

Filename F:\Torrents\NW\mklink\2018\09\VA - So Frenchy So Chic (2016) [CARTELL 051] {CD - FLAC}\CD1\03 - M - Qui de nous deux.wav

Peak level 100.0 %
Extraction speed 2.6 X
Track quality 100.0 %
Test CRC 24776849
Copy CRC 24776849
Accurately ripped (confidence 1) [52283DA8] (AR v2)
Copy OK

Track 4

Filename F:\Torrents\NW\mklink\2018\09\VA - So Frenchy So Chic (2016) [CARTELL 051] {CD - FLAC}\CD1\04 - General Elektriks - Tu m'intrigues.wav

Peak level 100.0 %
Extraction speed 2.7 X
Track quality 100.0 %
Test CRC F5ABAF0A
Copy CRC F5ABAF0A
Accurately ripped (confidence 1) [9039839C] (AR v2)
Copy OK

Track 5

Filename F:\Torrents\NW\mklink\2018\09\VA - So Frenchy So Chic (2016) [CARTELL 051] {CD - FLAC}\CD1\05 - Cvantez - Beaucoup Plus Que Moi.wav

Peak level 96.2 %
Extraction speed 2.6 X
Track quality 100.0 %
Test CRC 52C25519
Copy CRC 52C25519
Accurately ripped (confidence 1) [359D717A] (AR v2)
Copy OK

Track 6

Filename F:\Torrents\NW\mklink\2018\09\VA - So Frenchy So Chic (2016) [CARTELL 051] {CD - FLAC}\CD1\06 - Jeremie Kisling - Les Abeilles.wav

Peak level 99.9 %
Extraction speed 2.6 X
Track quality 100.0 %
Test CRC AAD3C2A1
Copy CRC AAD3C2A1
Accurately ripped (confidence 1) [025E0F7D] (AR v2)
Copy OK

Track 7

Filename F:\Torrents\NW\mklink\2018\09\VA - So Frenchy So Chic (2016) [CARTELL 051] {CD - FLAC}\CD1\07 - Keren Ann - End of May.wav

Peak level 84.7 %
Extraction speed 2.2 X
Track quality 99.9 %
Test CRC 961168E2
Copy CRC 961168E2
Accurately ripped (confidence 1) [4AC9668E] (AR v2)
Copy OK

Track 8

Filename F:\Torrents\NW\mklink\2018\09\VA - So Frenchy So Chic (2016) [CARTELL 051] {CD - FLAC}\CD1\08 - La Maislon Tellier - Delta.wav

Peak level 84.7 %
Extraction speed 2.4 X
Track quality 100.0 %
Test CRC 12275332
Copy CRC 12275332
Accurately ripped (confidence 1) [F747718B] (AR v2)
Copy OK

Track 9

Filename F:\Torrents\NW\mklink\2018\09\VA - So Frenchy So Chic (2016) [CARTELL 051] {CD - FLAC}\CD1\09 - Julien Ribot - La Nuit.wav

Peak level 98.8 %
Extraction speed 2.5 X
Track quality 100.0 %
Test CRC E516D9C1
Copy CRC E516D9C1
Accurately ripped (confidence 1) [A5A8722D] (AR v2)
Copy OK

Track 10

Filename F:\Torrents\NW\mklink\2018\09\VA - So Frenchy So Chic (2016) [CARTELL 051] {CD - FLAC}\CD1\10 - Bertrand Belin - Un Deluge.wav

Peak level 88.5 %
Extraction speed 2.6 X
Track quality 100.0 %
Test CRC 52FB8833
Copy CRC 52FB8833
Accurately ripped (confidence 1) [DC20B164] (AR v2)
Copy OK

Track 11

Filename F:\Torrents\NW\mklink\2018\09\VA - So Frenchy So Chic (2016) [CARTELL 051] {CD - FLAC}\CD1\11 - Cyrz - Melimelopee.wav

Peak level 94.4 %
Extraction speed 2.6 X
Track quality 100.0 %
Test CRC 7A3F3619
Copy CRC 7A3F3619
Accurately ripped (confidence 1) [0FB6E38D] (AR v2)
Copy OK

Track 12

Filename F:\Torrents\NW\mklink\2018\09\VA - So Frenchy So Chic (2016) [CARTELL 051] {CD - FLAC}\CD1\12 - Feloche - Silbo.wav

Peak level 90.8 %
Extraction speed 2.6 X
Track quality 100.0 %
Test CRC 180F035B
Copy CRC 180F035B
Accurately ripped (confidence 1) [78A64836] (AR v2)
Copy OK

Track 13

Filename F:\Torrents\NW\mklink\2018\09\VA - So Frenchy So Chic (2016) [CARTELL 051] {CD - FLAC}\CD1\13 - Phoebe Killdeer & The Short Straws - The Fade Out Line.wav

Peak level 98.8 %
Extraction speed 2.6 X
Track quality 100.0 %
Test CRC 9FBF217E
Copy CRC 9FBF217E
Accurately ripped (confidence 1) [8240E40A] (AR v2)
Copy OK

Track 14

Filename F:\Torrents\NW\mklink\2018\09\VA - So Frenchy So Chic (2016) [CARTELL 051] {CD - FLAC}\CD1\14 - Albin de la Simone - Mes epaules.wav

Peak level 82.0 %
Extraction speed 2.5 X
Track quality 100.0 %
Test CRC 2F7F3B36
Copy CRC 2F7F3B36
Accurately ripped (confidence 1) [083F2974] (AR v2)
Copy OK

Track 15

Filename F:\Torrents\NW\mklink\2018\09\VA - So Frenchy So Chic (2016) [CARTELL 051] {CD - FLAC}\CD1\15 - Cocoon - On My Way.wav

Peak level 99.8 %
Extraction speed 2.4 X
Track quality 100.0 %
Test CRC F9B67ACA
Copy CRC F9B67ACA
Accurately ripped (confidence 1) [0CD408E1] (AR v2)
Copy OK

Track 16

Filename F:\Torrents\NW\mklink\2018\09\VA - So Frenchy So Chic (2016) [CARTELL 051] {CD - FLAC}\CD1\16 - Revolver - Get Around Town.wav

Peak level 87.4 %
Extraction speed 2.3 X
Track quality 100.0 %
Test CRC E7C04E06
Copy CRC E7C04E06
Accurately ripped (confidence 1) [5B200A56] (AR v2)
Copy OK

Track 17

Filename F:\Torrents\NW\mklink\2018\09\VA - So Frenchy So Chic (2016) [CARTELL 051] {CD - FLAC}\CD1\17 - Yael Naim - New Soul.wav

Peak level 100.0 %
Extraction speed 2.6 X
Track quality 100.0 %
Test CRC 08694C4D
Copy CRC 08694C4D
Accurately ripped (confidence 1) [54CB6C00] (AR v2)
Copy OK

Track 18

Filename F:\Torrents\NW\mklink\2018\09\VA - So Frenchy So Chic (2016) [CARTELL 051] {CD - FLAC}\CD1\18 - Bertrand Betsch - J'Aime Bien.wav

Peak level 100.0 %
Extraction speed 2.1 X
Track quality 99.9 %
Test CRC F4C6B054
Copy CRC F4C6B054
Accurately ripped (confidence 1) [D2D3F016] (AR v2)
Copy OK

Track 19

Filename F:\Torrents\NW\mklink\2018\09\VA - So Frenchy So Chic (2016) [CARTELL 051] {CD - FLAC}\CD1\19 - Anis - Dans Tes Yeux.wav

Peak level 100.0 %
Extraction speed 2.6 X
Track quality 100.0 %
Test CRC 6BCC7863
Copy CRC 6BCC7863
Accurately ripped (confidence 1) [1962E5B4] (AR v2)
Copy OK

Track 20

Filename F:\Torrents\NW\mklink\2018\09\VA - So Frenchy So Chic (2016) [CARTELL 051] {CD - FLAC}\CD1\20 - Sebastien Tellier - La Ritournelle.wav

Peak level 99.2 %
Extraction speed 2.8 X
Track quality 100.0 %
Test CRC BE4648C6
Copy CRC BE4648C6
Accurately ripped (confidence 1) [56246BA7] (AR v2)
Copy OK


All tracks accurately ripped

No errors occurred

End of status report

–– CUETools DB Plugin V2.1.6

[CTDB TOCID: HCLr9NSGy2Ghyl8_ZYJcBaxIRhc-] found
Submit result: HCLr9NSGy2Ghyl8_ZYJcBaxIRhc- has been confirmed
Track | CTDB Status
1 | (6/6) Accurately ripped
2 | (6/6) Accurately ripped
3 | (6/6) Accurately ripped
4 | (6/6) Accurately ripped
5 | (6/6) Accurately ripped
6 | (6/6) Accurately ripped
7 | (6/6) Accurately ripped
8 | (6/6) Accurately ripped
9 | (6/6) Accurately ripped
10 | (6/6) Accurately ripped
11 | (6/6) Accurately ripped
12 | (6/6) Accurately ripped
13 | (6/6) Accurately ripped
14 | (6/6) Accurately ripped
15 | (6/6) Accurately ripped
16 | (6/6) Accurately ripped
17 | (6/6) Accurately ripped
18 | (6/6) Accurately ripped
19 | (6/6) Accurately ripped
20 | (6/6) Accurately ripped


==== Log checksum 9354520AEE2B1E6269525B33AF97140954989086BBDF15BC37BFD2A0269FE1D0 ====

Exact Audio Copy V1.3 from 2. September 2016

EAC extraction logfile from 2. September 2018, 17:05

Various / So Frenchy So Chic

Used drive : PIONEER DVD-RW DVR-219L Adapter: 1 ID: 0

Read mode : Secure
Utilize accurate stream : Yes
Defeat audio cache : Yes
Make use of C2 pointers : No

Read offset correction : 6
Overread into Lead-In and Lead-Out : No
Fill up missing offset samples with silence : Yes
Delete leading and trailing silent blocks : No
Null samples used in CRC calculations : Yes
Used interface : Native Win32 interface for Win NT & 2000
Gap handling : Appended to previous track

Used output format : User Defined Encoder
Selected bitrate : 128 kBit/s
Quality : High
Add ID3 tag : No
Command line compressor : F:\~\installs. OS, music, general software\Music\flac-1.3.1-win\flac-1.3.1-win\win64\flac.exe
Additional command line options : -8 -V -T "ARTIST=%artist%" -T "TITLE=%title%" -T "ALBUM=%albumtitle%" -T "COMPOSER=%composer%" -T "DATE=%year%" -T "TRACKNUMBER=%tracknr%" -T "TOTALTRACKS=%numtracks%" -T "GENRE=%genre%" -T "ALBUMARTIST=%albumartist%" -T "ALBUM ARTIST=%albumartist%" -T "COMMENT=EAC Secure Mode, Test & Copy, AccurateRip, FLAC -8" %source%


TOC of the extracted CD

Track | Start | Length | Start sector | End sector
––––––––––––––––––––––––––––-
1 | 0:00.00 | 2:41.58 | 0 | 12132
2 | 2:41.58 | 4:03.04 | 12133 | 30361
3 | 6:44.62 | 2:42.60 | 30362 | 42571
4 | 9:27.47 | 3:25.02 | 42572 | 57948
5 | 12:52.49 | 3:47.67 | 57949 | 75040
6 | 16:40.41 | 3:13.53 | 75041 | 89568
7 | 19:54.19 | 3:12.52 | 89569 | 104020
8 | 23:06.71 | 2:25.12 | 104021 | 114907
9 | 25:32.08 | 3:26.34 | 114908 | 130391
10 | 28:58.42 | 3:25.06 | 130392 | 145772
11 | 32:23.48 | 3:02.70 | 145773 | 159492
12 | 35:26.43 | 3:34.60 | 159493 | 175602
13 | 39:01.28 | 3:50.68 | 175603 | 192920
14 | 42:52.21 | 3:07.51 | 192921 | 206996
15 | 45:59.72 | 2:50.74 | 206997 | 219820
16 | 48:50.71 | 3:36.71 | 219821 | 236091
17 | 52:27.67 | 2:41.03 | 236092 | 248169
18 | 55:08.70 | 3:22.45 | 248170 | 263364
19 | 58:31.40 | 3:54.37 | 263365 | 280951
20 | 62:26.02 | 2:40.07 | 280952 | 292958


Track 1

Filename F:\Torrents\NW\mklink\2018\09\VA - So Frenchy So Chic (2016) [CARTELL 051] {CD - FLAC}\CD2\01 - Felipecha - J'aime dormir.wav

Pre-gap length 0:00:02.00

Peak level 95.6 %
Extraction speed 2.4 X
Track quality 100.0 %
Test CRC DDE90BB5
Copy CRC DDE90BB5
Accurately ripped (confidence 1) [42475728] (AR v2)
Copy OK

Track 2

Filename F:\Torrents\NW\mklink\2018\09\VA - So Frenchy So Chic (2016) [CARTELL 051] {CD - FLAC}\CD2\02 - Brigitte - Battez vous.wav

Peak level 100.0 %
Extraction speed 2.6 X
Track quality 100.0 %
Test CRC FD533A2B
Copy CRC FD533A2B
Accurately ripped (confidence 1) [9BE50C65] (AR v2)
Copy OK

Track 3

Filename F:\Torrents\NW\mklink\2018\09\VA - So Frenchy So Chic (2016) [CARTELL 051] {CD - FLAC}\CD2\03 - Mick Est Tout Seul - Encore.wav

Peak level 91.1 %
Extraction speed 2.5 X
Track quality 100.0 %
Test CRC 8177923F
Copy CRC 8177923F
Accurately ripped (confidence 1) [0891C472] (AR v2)
Copy OK

Track 4

Filename F:\Torrents\NW\mklink\2018\09\VA - So Frenchy So Chic (2016) [CARTELL 051] {CD - FLAC}\CD2\04 - Sophie Hunger - Round and Round.wav

Peak level 99.9 %
Extraction speed 2.6 X
Track quality 100.0 %
Test CRC DE6AB9D4
Copy CRC DE6AB9D4
Accurately ripped (confidence 1) [D998F1B9] (AR v2)
Copy OK

Track 5

Filename F:\Torrents\NW\mklink\2018\09\VA - So Frenchy So Chic (2016) [CARTELL 051] {CD - FLAC}\CD2\05 - Laetitia Sheriff - Baby Man.wav

Peak level 99.5 %
Extraction speed 2.6 X
Track quality 100.0 %
Test CRC 42EC1E4E
Copy CRC 42EC1E4E
Accurately ripped (confidence 1) [FFF4179E] (AR v2)
Copy OK

Track 6

Filename F:\Torrents\NW\mklink\2018\09\VA - So Frenchy So Chic (2016) [CARTELL 051] {CD - FLAC}\CD2\06 - L - Jalouse.wav

Peak level 94.4 %
Extraction speed 2.5 X
Track quality 100.0 %
Test CRC 812DE5C6
Copy CRC 812DE5C6
Accurately ripped (confidence 1) [2F10799D] (AR v2)
Copy OK

Track 7

Filename F:\Torrents\NW\mklink\2018\09\VA - So Frenchy So Chic (2016) [CARTELL 051] {CD - FLAC}\CD2\07 - Don Cavalli - Temperamental.wav

Peak level 93.7 %
Extraction speed 2.5 X
Track quality 100.0 %
Test CRC EA2F2A18
Copy CRC EA2F2A18
Accurately ripped (confidence 1) [0E9339A1] (AR v2)
Copy OK

Track 8

Filename F:\Torrents\NW\mklink\2018\09\VA - So Frenchy So Chic (2016) [CARTELL 051] {CD - FLAC}\CD2\08 - Mathieu Boogaerts - Come To Me.wav

Peak level 100.0 %
Extraction speed 2.4 X
Track quality 100.0 %
Test CRC 296F8FA0
Copy CRC 296F8FA0
Accurately ripped (confidence 1) [A66D108E] (AR v2)
Copy OK

Track 9

Filename F:\Torrents\NW\mklink\2018\09\VA - So Frenchy So Chic (2016) [CARTELL 051] {CD - FLAC}\CD2\09 - Babx - Naomi Aime.wav

Peak level 97.0 %
Extraction speed 2.2 X
Track quality 99.9 %
Test CRC C6B2C62D
Copy CRC C6B2C62D
Accurately ripped (confidence 1) [6DA08401] (AR v2)
Copy OK

Track 10

Filename F:\Torrents\NW\mklink\2018\09\VA - So Frenchy So Chic (2016) [CARTELL 051] {CD - FLAC}\CD2\10 - DjeuhDjoah & Lieutenant Nicholson - Cool L'etang.wav

Peak level 83.1 %
Extraction speed 2.5 X
Track quality 100.0 %
Test CRC F327372A
Copy CRC F327372A
Accurately ripped (confidence 1) [CF713417] (AR v2)
Copy OK

Track 11

Filename F:\Torrents\NW\mklink\2018\09\VA - So Frenchy So Chic (2016) [CARTELL 051] {CD - FLAC}\CD2\11 - Ours - Quand Nina Est Saoule.wav

Peak level 98.8 %
Extraction speed 2.1 X
Track quality 99.9 %
Test CRC 431B0DF3
Copy CRC 431B0DF3
Accurately ripped (confidence 1) [7A0090EB] (AR v2)
Copy OK

Track 12

Filename F:\Torrents\NW\mklink\2018\09\VA - So Frenchy So Chic (2016) [CARTELL 051] {CD - FLAC}\CD2\12 - Camille - Pale Septembre.wav

Peak level 98.1 %
Extraction speed 2.2 X
Track quality 99.9 %
Test CRC 621FFCCC
Copy CRC 621FFCCC
Accurately ripped (confidence 1) [FAC2A4C1] (AR v2)
Copy OK

Track 13

Filename F:\Torrents\NW\mklink\2018\09\VA - So Frenchy So Chic (2016) [CARTELL 051] {CD - FLAC}\CD2\13 - Nouvelle Vague - Bela Lugosi's Dead.wav

Peak level 97.9 %
Extraction speed 2.6 X
Track quality 100.0 %
Test CRC 275AB2F3
Copy CRC 275AB2F3
Accurately ripped (confidence 1) [13C60F88] (AR v2)
Copy OK

Track 14

Filename F:\Torrents\NW\mklink\2018\09\VA - So Frenchy So Chic (2016) [CARTELL 051] {CD - FLAC}\CD2\14 - Jerome Attal - Comme Elle Se Donne.wav

Peak level 87.4 %
Extraction speed 2.5 X
Track quality 100.0 %
Test CRC D992678E
Copy CRC D992678E
Accurately ripped (confidence 1) [8F7D4EFF] (AR v2)
Copy OK

Track 15

Filename F:\Torrents\NW\mklink\2018\09\VA - So Frenchy So Chic (2016) [CARTELL 051] {CD - FLAC}\CD2\15 - Charlotte etc - Label Societe.wav

Peak level 89.8 %
Extraction speed 2.1 X
Track quality 99.9 %
Test CRC F2E6C991
Copy CRC F2E6C991
Accurately ripped (confidence 1) [2F7E6187] (AR v2)
Copy OK

Track 16

Filename F:\Torrents\NW\mklink\2018\09\VA - So Frenchy So Chic (2016) [CARTELL 051] {CD - FLAC}\CD2\16 - David Lafore Cinq Tetes - Un Baiser Une Bombe.wav

Peak level 100.0 %
Extraction speed 2.6 X
Track quality 100.0 %
Test CRC 5774D677
Copy CRC 5774D677
Accurately ripped (confidence 1) [89E90CEC] (AR v2)
Copy OK

Track 17

Filename F:\Torrents\NW\mklink\2018\09\VA - So Frenchy So Chic (2016) [CARTELL 051] {CD - FLAC}\CD2\17 - Pauline Croze - T'es Beau.wav

Peak level 100.0 %
Extraction speed 2.4 X
Track quality 100.0 %
Test CRC 766A69D5
Copy CRC 766A69D5
Accurately ripped (confidence 1) [0CC91B9B] (AR v2)
Copy OK

Track 18

Filename F:\Torrents\NW\mklink\2018\09\VA - So Frenchy So Chic (2016) [CARTELL 051] {CD - FLAC}\CD2\18 - Mansfield TYA - Pour Oublier Je Dors.wav

Peak level 94.4 %
Extraction speed 2.5 X
Track quality 100.0 %
Test CRC A3F5687B
Copy CRC A3F5687B
Accurately ripped (confidence 1) [F35DFC83] (AR v2)
Copy OK

Track 19

Filename F:\Torrents\NW\mklink\2018\09\VA - So Frenchy So Chic (2016) [CARTELL 051] {CD - FLAC}\CD2\19 - Emilie Simon - Des Larmes.wav

Peak level 91.4 %
Extraction speed 2.6 X
Track quality 100.0 %
Test CRC EF354B2B
Copy CRC EF354B2B
Accurately ripped (confidence 1) [E488B529] (AR v2)
Copy OK

Track 20

Filename F:\Torrents\NW\mklink\2018\09\VA - So Frenchy So Chic (2016) [CARTELL 051] {CD - FLAC}\CD2\20 - Nicolas Repac - La nuit mene une existence obscure.wav

Peak level 99.3 %
Extraction speed 2.4 X
Track quality 100.0 %
Test CRC 3BDDC7B0
Copy CRC 3BDDC7B0
Accurately ripped (confidence 1) [D4F0F72D] (AR v2)
Copy OK


All tracks accurately ripped

No errors occurred

End of status report

–– CUETools DB Plugin V2.1.6

[CTDB TOCID: 4v6nwIMdOmboxkPDDwC.bqxl2NI-] found
Submit result: 4v6nwIMdOmboxkPDDwC.bqxl2NI- has been confirmed
Track | CTDB Status
1 | (8/8) Accurately ripped
2 | (8/8) Accurately ripped
3 | (8/8) Accurately ripped
4 | (8/8) Accurately ripped
5 | (8/8) Accurately ripped
6 | (8/8) Accurately ripped
7 | (8/8) Accurately ripped
8 | (8/8) Accurately ripped
9 | (8/8) Accurately ripped
10 | (8/8) Accurately ripped
11 | (8/8) Accurately ripped
12 | (8/8) Accurately ripped
13 | (8/8) Accurately ripped
14 | (8/8) Accurately ripped
15 | (8/8) Accurately ripped
16 | (8/8) Accurately ripped
17 | (8/8) Accurately ripped
18 | (8/8) Accurately ripped
19 | (8/8) Accurately ripped
20 | (8/8) Accurately ripped


==== Log checksum 472ED9A572095C9070D9A8BAA542D3928F16E14EFBE18A37B7D33F1C929D136E ====

Thanks to the Original ripper adeadcrab !