Tags
Language
Tags

Various Artists - The Trojan Ska Collection (2009) {2CD Set, Trojan--Sanctuary 1799203 rec 1961-1966} (Item 1of7)

Posted By: ruskaval
Various Artists - The Trojan Ska Collection (2009) {2CD Set, Trojan--Sanctuary 1799203 rec 1961-1966} (Item 1of7)

Various Artists - The Trojan Ska Collection (2009) {2CD Set, Trojan–Sanctuary 1799203 rec 1961-1966} (Item 1of7)
EAC rip (secure mode) | FLAC (tracks)+CUE+LOG -> 328 Mb | MP3 @320 -> 249 Mb
Full Artwork @ 600 dpi (png) -> 96 Mb | 5% repair rar
© 2009 Trojan Records / Sanctuary Records / Universal Music | 1799203
Ska / Reggae / Dub

The Style that inspired Two Tone in the late '70s and artists such as Lily Allen and Amy Winehouse today originated in Jamaica some 20 years earlier and this collection provides the perfect introduction to its irresistible rhythms. Included are some of the biggest hits of the era including 'I'm In The Mood For Love', 'The Tide Is High' and 'Train To Skaville' alongside other classic tracks by some of the genre's greatest exponents such as Tommy McCook, Derrick Morgan, Jimmy Cliff and many more.
Various Artists - The Trojan Ska Collection (2009) {2CD Set, Trojan--Sanctuary 1799203 rec 1961-1966} (Item 1of7)


TRACK LISTING:

Disc 1


01. Lord Tanamo / I'm In The Mood For Love - 02:31
02. Owen and Leon Silveras / Next Door Neighbor - 02:30
03. The Baba Brooks Band / Watermelon Man - 02:51
04. Desmond Dekker and The Four Aces / Get Up Edina - 02:41
05. Tommy McCook and The Skatalites / Silver Dollar - 02:57
06. Stranger and Patsy / When I Call Your Name - 03:16
07. Roland Alphonso / Blackberry Brandy - 02:46
08. Lloyd and Glen / Jezebel - 02:06
09. Carl Dawkins / Baby I Love You - 02:47
10. The Paragons / Happy Go Lucky Girl - 03:06
11. Derrick Morgan / No Raise No Praise - 02:48
12. Justin Hinds and The Dominoes / Carry Go Bring Come - 02:54
13. Alton Ellis and The Flames / Blessings Of Love - 02:26
14. Chuck and Dobby / I Don't Need Your Love - 02:51
15. Don Drummond / Don D. Lion - 02:08
16. Stranger Cole / Rough And Tough (Aka Ruff And Tuff) - 03:04
17. Eric 'Monty' Morris / Strongman Sampson - 02:37
18. Drumbago's Orchestra / Duck Soup - 02:38
19. The Rulers / Wrong Emboyo - 03:23
20. The Tartans / What Can I Say - 02:25

Various Artists - The Trojan Ska Collection (2009) {2CD Set, Trojan--Sanctuary 1799203 rec 1961-1966} (Item 1of7)


Disc 2

01. The Techniques / I'm So In Love With You - 02:32
02. Desmond Dekker and The Aces / 0.0.7 (Shanty Town) - 02:34
03. Owen and Leon Silveras / Want Me Cock - 02:13
04. Lord Tanamo / Iron Bar - 02:16
05. Jimmy Cliff / Miss Jamaica - 02:23
06. The Baba Brooks Band / One Eyed Giant - 03:07
07. Rico / Let George Do It - 03:13
08. Justin Hinds and The Dominoes / Over The River - 02:23
09. Eric 'Monty' Morris / If I Didn't Love You - 02:41
10. Derrick Morgan / Blazing Fire - 02:56
11. Tommy McCook and The Supersonics / Doctor Zhivago (Lara's Theme) - 02:46
12. The Spanishtonians / Rudie Gets Plenty - 02:41
13. Clive and Naomi / Open The Door - 01:58
14. Frank Anderson / Musical Storeroom - 02:54
15. The Valentines / Blam Blam Fever - 02:47
16. Clancy Eccles / Sammy No Dead - 01:48
17. Lyn Taitt and The Comets / Storm Warning - 02:29
18. Alton Ellis and The Flames / Girl I've Got A Date - 02:30
19. The Granville Williams Orchestra / The Third Man Theme - 02:48
20. Winston and George / Denham Town - 02:13

Various Artists - The Trojan Ska Collection (2009) {2CD Set, Trojan--Sanctuary 1799203 rec 1961-1966} (Item 1of7)


Exact Audio Copy V1.3 from 2. September 2016

EAC extraction logfile from 21. December 2018, 10:50

Various Artists / The Trojan Ska Collection [CD 1 of 2]

Used drive : ASUS BW-16D1HT Adapter: 1 ID: 0

Read mode : Secure
Utilize accurate stream : Yes
Defeat audio cache : Yes
Make use of C2 pointers : No

Read offset correction : 6
Overread into Lead-In and Lead-Out : No
Fill up missing offset samples with silence : Yes
Delete leading and trailing silent blocks : No
Null samples used in CRC calculations : Yes
Used interface : Native Win32 interface for Win NT & 2000
Gap handling : Appended to previous track

Used output format : User Defined Encoder
Selected bitrate : 896 kBit/s
Quality : High
Add ID3 tag : No
Command line compressor : C:\Exact Audio Copy\FLAC\FLAC.EXE
Additional command line options : -8 -V -T "ARTIST=%artist%" -T "TITLE=%title%" -T "ALBUM=%albumtitle%" -T "DATE=%year%" -T "TRACKNUMBER=%tracknr%" -T "TOTALTRACKS=%numtracks%" -T "GENRE=%genre%" -T "ALBUMARTIST=%albumartist%" -T "ALBUM ARTIST=%albumartist%" -T "COMMENT=EAC Secure Mode, Test & Copy, AccurateRip, FLAC -8" %source%


TOC of the extracted CD

Track | Start | Length | Start sector | End sector
––––––––––––––––––––––––––––-
1 | 0:00.00 | 2:31.30 | 0 | 11354
2 | 2:31.30 | 2:29.61 | 11355 | 22590
3 | 5:01.16 | 2:50.62 | 22591 | 35402
4 | 7:52.03 | 2:40.46 | 35403 | 47448
5 | 10:32.49 | 2:57.18 | 47449 | 60741
6 | 13:29.67 | 3:15.66 | 60742 | 75432
7 | 16:45.58 | 2:45.55 | 75433 | 87862
8 | 19:31.38 | 2:05.70 | 87863 | 97307
9 | 21:37.33 | 2:46.53 | 97308 | 109810
10 | 24:24.11 | 3:06.16 | 109811 | 123776
11 | 27:30.27 | 2:48.25 | 123777 | 136401
12 | 30:18.52 | 2:54.29 | 136402 | 149480
13 | 33:13.06 | 2:26.22 | 149481 | 160452
14 | 35:39.28 | 2:50.52 | 160453 | 173254
15 | 38:30.05 | 2:07.49 | 173255 | 182828
16 | 40:37.54 | 3:03.46 | 182829 | 196599
17 | 43:41.25 | 2:36.49 | 196600 | 208348
18 | 46:17.74 | 2:37.44 | 208349 | 220167
19 | 48:55.43 | 3:22.61 | 220168 | 235378
20 | 52:18.29 | 2:25.12 | 235379 | 246265


Track 1

Filename E:\01 - Lord Tanamo - I'm In The Mood For Love.wav

Pre-gap length 0:00:02.00

Peak level 92.7 %
Extraction speed 0.8 X
Track quality 99.9 %
Test CRC C5926915
Copy CRC C5926915
Accurately ripped (confidence 1) [8748693F] (AR v2)
Copy OK

Track 2

Filename E:\02 - Owen and Leon Silveras - Next Door Neighbor.wav

Peak level 93.1 %
Extraction speed 1.0 X
Track quality 100.0 %
Test CRC 4EE2F1C2
Copy CRC 4EE2F1C2
Accurately ripped (confidence 1) [A1A34F92] (AR v2)
Copy OK

Track 3

Filename E:\03 - The Baba Brooks Band - Watermelon Man.wav

Peak level 93.8 %
Extraction speed 1.1 X
Track quality 100.0 %
Test CRC ED0D5976
Copy CRC ED0D5976
Accurately ripped (confidence 1) [62A3D41B] (AR v2)
Copy OK

Track 4

Filename E:\04 - Desmond Dekker and The Four Aces - Get Up Edina.wav

Peak level 93.3 %
Extraction speed 1.2 X
Track quality 100.0 %
Test CRC 0BE6D731
Copy CRC 0BE6D731
Accurately ripped (confidence 1) [B072B846] (AR v2)
Copy OK

Track 5

Filename E:\05 - Tommy McCook and The Skatalites - Silver Dollar.wav

Peak level 92.8 %
Extraction speed 1.3 X
Track quality 100.0 %
Test CRC F33509F1
Copy CRC F33509F1
Accurately ripped (confidence 1) [77CBE5C5] (AR v2)
Copy OK

Track 6

Filename E:\06 - Stranger and Patsy - When I Call Your Name.wav

Peak level 91.8 %
Extraction speed 1.1 X
Track quality 99.9 %
Test CRC E5FED5B5
Copy CRC E5FED5B5
Accurately ripped (confidence 1) [A95DED28] (AR v2)
Copy OK

Track 7

Filename E:\07 - Roland Alphonso - Blackberry Brandy.wav

Peak level 87.2 %
Extraction speed 1.4 X
Track quality 100.0 %
Test CRC D63B658A
Copy CRC D63B658A
Accurately ripped (confidence 1) [9998F93A] (AR v2)
Copy OK

Track 8

Filename E:\08 - Lloyd and Glen - Jezebel.wav

Peak level 93.9 %
Extraction speed 1.4 X
Track quality 100.0 %
Test CRC D5C1EC8A
Copy CRC D5C1EC8A
Accurately ripped (confidence 1) [CDB9AC7B] (AR v2)
Copy OK

Track 9

Filename E:\09 - Carl Dawkins - Baby I Love You.wav

Peak level 94.0 %
Extraction speed 1.5 X
Track quality 100.0 %
Test CRC 41FBD958
Copy CRC 41FBD958
Accurately ripped (confidence 1) [AC281C4A] (AR v2)
Copy OK

Track 10

Filename E:\10 - The Paragons - Happy Go Lucky Girl.wav

Peak level 94.2 %
Extraction speed 1.6 X
Track quality 100.0 %
Test CRC 755E4F09
Copy CRC 755E4F09
Accurately ripped (confidence 1) [80F7E725] (AR v2)
Copy OK

Track 11

Filename E:\11 - Derrick Morgan - No Raise No Praise.wav

Peak level 94.3 %
Extraction speed 1.3 X
Track quality 99.9 %
Test CRC 70CD4412
Copy CRC 70CD4412
Accurately ripped (confidence 1) [9927FB9B] (AR v2)
Copy OK

Track 12

Filename E:\12 - Justin Hinds and The Dominoes - Carry Go Bring Come.wav

Peak level 94.3 %
Extraction speed 1.6 X
Track quality 100.0 %
Test CRC BC5024FD
Copy CRC BC5024FD
Accurately ripped (confidence 1) [FEADC083] (AR v2)
Copy OK

Track 13

Filename E:\13 - Alton Ellis and The Flames - Blessings Of Love.wav

Peak level 94.3 %
Extraction speed 1.7 X
Track quality 100.0 %
Test CRC B59F474C
Copy CRC B59F474C
Accurately ripped (confidence 1) [BDFF3C5A] (AR v2)
Copy OK

Track 14

Filename E:\14 - Chuck and Dobby - I Don't Need Your Love.wav

Peak level 94.3 %
Extraction speed 1.7 X
Track quality 100.0 %
Test CRC B3EBDE6B
Copy CRC B3EBDE6B
Accurately ripped (confidence 1) [2DFB2658] (AR v2)
Copy OK

Track 15

Filename E:\15 - Don Drummond - Don D. Lion.wav

Peak level 94.0 %
Extraction speed 1.7 X
Track quality 100.0 %
Test CRC ECFB4A54
Copy CRC ECFB4A54
Accurately ripped (confidence 1) [E0D5C1D1] (AR v2)
Copy OK

Track 16

Filename E:\16 - Stranger Cole - Rough And Tough (Aka Ruff And Tuff).wav

Peak level 94.3 %
Extraction speed 1.5 X
Track quality 99.9 %
Test CRC 82E281DE
Copy CRC 82E281DE
Accurately ripped (confidence 1) [A27339F6] (AR v2)
Copy OK

Track 17

Filename E:\17 - Eric 'Monty' Morris - Strongman Sampson.wav

Peak level 94.3 %
Extraction speed 1.8 X
Track quality 100.0 %
Test CRC 9F273C2F
Copy CRC 9F273C2F
Accurately ripped (confidence 1) [E40364CC] (AR v2)
Copy OK

Track 18

Filename E:\18 - Drumbago's Orchestra - Duck Soup.wav

Peak level 94.3 %
Extraction speed 1.9 X
Track quality 100.0 %
Test CRC 83A5AEEF
Copy CRC 83A5AEEF
Accurately ripped (confidence 1) [4E3BC3E5] (AR v2)
Copy OK

Track 19

Filename E:\19 - The Rulers - Wrong Emboyo.wav

Peak level 93.6 %
Extraction speed 1.7 X
Track quality 99.9 %
Test CRC 5038AC8A
Copy CRC 5038AC8A
Accurately ripped (confidence 1) [7E9DE6F8] (AR v2)
Copy OK

Track 20

Filename E:\20 - The Tartans - What Can I Say.wav

Peak level 94.3 %
Extraction speed 1.9 X
Track quality 100.0 %
Test CRC B1AA82F8
Copy CRC B1AA82F8
Accurately ripped (confidence 1) [1BFF39CC] (AR v2)
Copy OK


All tracks accurately ripped

No errors occurred

End of status report

==== Log checksum E69E3A9B63F86B88196603D0607481E4067FF5882F0A480BEF1DB23DD0CD1F8D ====
Exact Audio Copy V1.3 from 2. September 2016

EAC extraction logfile from 21. December 2018, 12:49

Various Artists / The Trojan Ska Collection [CD 2 of 2]

Used drive : ASUS BW-16D1HT Adapter: 1 ID: 0

Read mode : Secure
Utilize accurate stream : Yes
Defeat audio cache : Yes
Make use of C2 pointers : No

Read offset correction : 6
Overread into Lead-In and Lead-Out : No
Fill up missing offset samples with silence : Yes
Delete leading and trailing silent blocks : No
Null samples used in CRC calculations : Yes
Used interface : Native Win32 interface for Win NT & 2000
Gap handling : Appended to previous track

Used output format : User Defined Encoder
Selected bitrate : 896 kBit/s
Quality : High
Add ID3 tag : No
Command line compressor : C:\Exact Audio Copy\FLAC\FLAC.EXE
Additional command line options : -8 -V -T "ARTIST=%artist%" -T "TITLE=%title%" -T "ALBUM=%albumtitle%" -T "DATE=%year%" -T "TRACKNUMBER=%tracknr%" -T "TOTALTRACKS=%numtracks%" -T "GENRE=%genre%" -T "ALBUMARTIST=%albumartist%" -T "ALBUM ARTIST=%albumartist%" -T "COMMENT=EAC Secure Mode, Test & Copy, AccurateRip, FLAC -8" %source%


TOC of the extracted CD

Track | Start | Length | Start sector | End sector
––––––––––––––––––––––––––––-
1 | 0:00.00 | 2:31.45 | 0 | 11369
2 | 2:31.45 | 2:34.00 | 11370 | 22919
3 | 5:05.45 | 2:12.63 | 22920 | 32882
4 | 7:18.33 | 2:16.26 | 32883 | 43108
5 | 9:34.59 | 2:23.33 | 43109 | 53866
6 | 11:58.17 | 3:07.23 | 53867 | 67914
7 | 15:05.40 | 3:13.10 | 67915 | 82399
8 | 18:18.50 | 2:22.71 | 82400 | 93120
9 | 20:41.46 | 2:40.43 | 93121 | 105163
10 | 23:22.14 | 2:55.63 | 105164 | 118351
11 | 26:18.02 | 2:46.17 | 118352 | 130818
12 | 29:04.19 | 2:41.27 | 130819 | 142920
13 | 31:45.46 | 1:57.56 | 142921 | 151751
14 | 33:43.27 | 2:53.45 | 151752 | 164771
15 | 36:36.72 | 2:46.41 | 164772 | 177262
16 | 39:23.38 | 1:48.36 | 177263 | 185398
17 | 41:11.74 | 2:29.06 | 185399 | 196579
18 | 43:41.05 | 2:30.18 | 196580 | 207847
19 | 46:11.23 | 2:47.64 | 207848 | 220436
20 | 48:59.12 | 2:13.05 | 220437 | 230416


Track 1

Filename E:\01 - The Techniques - I'm So In Love With You.wav

Pre-gap length 0:00:02.00

Peak level 93.9 %
Extraction speed 0.9 X
Track quality 100.0 %
Test CRC F0C02B78
Copy CRC F0C02B78
Accurately ripped (confidence 1) [BAE6E39B] (AR v2)
Copy OK

Track 2

Filename E:\02 - Desmond Dekker and The Aces - 0.0.7 (Shanty Town).wav

Peak level 94.3 %
Extraction speed 0.8 X
Track quality 99.9 %
Test CRC 3BD94C8A
Copy CRC 3BD94C8A
Accurately ripped (confidence 1) [9F622E7A] (AR v2)
Copy OK

Track 3

Filename E:\03 - Owen and Leon Silveras - Want Me Cock.wav

Peak level 94.3 %
Extraction speed 1.1 X
Track quality 100.0 %
Test CRC D6C279A7
Copy CRC D6C279A7
Accurately ripped (confidence 1) [BD39B983] (AR v2)
Copy OK

Track 4

Filename E:\04 - Lord Tanamo - Iron Bar.wav

Peak level 94.3 %
Extraction speed 1.1 X
Track quality 100.0 %
Test CRC 1C5625C6
Copy CRC 1C5625C6
Accurately ripped (confidence 1) [F1570B89] (AR v2)
Copy OK

Track 5

Filename E:\05 - Jimmy Cliff - Miss Jamaica.wav

Peak level 94.3 %
Extraction speed 1.0 X
Track quality 99.9 %
Test CRC 80D1A6B5
Copy CRC 80D1A6B5
Accurately ripped (confidence 1) [9CCAD08C] (AR v2)
Copy OK

Track 6

Filename E:\06 - The Baba Brooks Band - One Eyed Giant.wav

Peak level 94.3 %
Extraction speed 1.3 X
Track quality 100.0 %
Test CRC 7A07F404
Copy CRC 7A07F404
Accurately ripped (confidence 1) [1B83922E] (AR v2)
Copy OK

Track 7

Filename E:\07 - Rico - Let George Do It.wav

Peak level 94.3 %
Extraction speed 1.4 X
Track quality 100.0 %
Test CRC 4FCDC323
Copy CRC 4FCDC323
Accurately ripped (confidence 1) [A397D35E] (AR v2)
Copy OK

Track 8

Filename E:\08 - Justin Hinds and The Dominoes - Over The River.wav

Peak level 94.3 %
Extraction speed 1.4 X
Track quality 100.0 %
Test CRC 6DB05823
Copy CRC 6DB05823
Accurately ripped (confidence 1) [0AA17413] (AR v2)
Copy OK

Track 9

Filename E:\09 - Eric 'Monty' Morris - If I Didn't Love You.wav

Peak level 94.3 %
Extraction speed 1.4 X
Track quality 100.0 %
Test CRC 32F44CB1
Copy CRC 32F44CB1
Accurately ripped (confidence 1) [91CEDBB3] (AR v2)
Copy OK

Track 10

Filename E:\10 - Derrick Morgan - Blazing Fire.wav

Peak level 94.0 %
Extraction speed 1.5 X
Track quality 100.0 %
Test CRC DAAC7007
Copy CRC DAAC7007
Accurately ripped (confidence 1) [4383FC4D] (AR v2)
Copy OK

Track 11

Filename E:\11 - Tommy McCook and The Supersonics - Doctor Zhivago (Lara's Theme).wav

Peak level 94.3 %
Extraction speed 1.6 X
Track quality 100.0 %
Test CRC CBDDA9D3
Copy CRC CBDDA9D3
Accurately ripped (confidence 1) [ABC4BCC4] (AR v2)
Copy OK

Track 12

Filename E:\12 - The Spanishtonians - Rudie Gets Plenty.wav

Peak level 92.9 %
Extraction speed 1.3 X
Track quality 99.9 %
Test CRC 5E229D02
Copy CRC 5E229D02
Accurately ripped (confidence 1) [7E4DEEB6] (AR v2)
Copy OK

Track 13

Filename E:\13 - Clive and Naomi - Open The Door.wav

Peak level 93.8 %
Extraction speed 1.5 X
Track quality 100.0 %
Test CRC D3317EE8
Copy CRC D3317EE8
Accurately ripped (confidence 1) [0063954C] (AR v2)
Copy OK

Track 14

Filename E:\14 - Frank Anderson - Musical Storeroom.wav

Peak level 94.2 %
Extraction speed 1.4 X
Track quality 99.9 %
Test CRC 517E76B7
Copy CRC 517E76B7
Accurately ripped (confidence 1) [037B2075] (AR v2)
Copy OK

Track 15

Filename E:\15 - The Valentines - Blam Blam Fever.wav

Peak level 93.9 %
Extraction speed 1.7 X
Track quality 100.0 %
Test CRC 79418D20
Copy CRC 79418D20
Accurately ripped (confidence 1) [E133F215] (AR v2)
Copy OK

Track 16

Filename E:\16 - Clancy Eccles - Sammy No Dead.wav

Peak level 94.3 %
Extraction speed 1.6 X
Track quality 100.0 %
Test CRC D8C5768F
Copy CRC D8C5768F
Accurately ripped (confidence 1) [F09D837B] (AR v2)
Copy OK

Track 17

Filename E:\17 - Lyn Taitt and The Comets - Storm Warning.wav

Peak level 94.3 %
Extraction speed 1.4 X
Track quality 99.9 %
Test CRC 2196C6C7
Copy CRC 2196C6C7
Accurately ripped (confidence 1) [41BFC185] (AR v2)
Copy OK

Track 18

Filename E:\18 - Alton Ellis and The Flames - Girl I've Got A Date.wav

Peak level 94.1 %
Extraction speed 1.8 X
Track quality 100.0 %
Test CRC 00B80727
Copy CRC 00B80727
Accurately ripped (confidence 1) [D0411179] (AR v2)
Copy OK

Track 19

Filename E:\19 - The Granville Williams Orchestra - The Third Man Theme.wav

Peak level 87.9 %
Extraction speed 1.9 X
Track quality 100.0 %
Test CRC 106EF8FF
Copy CRC 106EF8FF
Accurately ripped (confidence 1) [57E952E7] (AR v2)
Copy OK

Track 20

Filename E:\20 - Winston and George - Denham Town.wav

Peak level 92.6 %
Extraction speed 1.8 X
Track quality 100.0 %
Test CRC 608B422D
Copy CRC 608B422D
Accurately ripped (confidence 1) [47078BB7] (AR v2)
Copy OK


All tracks accurately ripped

No errors occurred

End of status report

==== Log checksum 6ABC3AD23180BD4AAF8CD80E63DF1764F32E6B48270BF1EDAE231088454586BF ====


Various Artists - The Trojan Ska Collection (2009) {2CD Set, Trojan--Sanctuary 1799203 rec 1961-1966} (Item 1of7)


NEXT -> more The Trojan Collection Series on the way…


===