Subcategories

VA - Top 40: 70s Pop (2014)

Posted By: delpotro
VA - Top 40: 70s Pop (2014)

VA - Top 40: 70s Pop (2014)
EAC Rip | FLAC (tracks+log+.cue) | 02:16:42 | 931 Mb
Pop, Rock | Label: Crimson Music

Crimson Music is proud to present forty Top 40 chart smashes from some of the greatest hits of the seventies featuring artists such as The Nolans, Bay City Rollers, The Jacksons, Boney M, Cheap Trick, Sweet and others.
Tracklist:
CD1
01. Bay City Rollers – Give a Little Love (03:24)
02. The Nolans – I'm In the Mood For Dancing (03:19)
03. Sarah Brightman & Hot Gossip – (I Lost My Heart To a) Starship Trooper (04:20)
04. The Andrea True Connection – More More More (06:16)
05. Dawn – Knock Three Times (02:59)
06. Tina Charles – Dr. Love (03:05)
07. Dana – Please Tell Him That I Said Hello (03:20)
08. Colin Blunstone – Say You Don't Mind (03:19)
09. Dave Edmunds – Baby I Love You (03:31)
10. The Sweet – Wig-Wam Bam (03:02)
11. The Dooleys – The Chosen Few (03:06)
12. Showaddywaddy – You Got What It Takes (03:19)
13. Barry Blue – Dancin' (On a Saturday Night) (03:12)
14. Cheap Trick – I Want You To Want Me (03:35)
15. Terry Jacks – If You Go Away (02:32)
16. HELLO – New York Groove (02:46)
17. Toto – Hold the Line (03:32)
18. Blue Öyster Cult – (Don't Fear) The Reaper (03:50)
19. Redbone – The Witch Queen of New Orleans (02:45)
20. Ian Dury & The Blockheads – What a Waste (03:27)

CD1
01. The Jacksons – Show You the Way To Go (03:31)
02. Earth, Wind & Fire – Got To Get You Into My Life (04:11)
03. Leo Sayer – Thunder In My Heart (03:37)
04. The O'Jays – Love Train (02:59)
05. The Drifters – There Goes My First Love (03:04)
06. The Trammps – Hold Back the Night (03:46)
07. The Isley Brothers – Summer Breeze (03:08)
08. The Three Degrees – Year of Decision (02:43)
09. Robert Knight – Love On a Mountain Top (02:30)
10. The Hues Corporation – Rockin' Soul (02:57)
11. Harold Melvin & the Bluenotes – If You Don't Know Me By Now (03:28)
12. Boz Scaggs – What Can I Say (03:00)
13. The Delfonics – Didn't I (Blow Your Mind This Time) (03:23)
14. Eruption – One Way Ticket (03:37)
15. Boney M. – Brown Girl In the Ring (03:07)
16. Baccara – Sorry I'm a Lady (03:37)
17. New Seekers – You Won’t Find Another Fool Like Me (03:12)
18. The Walker Brothers – No Regrets (05:44)
19. David Essex – Rock On (03:23)
20. Tammy Wynette – Stand By Your Man (02:41)

Exact Audio Copy V1.3 from 2. September 2016

EAC extraction logfile from 6. January 2017, 15:52

Various Artists / Top 40 70s Pop (2014) CD1

Used drive : HL-DT-STDVDRAM GP57EW40 Adapter: 1 ID: 0

Read mode : Secure
Utilize accurate stream : Yes
Defeat audio cache : Yes
Make use of C2 pointers : No

Read offset correction : 6
Overread into Lead-In and Lead-Out : No
Fill up missing offset samples with silence : Yes
Delete leading and trailing silent blocks : No
Null samples used in CRC calculations : Yes
Used interface : Native Win32 interface for Win NT & 2000
Gap handling : Appended to previous track

Used output format : User Defined Encoder
Selected bitrate : 1024 kBit/s
Quality : High
Add ID3 tag : No
Command line compressor : C:\Program Files (x86)\Exact Audio Copy\Flac\flac.exe
Additional command line options : -8 -V -T "ARTIST=%artist%" -T "TITLE=%title%" -T "ALBUM=%albumtitle%" -T "DATE=%year%" -T "TRACKNUMBER=%tracknr%" -T "GENRE=%genre%" -T "PERFORMER=%albuminterpret%" -T "COMPOSER=%composer%" %haslyrics%–tag-from-file=LYRICS="%lyricsfile%"%haslyrics% -T "ALBUMARTIST=%albumartist%" -T "DISCNUMBER=%cdnumber%" -T "TOTALDISCS=%totalcds%" -T "TOTALTRACKS=%numtracks%" -T "COMMENT=%comment%" %source% -o %dest%


TOC of the extracted CD

Track | Start | Length | Start sector | End sector
––––––––––––––––––––––––––––-
1 | 0:00.00 | 3:24.58 | 0 | 15357
2 | 3:24.58 | 3:19.22 | 15358 | 30304
3 | 6:44.05 | 4:20.54 | 30305 | 49858
4 | 11:04.59 | 6:16.19 | 49859 | 78077
5 | 17:21.03 | 2:59.26 | 78078 | 91528
6 | 20:20.29 | 3:05.51 | 91529 | 105454
7 | 23:26.05 | 3:20.36 | 105455 | 120490
8 | 26:46.41 | 3:19.65 | 120491 | 135480
9 | 30:06.31 | 3:31.65 | 135481 | 151370
10 | 33:38.21 | 3:02.21 | 151371 | 165041
11 | 36:40.42 | 3:06.53 | 165042 | 179044
12 | 39:47.20 | 3:19.50 | 179045 | 194019
13 | 43:06.70 | 3:12.72 | 194020 | 208491
14 | 46:19.67 | 3:35.18 | 208492 | 224634
15 | 49:55.10 | 2:32.70 | 224635 | 236104
16 | 52:28.05 | 2:46.61 | 236105 | 248615
17 | 55:14.66 | 3:32.58 | 248616 | 264573
18 | 58:47.49 | 3:50.65 | 264574 | 281888
19 | 62:38.39 | 2:45.73 | 281889 | 294336
20 | 65:24.37 | 3:27.39 | 294337 | 309900


Track 1

Filename K:\EAC\01 - Bay City Rollers - Give A Little Love [1975].wav

Pre-gap length 0:00:02.00

Peak level 99.4 %
Extraction speed 1.1 X
Track quality 100.0 %
Test CRC AE4EAA64
Copy CRC AE4EAA64
Accurately ripped (confidence 1) [226E242A] (AR v2)
Copy OK

Track 2

Filename K:\EAC\02 - Nolan Sisters - I'm In The Mood For Dancing [1979].wav

Pre-gap length 0:00:01.80

Peak level 92.7 %
Extraction speed 1.3 X
Track quality 100.0 %
Test CRC FE85FAC5
Copy CRC FE85FAC5
Accurately ripped (confidence 1) [9F551877] (AR v2)
Copy OK

Track 3

Filename K:\EAC\03 - Sarah Brightman & Hot Gossip - I Lost My Heart To A Starship Trooper [1978].wav

Pre-gap length 0:00:01.80

Peak level 92.7 %
Extraction speed 1.4 X
Track quality 100.0 %
Test CRC DEFFA680
Copy CRC DEFFA680
Track not present in AccurateRip database
Copy OK

Track 4

Filename K:\EAC\04 - Andrea True Connection - More More More [1976].wav

Pre-gap length 0:00:01.80

Peak level 99.4 %
Extraction speed 1.6 X
Track quality 100.0 %
Test CRC 2D4F3827
Copy CRC 2D4F3827
Accurately ripped (confidence 1) [7E56DD44] (AR v2)
Copy OK

Track 5

Filename K:\EAC\05 - Dawn - Knock Three Times [1970].wav

Pre-gap length 0:00:01.80

Peak level 99.4 %
Extraction speed 1.6 X
Track quality 100.0 %
Test CRC F0D21644
Copy CRC F0D21644
Accurately ripped (confidence 1) [9328E9F3] (AR v2)
Copy OK

Track 6

Filename K:\EAC\06 - Tina Charles - Dr Love [1976].wav

Pre-gap length 0:00:01.80

Peak level 98.6 %
Extraction speed 1.7 X
Track quality 100.0 %
Test CRC EC7747CC
Copy CRC EC7747CC
Accurately ripped (confidence 1) [8CD43C23] (AR v2)
Copy OK

Track 7

Filename K:\EAC\07 - Dana - Please Tell Him That I Said Hello [1974].wav

Pre-gap length 0:00:01.80

Peak level 99.4 %
Extraction speed 1.5 X
Track quality 99.9 %
Test CRC 0D158AB3
Copy CRC 0D158AB3
Accurately ripped (confidence 1) [4AB97304] (AR v2)
Copy OK

Track 8

Filename K:\EAC\08 - Colin Blunstone - Say You Don't Mind [1971].wav

Pre-gap length 0:00:01.80

Peak level 99.4 %
Extraction speed 1.6 X
Track quality 99.9 %
Test CRC 83F54607
Copy CRC 83F54607
Accurately ripped (confidence 1) [664E5356] (AR v2)
Copy OK

Track 9

Filename K:\EAC\09 - Dave Edmunds - Baby I Love You [1972].wav

Pre-gap length 0:00:01.80

Peak level 99.4 %
Extraction speed 1.9 X
Track quality 100.0 %
Test CRC 5D8DAF2A
Copy CRC 5D8DAF2A
Accurately ripped (confidence 1) [98F336A2] (AR v2)
Copy OK

Track 10

Filename K:\EAC\10 - Sweet - Wig-Wam Bam [1972].wav

Pre-gap length 0:00:01.80

Peak level 93.2 %
Extraction speed 1.6 X
Track quality 99.9 %
Test CRC 7926F128
Copy CRC 7926F128
Accurately ripped (confidence 1) [0ECBDDC1] (AR v2)
Copy OK

Track 11

Filename K:\EAC\11 - Dooleys - The Chosen Few [1979].wav

Pre-gap length 0:00:01.80

Peak level 99.4 %
Extraction speed 2.0 X
Track quality 100.0 %
Test CRC 4E2D08BB
Copy CRC 4E2D08BB
Accurately ripped (confidence 1) [B4F20DA7] (AR v2)
Copy OK

Track 12

Filename K:\EAC\12 - Showaddywaddy - You Got What It Takes [1977].wav

Pre-gap length 0:00:01.80

Peak level 99.4 %
Extraction speed 2.1 X
Track quality 100.0 %
Test CRC ED68A81A
Copy CRC ED68A81A
Accurately ripped (confidence 1) [63B22214] (AR v2)
Copy OK

Track 13

Filename K:\EAC\13 - Barry Blue - Dancin' (On A Saturday Night) [1973].wav

Pre-gap length 0:00:01.80

Peak level 92.7 %
Extraction speed 2.1 X
Track quality 100.0 %
Test CRC A61203A0
Copy CRC A61203A0
Accurately ripped (confidence 1) [7EEAB716] (AR v2)
Copy OK

Track 14

Filename K:\EAC\14 - Cheap Trick - I Want You To Want Me (Live) [1978].wav

Pre-gap length 0:00:01.80

Peak level 92.7 %
Extraction speed 2.2 X
Track quality 100.0 %
Test CRC 5C5D73C1
Copy CRC 5C5D73C1
Accurately ripped (confidence 1) [1329F526] (AR v2)
Copy OK

Track 15

Filename K:\EAC\15 - Terry Jacks - If You Go Away [1974].wav

Pre-gap length 0:00:01.80

Peak level 92.7 %
Extraction speed 2.1 X
Track quality 100.0 %
Test CRC 6D56CFCF
Copy CRC 6D56CFCF
Accurately ripped (confidence 1) [EB3C17A6] (AR v2)
Copy OK

Track 16

Filename K:\EAC\16 - Hello - New York Groove [1975].wav

Pre-gap length 0:00:01.80

Peak level 99.4 %
Extraction speed 2.2 X
Track quality 100.0 %
Test CRC BAE0240C
Copy CRC BAE0240C
Accurately ripped (confidence 1) [F82390F6] (AR v2)
Copy OK

Track 17

Filename K:\EAC\17 - Toto - Hold The Line [1978].wav

Pre-gap length 0:00:01.80

Peak level 97.4 %
Extraction speed 2.3 X
Track quality 100.0 %
Test CRC EF392CE2
Copy CRC EF392CE2
Accurately ripped (confidence 1) [A31AE8DA] (AR v2)
Copy OK

Track 18

Filename K:\EAC\18 - Blue Öyster Cult - (Don't Fear) The Reaper [1976].wav

Pre-gap length 0:00:01.80

Peak level 97.7 %
Extraction speed 2.4 X
Track quality 100.0 %
Test CRC DADE803B
Copy CRC DADE803B
Accurately ripped (confidence 1) [9920083D] (AR v2)
Copy OK

Track 19

Filename K:\EAC\19 - Redbone - The Witch Queen Of New Orleans [1971].wav

Pre-gap length 0:00:01.80

Peak level 99.4 %
Extraction speed 2.0 X
Track quality 99.9 %
Test CRC 5648B8B9
Copy CRC 5648B8B9
Accurately ripped (confidence 1) [7F306640] (AR v2)
Copy OK

Track 20

Filename K:\EAC\20 - Ian Dury - What A Waste [1978].wav

Pre-gap length 0:00:01.80

Peak level 99.4 %
Extraction speed 2.1 X
Track quality 99.9 %
Test CRC 88FA601B
Copy CRC 88FA601B
Accurately ripped (confidence 1) [41F895C1] (AR v2)
Copy OK


19 track(s) accurately ripped
1 track(s) not present in the AccurateRip database

Some tracks could not be verified as accurate

No errors occurred

End of status report

–– CUETools DB Plugin V2.1.6

[CTDB TOCID: EOOUNoDHXHK229.Gk3yDydhyU_g-] disk not present in database
Submit result: EOOUNoDHXHK229.Gk3yDydhyU_g- has been uploaded


==== Log checksum CA6044109B3F27124C39F3D9A785CDC516EC8F94B0C6D91B85A41FD2D4D42FBC ====

Exact Audio Copy V1.3 from 2. September 2016

EAC extraction logfile from 6. January 2017, 17:56

Various Artists / Top 40 70s Pop (2014) CD2

Used drive : HL-DT-STDVDRAM GP57EW40 Adapter: 1 ID: 0

Read mode : Secure
Utilize accurate stream : Yes
Defeat audio cache : Yes
Make use of C2 pointers : No

Read offset correction : 6
Overread into Lead-In and Lead-Out : No
Fill up missing offset samples with silence : Yes
Delete leading and trailing silent blocks : No
Null samples used in CRC calculations : Yes
Used interface : Native Win32 interface for Win NT & 2000
Gap handling : Appended to previous track

Used output format : User Defined Encoder
Selected bitrate : 1024 kBit/s
Quality : High
Add ID3 tag : No
Command line compressor : C:\Program Files (x86)\Exact Audio Copy\Flac\flac.exe
Additional command line options : -8 -V -T "ARTIST=%artist%" -T "TITLE=%title%" -T "ALBUM=%albumtitle%" -T "DATE=%year%" -T "TRACKNUMBER=%tracknr%" -T "GENRE=%genre%" -T "PERFORMER=%albuminterpret%" -T "COMPOSER=%composer%" %haslyrics%–tag-from-file=LYRICS="%lyricsfile%"%haslyrics% -T "ALBUMARTIST=%albumartist%" -T "DISCNUMBER=%cdnumber%" -T "TOTALDISCS=%totalcds%" -T "TOTALTRACKS=%numtracks%" -T "COMMENT=%comment%" %source% -o %dest%


TOC of the extracted CD

Track | Start | Length | Start sector | End sector
––––––––––––––––––––––––––––-
1 | 0:00.00 | 3:31.12 | 0 | 15836
2 | 3:31.12 | 4:11.58 | 15837 | 34719
3 | 7:42.70 | 3:37.26 | 34720 | 51020
4 | 11:20.21 | 2:59.68 | 51021 | 64513
5 | 14:20.14 | 3:04.17 | 64514 | 78330
6 | 17:24.31 | 3:46.54 | 78331 | 95334
7 | 21:11.10 | 3:08.17 | 95335 | 109451
8 | 24:19.27 | 2:43.66 | 109452 | 121742
9 | 27:03.18 | 2:30.25 | 121743 | 133017
10 | 29:33.43 | 2:57.57 | 133018 | 146349
11 | 32:31.25 | 3:28.39 | 146350 | 161988
12 | 35:59.64 | 3:00.70 | 161989 | 175558
13 | 39:00.59 | 3:23.62 | 175559 | 190845
14 | 42:24.46 | 3:37.22 | 190846 | 207142
15 | 46:01.68 | 3:07.53 | 207143 | 221220
16 | 49:09.46 | 3:37.64 | 221221 | 237559
17 | 52:47.35 | 3:12.61 | 237560 | 252020
18 | 56:00.21 | 5:44.48 | 252021 | 277868
19 | 61:44.69 | 3:23.55 | 277869 | 293148
20 | 65:08.49 | 2:41.52 | 293149 | 305275


Track 1

Filename K:\EAC\01 - Jacksons - Show You The Way To Go [1976].wav

Pre-gap length 0:00:02.00

Peak level 99.4 %
Extraction speed 1.0 X
Track quality 99.9 %
Test CRC 6133F14B
Copy CRC 6133F14B
Accurately ripped (confidence 1) [3111E652] (AR v2)
Copy OK

Track 2

Filename K:\EAC\02 - Earth Wind & Fire - Got To Get You Into My Life [1978].wav

Pre-gap length 0:00:01.80

Peak level 91.7 %
Extraction speed 1.3 X
Track quality 100.0 %
Test CRC 29E089E7
Copy CRC 29E089E7
Accurately ripped (confidence 1) [836BDA46] (AR v2)
Copy OK

Track 3

Filename K:\EAC\03 - Leo Sayer - Thunder In My Heart [1977].wav

Pre-gap length 0:00:01.80

Peak level 94.9 %
Extraction speed 1.4 X
Track quality 100.0 %
Test CRC A9FC0626
Copy CRC A9FC0626
Track not present in AccurateRip database
Copy OK

Track 4

Filename K:\EAC\04 - O'Jays - Love Train [1972].wav

Pre-gap length 0:00:01.80

Peak level 99.4 %
Extraction speed 1.2 X
Track quality 99.9 %
Test CRC ACC42583
Copy CRC ACC42583
Accurately ripped (confidence 1) [DCFEEEB9] (AR v2)
Copy OK

Track 5

Filename K:\EAC\05 - Drifters - There Goes My First Love [1975].wav

Pre-gap length 0:00:01.80

Peak level 89.6 %
Extraction speed 1.3 X
Track quality 99.9 %
Test CRC E79C109C
Copy CRC E79C109C
Accurately ripped (confidence 1) [7F558695] (AR v2)
Copy OK

Track 6

Filename K:\EAC\06 - Trammps - Hold Back The Night [1975].wav

Pre-gap length 0:00:01.80

Peak level 92.7 %
Extraction speed 1.5 X
Track quality 99.9 %
Test CRC B86B54A8
Copy CRC B86B54A8
Accurately ripped (confidence 1) [5CA8521E] (AR v2)
Copy OK

Track 7

Filename K:\EAC\07 - Isley Brothers - Summer Breeze [1973].wav

Pre-gap length 0:00:01.80

Peak level 91.7 %
Extraction speed 1.4 X
Track quality 99.9 %
Test CRC 9209FF02
Copy CRC 9209FF02
Accurately ripped (confidence 1) [463ED08A] (AR v2)
Copy OK

Track 8

Filename K:\EAC\08 - Three Degrees - Year Of Decision [1973].wav

Pre-gap length 0:00:01.78

Peak level 94.9 %
Extraction speed 1.7 X
Track quality 100.0 %
Test CRC 8345DF36
Copy CRC 8345DF36
Accurately ripped (confidence 1) [71077425] (AR v2)
Copy OK

Track 9

Filename K:\EAC\09 - Robert Knight - Love On A Mountain Top [1968].wav

Pre-gap length 0:00:01.80

Peak level 91.7 %
Extraction speed 1.7 X
Track quality 100.0 %
Test CRC 9EEC13EB
Copy CRC 9EEC13EB
Accurately ripped (confidence 1) [7B49C57F] (AR v2)
Copy OK

Track 10

Filename K:\EAC\10 - Hues Corporation - Rockin' Soul [1974].wav

Pre-gap length 0:00:01.80

Peak level 99.4 %
Extraction speed 1.8 X
Track quality 100.0 %
Test CRC 0537A42D
Copy CRC 0537A42D
Accurately ripped (confidence 1) [BBDD106C] (AR v2)
Copy OK

Track 11

Filename K:\EAC\11 - Harold Melvin & The Blue Notes - If You Don't Know Me By Now [1972].wav

Pre-gap length 0:00:01.80

Peak level 99.4 %
Extraction speed 1.9 X
Track quality 100.0 %
Test CRC 7F220944
Copy CRC 7F220944
Accurately ripped (confidence 1) [2E6A7255] (AR v2)
Copy OK

Track 12

Filename K:\EAC\12 - Boz Scaggs - What Can I Say [1976].wav

Pre-gap length 0:00:01.80

Peak level 99.4 %
Extraction speed 1.7 X
Track quality 99.9 %
Test CRC AC05CD05
Copy CRC AC05CD05
Accurately ripped (confidence 1) [AA43CD3A] (AR v2)
Copy OK

Track 13

Filename K:\EAC\13 - Delfonics - Didn't I (Blow Your Mind This Time) [1969].wav

Pre-gap length 0:00:01.80

Peak level 99.4 %
Extraction speed 1.8 X
Track quality 99.9 %
Test CRC 0B72C5D6
Copy CRC 0B72C5D6
Accurately ripped (confidence 1) [1364AEAC] (AR v2)
Copy OK

Track 14

Filename K:\EAC\14 - Eruption - One Way Ticket [1978].wav

Pre-gap length 0:00:01.80

Peak level 97.8 %
Extraction speed 2.1 X
Track quality 100.0 %
Test CRC 0C374296
Copy CRC 0C374296
Accurately ripped (confidence 1) [BCA54167] (AR v2)
Copy OK

Track 15

Filename K:\EAC\15 - Boney M - Brown Girl In The Ring [1978].wav

Pre-gap length 0:00:01.80

Peak level 99.4 %
Extraction speed 2.1 X
Track quality 100.0 %
Test CRC A242D698
Copy CRC A242D698
Accurately ripped (confidence 1) [D83A13AF] (AR v2)
Copy OK

Track 16

Filename K:\EAC\16 - Baccara - Sorry I'm A Lady [1977].wav

Pre-gap length 0:00:01.80

Peak level 99.4 %
Extraction speed 2.3 X
Track quality 100.0 %
Test CRC E85D88AD
Copy CRC E85D88AD
Accurately ripped (confidence 1) [3FC30BCD] (AR v2)
Copy OK

Track 17

Filename K:\EAC\17 - New Seekers - You Won't Find Another Fool Like Me [1973].wav

Pre-gap length 0:00:01.80

Peak level 99.4 %
Extraction speed 2.3 X
Track quality 100.0 %
Test CRC 0F25DA2A
Copy CRC 0F25DA2A
Accurately ripped (confidence 1) [3A3D29EC] (AR v2)
Copy OK

Track 18

Filename K:\EAC\18 - Walker Brothers - No Regrets [1975].wav

Pre-gap length 0:00:01.80

Peak level 99.4 %
Extraction speed 2.3 X
Track quality 99.9 %
Test CRC 0BDD6AE4
Copy CRC 0BDD6AE4
Accurately ripped (confidence 1) [98436945] (AR v2)
Copy OK

Track 19

Filename K:\EAC\19 - David Essex - Rock On [1973].wav

Pre-gap length 0:00:01.80

Peak level 99.4 %
Extraction speed 2.4 X
Track quality 100.0 %
Test CRC 704F15D6
Copy CRC 704F15D6
Accurately ripped (confidence 1) [AF7F34C4] (AR v2)
Copy OK

Track 20

Filename K:\EAC\20 - Tammy Wynette - Stand By Your Man [1968].wav

Pre-gap length 0:00:01.80

Peak level 99.3 %
Extraction speed 2.0 X
Track quality 99.9 %
Test CRC C6207D2E
Copy CRC C6207D2E
Track not present in AccurateRip database
Copy OK


18 track(s) accurately ripped
2 track(s) not present in the AccurateRip database

Some tracks could not be verified as accurate

No errors occurred

End of status report

–– CUETools DB Plugin V2.1.6

[CTDB TOCID: F_NYAj8cVFPqJk4m1ExZ5Z_PNdQ-] found
Submit result: F_NYAj8cVFPqJk4m1ExZ5Z_PNdQ- has been confirmed
Track | CTDB Status
1 | (1/1) Accurately ripped
2 | (1/1) Accurately ripped
3 | (1/1) Accurately ripped
4 | (1/1) Accurately ripped
5 | (1/1) Accurately ripped
6 | (1/1) Accurately ripped
7 | (1/1) Accurately ripped
8 | (1/1) Accurately ripped
9 | (1/1) Accurately ripped
10 | (1/1) Accurately ripped
11 | (1/1) Accurately ripped
12 | (1/1) Accurately ripped
13 | (1/1) Accurately ripped
14 | (1/1) Accurately ripped
15 | (1/1) Accurately ripped
16 | (1/1) Accurately ripped
17 | (1/1) Accurately ripped
18 | (1/1) Accurately ripped
19 | (1/1) Accurately ripped
20 | (1/1) Accurately ripped


==== Log checksum 546918E8921D08E6AEB6B8058D399DF8DC24CA9B294550FDE31E644124444701 ====

Thanks to the Original ripper StefMir !