Subcategories

VA - Come On Up To The House: Women Sing Waits (2019)

Posted By: delpotro
VA - Come On Up To The House: Women Sing Waits (2019)

VA - Come On Up To The House: Women Sing Waits (2019)
EAC Rip | FLAC (tracks+log+.cue) - 295 Mb | MP3 CBR 320 kbps - 133 Mb | 00:55:42
Folk, Singer-Songwriter, Female Vocal | Label: Dualtone Records

Tom Waits turns 70 years old in December. And shortly before that, Dualtone Music Group is celebrating his work with the release of Come On Up To The House: Women Sing Waits, a tribute compilation featuring new renditions of his songs from a number of female artists including Phoebe Bridgers, Aimee Mann, Rosanne Cash, Corinne Bailey Rae, and more. The album was produced by artist, author, and composer Warren Zanes.

“Tom is a true original as a songwriter, singer, and arranger. There’s just no one like him,” says Dualtone CEO Scott Robinson. “Beneath some of the layers of sound and his truly unique vocal phrasing are some of the most beautiful and heartfelt songs I’ve ever heard. After some great creative discussions many years back with an old publishing colleague, the concept of focusing on the sheer beauty of these songs by having them interpreted by a group of amazing artists with stunning voices, was a must-do project.”
Tracklist:
1. Joseph – Come on up to the House (04:00)
2. Aimee Mann – Hold On (05:23)
3. Phoebe Bridgers – Georgia Lee (04:18)
4. Allison Moorer & Shelby Lynne – Ol' 55 (05:29)
5. Angie McMahon – Take It With Me (04:06)
6. Corinne Bailey Rae – Jersey Girl (05:33)
7. Patty Griffin – Ruby's Arms (06:06)
8. Rosanne Cash – Time (04:36)
9. Kat Edmonson – You Can Never Hold Back Spring (02:22)
10. Iris DeMent – House Where Nobody Lives (04:22)
11. Courtney Marie Andrews – Downtown Train (04:14)
12. The Wild Reeds – Tom Traubert's Blues (04:45)

Exact Audio Copy V1.3 from 2. September 2016

EAC extraction logfile from 12. January 2020, 22:47

Various Artists / Come On Up to the House - Women Sing Waits

Used drive : PLEXTOR PX-891SAF Adapter: 1 ID: 0

Read mode : Secure
Utilize accurate stream : Yes
Defeat audio cache : Yes
Make use of C2 pointers : No

Read offset correction : 6
Overread into Lead-In and Lead-Out : No
Fill up missing offset samples with silence : Yes
Delete leading and trailing silent blocks : No
Null samples used in CRC calculations : Yes
Used interface : Native Win32 interface for Win NT & 2000
Gap handling : Appended to previous track

Used output format : User Defined Encoder
Selected bitrate : 1024 kBit/s
Quality : High
Add ID3 tag : No
Command line compressor : C:\Program Files (x86)\Exact Audio Copy\Flac\flac.exe
Additional command line options : -8 -V -T "ARTIST=%artist%" -T "TITLE=%title%" -T "ALBUM=%albumtitle%" -T "DATE=%year%" -T "TRACKNUMBER=%tracknr%" -T "GENRE=%genre%" -T "PERFORMER=%albuminterpret%" -T "COMPOSER=%composer%" %haslyrics%–tag-from-file=LYRICS="%lyricsfile%"%haslyrics% -T "ALBUMARTIST=%albumartist%" -T "DISCNUMBER=%cdnumber%" -T "TOTALDISCS=%totalcds%" -T "TOTALTRACKS=%numtracks%" -T "COMMENT=%comment%" %source% -o %dest%


TOC of the extracted CD

Track | Start | Length | Start sector | End sector
––––––––––––––––––––––––––––-
1 | 0:00.00 | 4:02.69 | 0 | 18218
2 | 4:02.69 | 5:25.59 | 18219 | 42652
3 | 9:28.53 | 4:20.44 | 42653 | 62196
4 | 13:49.22 | 5:31.15 | 62197 | 87036
5 | 19:20.37 | 4:08.71 | 87037 | 105707
6 | 23:29.33 | 5:35.12 | 105708 | 130844
7 | 29:04.45 | 6:08.28 | 130845 | 158472
8 | 35:12.73 | 4:38.73 | 158473 | 179395
9 | 39:51.71 | 2:24.01 | 179396 | 190196
10 | 42:15.72 | 4:24.42 | 190197 | 210038
11 | 46:40.39 | 4:16.29 | 210039 | 229267
12 | 50:56.68 | 4:45.38 | 229268 | 250680


Track 1

Filename D:\#cdr\#wav+flac\VA - Come On Up to the House - Women Sing Waits\01. Joseph - Come On Up to the House.wav

Pre-gap length 0:00:02.00

Peak level 95.8 %
Extraction speed 5.1 X
Track quality 100.0 %
Test CRC A105F696
Copy CRC A105F696
Track not present in AccurateRip database
Copy OK

Track 2

Filename D:\#cdr\#wav+flac\VA - Come On Up to the House - Women Sing Waits\02. Aimee Mann - Hold On.wav

Pre-gap length 0:00:01.98

Peak level 95.9 %
Extraction speed 5.9 X
Track quality 100.0 %
Test CRC 04DB57CF
Copy CRC 04DB57CF
Track not present in AccurateRip database
Copy OK

Track 3

Filename D:\#cdr\#wav+flac\VA - Come On Up to the House - Women Sing Waits\03. Phoebe Bridgers - Georgia Lee.wav

Pre-gap length 0:00:01.98

Peak level 95.7 %
Extraction speed 5.3 X
Track quality 99.9 %
Test CRC EC11A141
Copy CRC EC11A141
Track not present in AccurateRip database
Copy OK

Track 4

Filename D:\#cdr\#wav+flac\VA - Come On Up to the House - Women Sing Waits\04. Allison Moorer & Shelby Lynne - Ol’ 55.wav

Pre-gap length 0:00:01.98

Peak level 96.3 %
Extraction speed 7.1 X
Track quality 100.0 %
Test CRC 0D7EA8A5
Copy CRC 0D7EA8A5
Track not present in AccurateRip database
Copy OK

Track 5

Filename D:\#cdr\#wav+flac\VA - Come On Up to the House - Women Sing Waits\05. Angie McMahon - Take It With Me.wav

Pre-gap length 0:00:01.98

Peak level 95.8 %
Extraction speed 7.3 X
Track quality 100.0 %
Test CRC 5281E10B
Copy CRC 5281E10B
Track not present in AccurateRip database
Copy OK

Track 6

Filename D:\#cdr\#wav+flac\VA - Come On Up to the House - Women Sing Waits\06. Corinne Bailey Rae - Jersey Girl.wav

Pre-gap length 0:00:01.98

Peak level 96.0 %
Extraction speed 8.1 X
Track quality 100.0 %
Test CRC 911298E7
Copy CRC 911298E7
Track not present in AccurateRip database
Copy OK

Track 7

Filename D:\#cdr\#wav+flac\VA - Come On Up to the House - Women Sing Waits\07. Patty Griffin - Ruby’s Arms.wav

Pre-gap length 0:00:01.98

Peak level 95.9 %
Extraction speed 8.8 X
Track quality 100.0 %
Test CRC 2D70066C
Copy CRC 2D70066C
Track not present in AccurateRip database
Copy OK

Track 8

Filename D:\#cdr\#wav+flac\VA - Come On Up to the House - Women Sing Waits\08. Rosanne Cash - Time.wav

Pre-gap length 0:00:01.98

Peak level 95.7 %
Extraction speed 8.9 X
Track quality 100.0 %
Test CRC 617B0389
Copy CRC 617B0389
Track not present in AccurateRip database
Copy OK

Track 9

Filename D:\#cdr\#wav+flac\VA - Come On Up to the House - Women Sing Waits\09. Kat Edmonson - You Can Never Hold Back Spring.wav

Pre-gap length 0:00:01.98

Peak level 95.8 %
Extraction speed 8.3 X
Track quality 100.0 %
Test CRC 69003834
Copy CRC 69003834
Track not present in AccurateRip database
Copy OK

Track 10

Filename D:\#cdr\#wav+flac\VA - Come On Up to the House - Women Sing Waits\10. Iris DeMent - House Where Nobody Lives.wav

Pre-gap length 0:00:01.98

Peak level 96.2 %
Extraction speed 9.4 X
Track quality 100.0 %
Test CRC B5E3994E
Copy CRC B5E3994E
Track not present in AccurateRip database
Copy OK

Track 11

Filename D:\#cdr\#wav+flac\VA - Come On Up to the House - Women Sing Waits\11. Courtney Marie Andrews - Downtown Train.wav

Pre-gap length 0:00:01.98

Peak level 96.6 %
Extraction speed 9.6 X
Track quality 100.0 %
Test CRC 099C461A
Copy CRC 099C461A
Track not present in AccurateRip database
Copy OK

Track 12

Filename D:\#cdr\#wav+flac\VA - Come On Up to the House - Women Sing Waits\12. The Wild Reeds - Tom Traubert’s Blues.wav

Pre-gap length 0:00:01.98

Peak level 95.8 %
Extraction speed 8.3 X
Track quality 99.9 %
Test CRC 2A888B3C
Copy CRC 2A888B3C
Track not present in AccurateRip database
Copy OK


None of the tracks are present in the AccurateRip database

No errors occurred

End of status report

–– CUETools DB Plugin V2.1.6

[CTDB TOCID: 3pUU1QHsR2QPTtWwfzK.zIQ.uco-] found
Submit result: 3pUU1QHsR2QPTtWwfzK.zIQ.uco- has been confirmed
Track | CTDB Status
1 | (11/11) Accurately ripped
2 | (11/11) Accurately ripped
3 | (11/11) Accurately ripped
4 | (11/11) Accurately ripped
5 | (11/11) Accurately ripped
6 | (11/11) Accurately ripped
7 | (11/11) Accurately ripped
8 | (11/11) Accurately ripped
9 | (11/11) Accurately ripped
10 | (11/11) Accurately ripped
11 | (11/11) Accurately ripped
12 | (11/11) Accurately ripped


==== Log checksum B6F562E5AC3897A366EAA82E3352C406A5B5CEFDB032BC19E502EBD3F60B2DEE ====

––––––––––––––––––––––––––––––

Exact Audio Copy V1.3 from 2. September 2016

EAC extraction logfile from 12. January 2020, 22:47

Various Artists / Come On Up to the House - Women Sing Waits

Used drive : PLEXTOR PX-891SAF Adapter: 1 ID: 0

Read mode : Secure
Utilize accurate stream : Yes
Defeat audio cache : Yes
Make use of C2 pointers : No

Read offset correction : 6
Overread into Lead-In and Lead-Out : No
Fill up missing offset samples with silence : Yes
Delete leading and trailing silent blocks : No
Null samples used in CRC calculations : Yes
Used interface : Native Win32 interface for Win NT & 2000
Gap handling : Appended to previous track

Used output format : User Defined Encoder
Selected bitrate : 1024 kBit/s
Quality : High
Add ID3 tag : No
Command line compressor : C:\Program Files (x86)\Exact Audio Copy\Flac\flac.exe
Additional command line options : -8 -V -T "ARTIST=%artist%" -T "TITLE=%title%" -T "ALBUM=%albumtitle%" -T "DATE=%year%" -T "TRACKNUMBER=%tracknr%" -T "GENRE=%genre%" -T "PERFORMER=%albuminterpret%" -T "COMPOSER=%composer%" %haslyrics%–tag-from-file=LYRICS="%lyricsfile%"%haslyrics% -T "ALBUMARTIST=%albumartist%" -T "DISCNUMBER=%cdnumber%" -T "TOTALDISCS=%totalcds%" -T "TOTALTRACKS=%numtracks%" -T "COMMENT=%comment%" %source% -o %dest%


TOC of the extracted CD

Track | Start | Length | Start sector | End sector
––––––––––––––––––––––––––––-
1 | 0:00.00 | 4:02.69 | 0 | 18218
2 | 4:02.69 | 5:25.59 | 18219 | 42652
3 | 9:28.53 | 4:20.44 | 42653 | 62196
4 | 13:49.22 | 5:31.15 | 62197 | 87036
5 | 19:20.37 | 4:08.71 | 87037 | 105707
6 | 23:29.33 | 5:35.12 | 105708 | 130844
7 | 29:04.45 | 6:08.28 | 130845 | 158472
8 | 35:12.73 | 4:38.73 | 158473 | 179395
9 | 39:51.71 | 2:24.01 | 179396 | 190196
10 | 42:15.72 | 4:24.42 | 190197 | 210038
11 | 46:40.39 | 4:16.29 | 210039 | 229267
12 | 50:56.68 | 4:45.38 | 229268 | 250680


Track 1

Filename D:\#cdr\#wav+flac\VA - Come On Up to the House - Women Sing Waits\01. Joseph - Come On Up to the House.wav

Pre-gap length 0:00:02.00

Peak level 95.8 %
Extraction speed 5.1 X
Track quality 100.0 %
Test CRC A105F696
Copy CRC A105F696
Track not present in AccurateRip database
Copy OK

Track 2

Filename D:\#cdr\#wav+flac\VA - Come On Up to the House - Women Sing Waits\02. Aimee Mann - Hold On.wav

Pre-gap length 0:00:01.98

Peak level 95.9 %
Extraction speed 5.9 X
Track quality 100.0 %
Test CRC 04DB57CF
Copy CRC 04DB57CF
Track not present in AccurateRip database
Copy OK

Track 3

Filename D:\#cdr\#wav+flac\VA - Come On Up to the House - Women Sing Waits\03. Phoebe Bridgers - Georgia Lee.wav

Pre-gap length 0:00:01.98

Peak level 95.7 %
Extraction speed 5.3 X
Track quality 99.9 %
Test CRC EC11A141
Copy CRC EC11A141
Track not present in AccurateRip database
Copy OK

Track 4

Filename D:\#cdr\#wav+flac\VA - Come On Up to the House - Women Sing Waits\04. Allison Moorer & Shelby Lynne - Ol’ 55.wav

Pre-gap length 0:00:01.98

Peak level 96.3 %
Extraction speed 7.1 X
Track quality 100.0 %
Test CRC 0D7EA8A5
Copy CRC 0D7EA8A5
Track not present in AccurateRip database
Copy OK

Track 5

Filename D:\#cdr\#wav+flac\VA - Come On Up to the House - Women Sing Waits\05. Angie McMahon - Take It With Me.wav

Pre-gap length 0:00:01.98

Peak level 95.8 %
Extraction speed 7.3 X
Track quality 100.0 %
Test CRC 5281E10B
Copy CRC 5281E10B
Track not present in AccurateRip database
Copy OK

Track 6

Filename D:\#cdr\#wav+flac\VA - Come On Up to the House - Women Sing Waits\06. Corinne Bailey Rae - Jersey Girl.wav

Pre-gap length 0:00:01.98

Peak level 96.0 %
Extraction speed 8.1 X
Track quality 100.0 %
Test CRC 911298E7
Copy CRC 911298E7
Track not present in AccurateRip database
Copy OK

Track 7

Filename D:\#cdr\#wav+flac\VA - Come On Up to the House - Women Sing Waits\07. Patty Griffin - Ruby’s Arms.wav

Pre-gap length 0:00:01.98

Peak level 95.9 %
Extraction speed 8.8 X
Track quality 100.0 %
Test CRC 2D70066C
Copy CRC 2D70066C
Track not present in AccurateRip database
Copy OK

Track 8

Filename D:\#cdr\#wav+flac\VA - Come On Up to the House - Women Sing Waits\08. Rosanne Cash - Time.wav

Pre-gap length 0:00:01.98

Peak level 95.7 %
Extraction speed 8.9 X
Track quality 100.0 %
Test CRC 617B0389
Copy CRC 617B0389
Track not present in AccurateRip database
Copy OK

Track 9

Filename D:\#cdr\#wav+flac\VA - Come On Up to the House - Women Sing Waits\09. Kat Edmonson - You Can Never Hold Back Spring.wav

Pre-gap length 0:00:01.98

Peak level 95.8 %
Extraction speed 8.3 X
Track quality 100.0 %
Test CRC 69003834
Copy CRC 69003834
Track not present in AccurateRip database
Copy OK

Track 10

Filename D:\#cdr\#wav+flac\VA - Come On Up to the House - Women Sing Waits\10. Iris DeMent - House Where Nobody Lives.wav

Pre-gap length 0:00:01.98

Peak level 96.2 %
Extraction speed 9.4 X
Track quality 100.0 %
Test CRC B5E3994E
Copy CRC B5E3994E
Track not present in AccurateRip database
Copy OK

Track 11

Filename D:\#cdr\#wav+flac\VA - Come On Up to the House - Women Sing Waits\11. Courtney Marie Andrews - Downtown Train.wav

Pre-gap length 0:00:01.98

Peak level 96.6 %
Extraction speed 9.6 X
Track quality 100.0 %
Test CRC 099C461A
Copy CRC 099C461A
Track not present in AccurateRip database
Copy OK

Track 12

Filename D:\#cdr\#wav+flac\VA - Come On Up to the House - Women Sing Waits\12. The Wild Reeds - Tom Traubert’s Blues.wav

Pre-gap length 0:00:01.98

Peak level 95.8 %
Extraction speed 8.3 X
Track quality 99.9 %
Test CRC 2A888B3C
Copy CRC 2A888B3C
Track not present in AccurateRip database
Copy OK


None of the tracks are present in the AccurateRip database

No errors occurred

End of status report

–– CUETools DB Plugin V2.1.6

[CTDB TOCID: 3pUU1QHsR2QPTtWwfzK.zIQ.uco-] found
Submit result: 3pUU1QHsR2QPTtWwfzK.zIQ.uco- has been confirmed
Track | CTDB Status
1 | (11/11) Accurately ripped
2 | (11/11) Accurately ripped
3 | (11/11) Accurately ripped
4 | (11/11) Accurately ripped
5 | (11/11) Accurately ripped
6 | (11/11) Accurately ripped
7 | (11/11) Accurately ripped
8 | (11/11) Accurately ripped
9 | (11/11) Accurately ripped
10 | (11/11) Accurately ripped
11 | (11/11) Accurately ripped
12 | (11/11) Accurately ripped


==== Log checksum B6F562E5AC3897A366EAA82E3352C406A5B5CEFDB032BC19E502EBD3F60B2DEE ====

Thanks to the Original ripper !