Subcategories

Various Artists – Jazz Is Busting Out All Over (1957) (Savoy - Denon Mastersonic 20-Bit Processing)

Posted By: janwal46
Various Artists – Jazz Is Busting Out All Over (1957) (Savoy - Denon Mastersonic 20-Bit Processing)

Various Artists – Jazz Is Busting Out All Over (1957) (Savoy - Denon Mastersonic 20-Bit Processing)

Various Artists – Jazz Is Busting Out All Over (1957) (Savoy - Denon Mastersonic 20-Bit Processing)
1957 | Jazz | EAC RIP | FLAC+CUE+LOG+HQ-Covers (400Dpi) | 299Mb+15Mb

Though credited to Frank Wess, this album is more likely a compilation of various sessions in 1957. Nevertheless it is a nice addition to any jazz collection.

Personnel:

Phil Woods
Gus Johnson
Frank Wess
Kenny Burrell
Freddie Green
Wilbur Harden
Elvin Jones
And many others

Tracklist:

01. Walkin'
02. Monday Stroll
03. Sram
04. M.C.
05. June Is Bustin' Out All Over
06. Stop
07. Sugar Dugar
08. Jan-Cee Brown

Recorded And Mastered By Rudy Van Gelder

Exact Audio Copy V0.99 prebeta 4 from 23. January 2008

EAC extraction logfile from 12. August 2009, 0:03

Various / Jazz Is Busting Out All Over

Used drive : Optiarc DVD RW AD-7173A Adapter: 1 ID: 0

Read mode : Secure
Utilize accurate stream : Yes
Defeat audio cache : Yes
Make use of C2 pointers : No

Read offset correction : 48
Overread into Lead-In and Lead-Out : No
Fill up missing offset samples with silence : Yes
Delete leading and trailing silent blocks : No
Null samples used in CRC calculations : No
Used interface : Native Win32 interface for Win NT & 2000

Used output format : Internal WAV Routines
Sample format : 44.100 Hz; 16 Bit; Stereo


TOC of the extracted CD

Track | Start | Length | Start sector | End sector
––––––––––––––––––––––––––––-
1 | 0:00.00 | 7:39.63 | 0 | 34487
2 | 7:39.63 | 4:22.30 | 34488 | 54167
3 | 12:02.18 | 5:39.07 | 54168 | 79599
4 | 17:41.25 | 4:22.50 | 79600 | 99299
5 | 22:04.00 | 3:11.00 | 99300 | 113624
6 | 25:15.00 | 8:22.13 | 113625 | 151287
7 | 33:37.13 | 4:42.50 | 151288 | 172487
8 | 38:19.63 | 4:45.27 | 172488 | 193889


Range status and errors

Selected range

Filename G:\AVAXHOME\Various Artists - Jazz Is Busting Out All Over (1957)\Various Artists - Jazz Is Busting Out All Over.wav

Peak level 100.0 %
Range quality 100.0 %
Copy CRC CD658764
Copy OK

No errors occurred


AccurateRip summary

Track 1 not present in database
Track 2 not present in database
Track 3 not present in database
Track 4 not present in database
Track 5 not present in database
Track 6 not present in database
Track 7 not present in database
Track 8 not present in database

None of the tracks are present in the AccurateRip database

End of status report

RIPPED BY JANWAL46

RS Links:




Password: janwal46

No mirrors in your comments, please !!!!