Tags
Language
Tags

Vox Clamantis & Jaan-Eik Tulve - Cyrillus Kreek: The Suspended Harp of Babel (2020)

Posted By: delpotro
Vox Clamantis & Jaan-Eik Tulve - Cyrillus Kreek: The Suspended Harp of Babel (2020)

Vox Clamantis & Jaan-Eik Tulve - Cyrillus Kreek: The Suspended Harp of Babel (2020)
EAC Rip | FLAC (tracks+log+.cue) - 289 Mb | MP3 CBR 320 kbps - 162 Mb | Covers included | 01:09:47
Classical, Sacred, Choral | Label: ECM Records

The Suspended Harp of Babel features revelatory performances of the choral music of Estonian composer Cyrillus Kreek (1889-1962). Kreek’s pieces, incorporating graceful settings of psalms and folk hymns, are juxtaposed here with instrumental fantasias and interludes created for this recording by Marco Ambrosini. Under the direction of Jan-Eike Tulve, the Vox Clamantis choir - whose previous ECM recordings have addressed works of Arvo Pärt, Erkki-Sven Tüür and Helena Tulve as well as Gregorian chant- prove to be ideal interpreters of a music poised between old and new. The Suspended Harp of Babel was recorded in Tallinn’s Transfiguration Church in August 2018.
Tracklist:
1. Vox Clamantis & Jaan-Eik Tulve – The Sun Shall Not Smite Thee (03:05)
2. Anna-Liisa Eller, Angela Ambrosini, Marco Ambrosini, Vox Clamantis & Jaan-Eik Tulve – Whilst Great Is Our Poverty (05:17)
3. Anna-Liisa Eller, Angela Ambrosini, Marco Ambrosini, Vox Clamantis & Jaan-Eik Tulve – Jacob's Dream / Orthodox Vespers: Proemial Psalm (11:55)
4. Anna-Liisa Eller, Angela Ambrosini, Marco Ambrosini, Vox Clamantis & Jaan-Eik Tulve – From Heaven Above to Earth I Come (05:56)
5. Vox Clamantis & Jaan-Eik Tulve – Bless the Lord, My Soul (02:25)
6. Anna-Liisa Eller, Angela Ambrosini, Marco Ambrosini, Vox Clamantis & Jaan-Eik Tulve – Awake, My Heart (06:53)
7. Vox Clamantis & Jaan-Eik Tulve – Orthodox Vespers: Praise the Name of the Lord (02:21)
8. Anna-Liisa Eller, Angela Ambrosini, Marco Ambrosini, Vox Clamantis & Jaan-Eik Tulve – Do the Birds Worry? (05:06)
9. Vox Clamantis & Jaan-Eik Tulve – Lord, I Cry unto Thee (02:27)
10. Anna-Liisa Eller, Angela Ambrosini, Marco Ambrosini, Vox Clamantis & Jaan-Eik Tulve – He, Who Lets God Prevail (03:55)
11. Vox Clamantis & Jaan-Eik Tulve – By the Rivers of Babylon (05:36)
12. Anna-Liisa Eller, Angela Ambrosini, Marco Ambrosini, Vox Clamantis & Jaan-Eik Tulve – The Last Dance (02:39)
13. Anna-Liisa Eller, Angela Ambrosini, Marco Ambrosini, Vox Clamantis & Jaan-Eik Tulve – O Jesus, Thy Pain / Dame, vostre doulz viaire (Arr. M. Ambrosini and Eller) (12:06)

Exact Audio Copy V1.6 from 23. October 2020

EAC extraction logfile from 13. November 2021, 15:17

Vox Clamantis & Jaan-Eik Tulve / The Suspended Harp of Babel

Used drive : HL-DT-STDVDRAM GP65NB60 Adapter: 1 ID: 0

Read mode : Secure
Utilize accurate stream : Yes
Defeat audio cache : Yes
Make use of C2 pointers : No

Read offset correction : 6
Overread into Lead-In and Lead-Out : No
Fill up missing offset samples with silence : Yes
Delete leading and trailing silent blocks : No
Null samples used in CRC calculations : Yes
Used interface : Native Win32 interface for Win NT & 2000
Gap handling : Appended to previous track

Used output format : User Defined Encoder
Selected bitrate : 1024 kBit/s
Quality : High
Add ID3 tag : No
Command line compressor : C:\Program Files (x86)\Exact Audio Copy\Flac\flac.exe
Additional command line options : -8 -V -T "ARTIST=%artist%" -T "TITLE=%title%" -T "ALBUM=%albumtitle%" -T "DATE=%year%" -T "TRACKNUMBER=%tracknr%" -T "GENRE=%genre%" -T "PERFORMER=%albuminterpret%" -T "COMPOSER=%composer%" -T "ALBUMARTIST=%albumartist%" -T "DISCNUMBER=%cdnumber%" -T "TOTALDISCS=%totalcds%" -T "TOTALTRACKS=%numtracks%" -T "COMMENT=%comment%" %source% -o %dest%


TOC of the extracted CD

Track | Start | Length | Start sector | End sector
––––––––––––––––––––––––––––-
1 | 0:00.00 | 3:05.27 | 0 | 13901
2 | 3:05.27 | 5:17.70 | 13902 | 37746
3 | 8:23.22 | 11:55.47 | 37747 | 91418
4 | 20:18.69 | 5:56.38 | 91419 | 118156
5 | 26:15.32 | 2:25.54 | 118157 | 129085
6 | 28:41.11 | 6:53.33 | 129086 | 160093
7 | 35:34.44 | 2:21.14 | 160094 | 170682
8 | 37:55.58 | 5:06.24 | 170683 | 193656
9 | 43:02.07 | 2:27.35 | 193657 | 204716
10 | 45:29.42 | 3:55.29 | 204717 | 222370
11 | 49:24.71 | 5:36.29 | 222371 | 247599
12 | 55:01.25 | 2:39.02 | 247600 | 259526
13 | 57:40.27 | 12:06.53 | 259527 | 314029


Track 1

Filename D:\EAC Rips\Cyrillus Kreek - The Suspended Harp of Babel (2020) {4819041} [CD FLAC]\01 - The Sun Shall Not Smite Thee.wav

Pre-gap length 0:00:02.00

Peak level 76.1 %
Extraction speed 1.2 X
Track quality 100.0 %
Test CRC BC262F27
Copy CRC BC262F27
Accurately ripped (confidence 9) [3D4A29E5] (AR v2)
Copy OK

Track 2

Filename D:\EAC Rips\Cyrillus Kreek - The Suspended Harp of Babel (2020) {4819041} [CD FLAC]\02 - Whilst Great Is Our Poverty.wav

Peak level 71.9 %
Extraction speed 1.4 X
Track quality 100.0 %
Test CRC 489BB1F6
Copy CRC 489BB1F6
Accurately ripped (confidence 9) [E054CFF5] (AR v2)
Copy OK

Track 3

Filename D:\EAC Rips\Cyrillus Kreek - The Suspended Harp of Babel (2020) {4819041} [CD FLAC]\03 - Jacob's Dream - Orthodox Vespers- Proemial Psalm.wav

Peak level 81.0 %
Extraction speed 1.8 X
Track quality 100.0 %
Test CRC 4552C72C
Copy CRC 4552C72C
Accurately ripped (confidence 9) [B70991ED] (AR v2)
Copy OK

Track 4

Filename D:\EAC Rips\Cyrillus Kreek - The Suspended Harp of Babel (2020) {4819041} [CD FLAC]\04 - From Heaven Above to Earth I Come.wav

Peak level 39.5 %
Extraction speed 1.9 X
Track quality 100.0 %
Test CRC 700D8657
Copy CRC 700D8657
Accurately ripped (confidence 9) [E87A63F1] (AR v2)
Copy OK

Track 5

Filename D:\EAC Rips\Cyrillus Kreek - The Suspended Harp of Babel (2020) {4819041} [CD FLAC]\05 - Bless the Lord, My Soul.wav

Peak level 97.2 %
Extraction speed 1.5 X
Track quality 99.9 %
Test CRC B57FF125
Copy CRC B57FF125
Accurately ripped (confidence 9) [C7A7E8F0] (AR v2)
Copy OK

Track 6

Filename D:\EAC Rips\Cyrillus Kreek - The Suspended Harp of Babel (2020) {4819041} [CD FLAC]\06 - Awake, My Heart.wav

Peak level 84.1 %
Extraction speed 2.1 X
Track quality 100.0 %
Test CRC 943EF7EC
Copy CRC 943EF7EC
Accurately ripped (confidence 9) [54BEBDA8] (AR v2)
Copy OK

Track 7

Filename D:\EAC Rips\Cyrillus Kreek - The Suspended Harp of Babel (2020) {4819041} [CD FLAC]\07 - Orthodox Vespers - Praise the Name of the Lord.wav

Peak level 60.5 %
Extraction speed 1.9 X
Track quality 100.0 %
Test CRC 12C821A5
Copy CRC 12C821A5
Accurately ripped (confidence 9) [0F3C49FE] (AR v2)
Copy OK

Track 8

Filename D:\EAC Rips\Cyrillus Kreek - The Suspended Harp of Babel (2020) {4819041} [CD FLAC]\08 - Do the Birds Worry.wav

Peak level 96.7 %
Extraction speed 2.2 X
Track quality 100.0 %
Test CRC 9735AB4A
Copy CRC 9735AB4A
Accurately ripped (confidence 9) [80ED57BF] (AR v2)
Copy OK

Track 9

Filename D:\EAC Rips\Cyrillus Kreek - The Suspended Harp of Babel (2020) {4819041} [CD FLAC]\09 - Lord, I Cry unto Thee.wav

Peak level 92.2 %
Extraction speed 2.0 X
Track quality 100.0 %
Test CRC 50F13C4A
Copy CRC 50F13C4A
Accurately ripped (confidence 9) [CE730A3C] (AR v2)
Copy OK

Track 10

Filename D:\EAC Rips\Cyrillus Kreek - The Suspended Harp of Babel (2020) {4819041} [CD FLAC]\10 - He, Who Lets God Prevail.wav

Peak level 97.9 %
Extraction speed 2.0 X
Track quality 99.9 %
Test CRC 8C66057E
Copy CRC 8C66057E
Accurately ripped (confidence 9) [E8C2111A] (AR v2)
Copy OK

Track 11

Filename D:\EAC Rips\Cyrillus Kreek - The Suspended Harp of Babel (2020) {4819041} [CD FLAC]\11 - By the Rivers of Babylon.wav

Peak level 78.8 %
Extraction speed 2.5 X
Track quality 100.0 %
Test CRC 4E19AEB9
Copy CRC 4E19AEB9
Accurately ripped (confidence 9) [CC905A0D] (AR v2)
Copy OK

Track 12

Filename D:\EAC Rips\Cyrillus Kreek - The Suspended Harp of Babel (2020) {4819041} [CD FLAC]\12 - The Last Dance.wav

Peak level 84.7 %
Extraction speed 1.9 X
Track quality 99.9 %
Test CRC 5EFF82EF
Copy CRC 5EFF82EF
Accurately ripped (confidence 9) [2A7BAFF3] (AR v2)
Copy OK

Track 13

Filename D:\EAC Rips\Cyrillus Kreek - The Suspended Harp of Babel (2020) {4819041} [CD FLAC]\13 - O Jesus, Thy Pain - Dame, vostre doulz viaire.wav

Peak level 91.2 %
Extraction speed 2.8 X
Track quality 100.0 %
Test CRC 4FE16FA0
Copy CRC 4FE16FA0
Accurately ripped (confidence 9) [80BB3C9F] (AR v2)
Copy OK


All tracks accurately ripped

No errors occurred

End of status report

–– CUETools DB Plugin V2.1.6

[CTDB TOCID: 1S5.Cl3Pha3XImcpE7gwvzJLkfA-] found
Submit result: already submitted
Track | CTDB Status
1 | (38/38) Accurately ripped
2 | (38/38) Accurately ripped
3 | (38/38) Accurately ripped
4 | (38/38) Accurately ripped
5 | (38/38) Accurately ripped
6 | (38/38) Accurately ripped
7 | (38/38) Accurately ripped
8 | (38/38) Accurately ripped
9 | (38/38) Accurately ripped
10 | (38/38) Accurately ripped
11 | (37/38) Accurately ripped
12 | (38/38) Accurately ripped
13 | (38/38) Accurately ripped


==== Log checksum 16E91B736B655C8CF2991A943619E38D0CC7AD61238C0C9C265423B6E05B933F ====

Thanks to the Original ripper !