Subcategories

Walter Trout and The Free Radicals - Livin' Every Day (1999)

Posted By: mr. magoo
Walter Trout and The Free Radicals - Livin' Every Day (1999)

Walter Trout and The Free Radicals - Livin' Every Day (1999)
EAC AccurateRip | FLAC + Log + Cue | Scans | 505 MB | HF + RS | 5% recovery
Label: Ruf 1035| Genre: Blues


Blues-rocker Walter Trout struts his stuff on , the follow-up to his self-titled 1998 major-label debut. Overall, it's another fine outing for rabid blues guitar fans, full of gritty, gutsy playing and well-executed band support. Although songwriting isn't the album's primary focus, there are a number of tough survivor's tales here that resonate pretty well. On the other side of the coin, his balladry tries to be sincere yet leans toward sentimentality, which can dissipate the fire of the harder-rocking tracks. Still, is an entirely worthy effort by one of contemporary blues-rock's most underrated instrumentalists.


Tracks:
01 - Livin' Every Day
02 - Let Me Know
03 - Playing With A Losin' Hand
04 - Sweet Butterfly
05 - I Thought I Heard The Devil
06 - Through The Eyes Of Love
07 - Nothin' But The Blues
08 - City Man
09 - Fool For Love
10 - Say What You Mean
11 - Apparitions
12 - Junkyards In Your Eyes
13 - The Love That We Once Knew
14 - Prisoner Of A Dream

Exact Audio Copy V0.99 prebeta 4 from 23. January 2008

EAC extraction logfile from 27. December 2009, 15:28

Walter Trout & The Free Radicals / Livin' Every Day

Used drive : SONY DVD RW DRU-840A Adapter: 1 ID: 1

Read mode : Secure
Utilize accurate stream : Yes
Defeat audio cache : No
Make use of C2 pointers : No

Read offset correction : 6
Overread into Lead-In and Lead-Out : No
Fill up missing offset samples with silence : Yes
Delete leading and trailing silent blocks : No
Null samples used in CRC calculations : Yes
Used interface : Native Win32 interface for Win NT & 2000
Gap handling : Appended to previous track

Used output format : User Defined Encoder
Selected bitrate : 1024 kBit/s
Quality : High
Add ID3 tag : No
Command line compressor : C:\Program Files\Exact Audio Copy\Flac\flac.exe
Additional command line options : -8 -V -T "artist=%a" -T "title=%t" -T "album=%g" -T "date=%y" -T "tracknumber=%n" -T "genre=%m" %s


TOC of the extracted CD

Track | Start | Length | Start sector | End sector
––––––––––––––––––––––––––––-
1 | 0:00.00 | 4:42.60 | 0 | 21209
2 | 4:42.60 | 4:55.52 | 21210 | 43386
3 | 9:38.37 | 4:17.03 | 43387 | 62664
4 | 13:55.40 | 4:53.07 | 62665 | 84646
5 | 18:48.47 | 4:36.28 | 84647 | 105374
6 | 23:25.00 | 4:59.10 | 105375 | 127809
7 | 28:24.10 | 5:19.02 | 127810 | 151736
8 | 33:43.12 | 2:31.22 | 151737 | 163083
9 | 36:14.34 | 5:01.51 | 163084 | 185709
10 | 41:16.10 | 5:12.72 | 185710 | 209181
11 | 46:29.07 | 6:53.40 | 209182 | 240196
12 | 53:22.47 | 4:33.62 | 240197 | 260733
13 | 57:56.34 | 4:53.03 | 260734 | 282711
14 | 62:49.37 | 6:13.35 | 282712 | 310721


Track 1

Filename F:\EAC Rips\Walter Trout & The Free Radicals - 1999 - Livin' Every Day\01 - Livin' Every Day.wav

Pre-gap length 0:00:02.00

Peak level 96.4 %
Track quality 100.0 %
Test CRC 8CD8E837
Copy CRC 8CD8E837
Accurately ripped (confidence 8) [8D81DE45]
Copy OK

Track 2

Filename F:\EAC Rips\Walter Trout & The Free Radicals - 1999 - Livin' Every Day\02 - Let Me Know.wav

Pre-gap length 0:00:02.06

Peak level 95.7 %
Track quality 100.0 %
Test CRC C93D9ED6
Copy CRC C93D9ED6
Accurately ripped (confidence 8) [C279C918]
Copy OK

Track 3

Filename F:\EAC Rips\Walter Trout & The Free Radicals - 1999 - Livin' Every Day\03 - Playing With A Losin' Hand.wav

Pre-gap length 0:00:01.29

Peak level 94.8 %
Track quality 99.9 %
Test CRC 63CEEE48
Copy CRC 63CEEE48
Accurately ripped (confidence 8) [B024E3C6]
Copy OK

Track 4

Filename F:\EAC Rips\Walter Trout & The Free Radicals - 1999 - Livin' Every Day\04 - Sweet Butterfly (Sophie's Song).wav

Pre-gap length 0:00:04.97

Peak level 95.3 %
Track quality 100.0 %
Test CRC 7D49DECD
Copy CRC 7D49DECD
Accurately ripped (confidence 8) [3A3DDE75]
Copy OK

Track 5

Filename F:\EAC Rips\Walter Trout & The Free Radicals - 1999 - Livin' Every Day\05 - I Thought I Heard The Devil.wav

Peak level 99.4 %
Track quality 100.0 %
Test CRC EFBA0528
Copy CRC EFBA0528
Accurately ripped (confidence 8) [DD8D6E98]
Copy OK

Track 6

Filename F:\EAC Rips\Walter Trout & The Free Radicals - 1999 - Livin' Every Day\06 - Through The Eyes Of Love.wav

Pre-gap length 0:00:02.30

Peak level 98.5 %
Track quality 100.0 %
Test CRC 1BACCA0B
Copy CRC 1BACCA0B
Accurately ripped (confidence 8) [03A8AF94]
Copy OK

Track 7

Filename F:\EAC Rips\Walter Trout & The Free Radicals - 1999 - Livin' Every Day\07 - Nothin' But The Blues.wav

Peak level 98.7 %
Track quality 100.0 %
Test CRC 1775637D
Copy CRC 1775637D
Accurately ripped (confidence 8) [82EDC852]
Copy OK

Track 8

Filename F:\EAC Rips\Walter Trout & The Free Radicals - 1999 - Livin' Every Day\08 - City Man.wav

Pre-gap length 0:00:07.13

Peak level 96.7 %
Track quality 100.0 %
Test CRC 241A8168
Copy CRC 241A8168
Accurately ripped (confidence 8) [8140214D]
Copy OK

Track 9

Filename F:\EAC Rips\Walter Trout & The Free Radicals - 1999 - Livin' Every Day\09 - Fool For Love.wav

Pre-gap length 0:00:01.16

Peak level 98.6 %
Track quality 100.0 %
Test CRC D5C894F5
Copy CRC D5C894F5
Accurately ripped (confidence 8) [8F3DF371]
Copy OK

Track 10

Filename F:\EAC Rips\Walter Trout & The Free Radicals - 1999 - Livin' Every Day\10 - Say What You Mean.wav

Peak level 98.9 %
Track quality 100.0 %
Test CRC 0745BE5E
Copy CRC 0745BE5E
Accurately ripped (confidence 8) [6FEA8777]
Copy OK

Track 11

Filename F:\EAC Rips\Walter Trout & The Free Radicals - 1999 - Livin' Every Day\11 - Apparitions.wav

Pre-gap length 0:00:01.49

Peak level 98.5 %
Track quality 100.0 %
Test CRC A6386B08
Copy CRC A6386B08
Accurately ripped (confidence 9) [2CCE2BC2]
Copy OK

Track 12

Filename F:\EAC Rips\Walter Trout & The Free Radicals - 1999 - Livin' Every Day\12 - Junkyards In Your Eyes.wav

Pre-gap length 0:00:01.73

Peak level 98.5 %
Track quality 100.0 %
Test CRC A3B113C7
Copy CRC A3B113C7
Accurately ripped (confidence 8) [5DE39D05]
Copy OK

Track 13

Filename F:\EAC Rips\Walter Trout & The Free Radicals - 1999 - Livin' Every Day\13 - The Love That We Once Knew.wav

Pre-gap length 0:00:01.82

Peak level 99.1 %
Track quality 100.0 %
Test CRC 47C24FF4
Copy CRC 47C24FF4
Accurately ripped (confidence 8) [7F0AD0A6]
Copy OK

Track 14

Filename F:\EAC Rips\Walter Trout & The Free Radicals - 1999 - Livin' Every Day\14 - Prisoner Of A Dream.wav

Peak level 99.2 %
Track quality 100.0 %
Test CRC 0800D9A4
Copy CRC 0800D9A4
Accurately ripped (confidence 8) [09A9A986]
Copy OK


All tracks accurately ripped

No errors occurred

End of status report


Hotfile Links



Rapid Share Links



Links Are Interchangeable


Password: mr. magoo