Subcategories

Walter Trout and The Radicals - Go the Distance (2001)

Posted By: mr. magoo
Walter Trout and The Radicals - Go the Distance (2001)

Walter Trout & The Radicals - Go The Distance (2001)
EAC AccurateRip | FLAC + Log + Cue | Scans | 453 MB | HF + RS | 5% recovery
Label: Ruf 1067| Genre: Blues


One of the songs on that tells listeners a lot about Walter Trout is "I Don't Want My MTV," a humorous rock & roll number that finds the blues-rocker railing against MTV for -- as he sees it -- making image, looks, and physical appearance more important than the quality of the music itself. Trout even rewrites a line from Chuck Berry's "Roll Over Beethoven," singing, "Roll over, Martha Quinn, and tell Kurt Loder the news." The tune is a defining moment for Trout because it tells you a lot about him. "I Don't Want My MTV" expresses, without apology, Trout's impatience with slickness -- and whether or not you share his opinion of MTV, it is his down-home earthiness that makes an honest blues-rock/roots rock outing. Trout's sincerity is one of his strongest assets, and it comes through on gritty offerings like "Message on the Doorway" and "Lookin' for the Promised Land." This CD isn't for blues purists, however; has as much to do with roots rock as it does with the blues. But regardless of whether or not a song has 12 bars, Trout brings the feeling of the blues to everything he does. falls short of remarkable, but it's a solid, enjoyable effort that succeeds because Trout is willing to be true to himself.

Tracks:
01 - Love So Deep
02 - Outta Control
03 - Lookin' For The Promised Land
04 - Ride 'till I'm Satisfied
05 - Go The Distance
06 - Message On The Doorway
07 - Faithful
08 - Down To You
09 - Bugle Billy
10 - Gotta Leave This Town
11 - I Don't Want My MTV
12 - Doin' Just Fine
13 - Always Been A Dreamer

Exact Audio Copy V0.99 prebeta 4 from 23. January 2008

EAC extraction logfile from 25. December 2009, 12:58

Walter Trout and The Radicals / Go the Distance

Used drive : SONY DVD RW DRU-840A Adapter: 1 ID: 1

Read mode : Secure
Utilize accurate stream : Yes
Defeat audio cache : No
Make use of C2 pointers : No

Read offset correction : 6
Overread into Lead-In and Lead-Out : No
Fill up missing offset samples with silence : Yes
Delete leading and trailing silent blocks : No
Null samples used in CRC calculations : Yes
Used interface : Native Win32 interface for Win NT & 2000
Gap handling : Appended to previous track

Used output format : User Defined Encoder
Selected bitrate : 1024 kBit/s
Quality : High
Add ID3 tag : No
Command line compressor : C:\Program Files\Exact Audio Copy\Flac\flac.exe
Additional command line options : -8 -V -T "artist=%a" -T "title=%t" -T "album=%g" -T "date=%y" -T "tracknumber=%n" -T "genre=%m" %s


TOC of the extracted CD

Track | Start | Length | Start sector | End sector
––––––––––––––––––––––––––––-
1 | 0:00.00 | 5:09.69 | 0 | 23243
2 | 5:09.69 | 5:09.33 | 23244 | 46451
3 | 10:19.27 | 5:28.65 | 46452 | 71116
4 | 15:48.17 | 4:38.00 | 71117 | 91966
5 | 20:26.17 | 6:09.52 | 91967 | 119693
6 | 26:35.69 | 5:39.30 | 119694 | 145148
7 | 32:15.24 | 4:42.61 | 145149 | 166359
8 | 36:58.10 | 4:17.12 | 166360 | 185646
9 | 41:15.22 | 3:57.42 | 185647 | 203463
10 | 45:12.64 | 6:05.15 | 203464 | 230853
11 | 51:18.04 | 2:53.00 | 230854 | 243828
12 | 54:11.04 | 5:36.44 | 243829 | 269072
13 | 59:47.48 | 3:23.17 | 269073 | 284314


Track 1

Filename F:\EAC Rips\Walter Trout and The Radicals - 2001 - Go the Distance\01 - Love So Deep.wav

Pre-gap length 0:00:02.00

Peak level 98.8 %
Track quality 100.0 %
Test CRC FF40CAC0
Copy CRC FF40CAC0
Accurately ripped (confidence 19) [647695C4]
Copy OK

Track 2

Filename F:\EAC Rips\Walter Trout and The Radicals - 2001 - Go the Distance\02 - Outta Control.wav

Peak level 98.8 %
Track quality 100.0 %
Test CRC 702DCDE8
Copy CRC 702DCDE8
Accurately ripped (confidence 19) [E5F4A507]
Copy OK

Track 3

Filename F:\EAC Rips\Walter Trout and The Radicals - 2001 - Go the Distance\03 - Lookin' For The Promised Land.wav

Pre-gap length 0:00:01.29

Peak level 98.8 %
Track quality 100.0 %
Test CRC 273C6DAE
Copy CRC 273C6DAE
Accurately ripped (confidence 19) [30AFD6B3]
Copy OK

Track 4

Filename F:\EAC Rips\Walter Trout and The Radicals - 2001 - Go the Distance\04 - Ride 'Till I'm Satisfied.wav

Peak level 98.8 %
Track quality 100.0 %
Test CRC 8A76FACD
Copy CRC 8A76FACD
Accurately ripped (confidence 19) [86B4617A]
Copy OK

Track 5

Filename F:\EAC Rips\Walter Trout and The Radicals - 2001 - Go the Distance\05 - Go The Distance.wav

Pre-gap length 0:00:01.20

Peak level 98.8 %
Track quality 100.0 %
Test CRC 6DE43637
Copy CRC 6DE43637
Accurately ripped (confidence 19) [64E4BB9D]
Copy OK

Track 6

Filename F:\EAC Rips\Walter Trout and The Radicals - 2001 - Go the Distance\06 - Message On The Doorway.wav

Pre-gap length 0:00:00.13

Peak level 98.8 %
Track quality 100.0 %
Test CRC C313D535
Copy CRC C313D535
Accurately ripped (confidence 19) [446FB0DF]
Copy OK

Track 7

Filename F:\EAC Rips\Walter Trout and The Radicals - 2001 - Go the Distance\07 - Faithful.wav

Pre-gap length 0:00:00.37

Peak level 98.8 %
Track quality 100.0 %
Test CRC E718F35F
Copy CRC E718F35F
Accurately ripped (confidence 19) [7D76FBEE]
Copy OK

Track 8

Filename F:\EAC Rips\Walter Trout and The Radicals - 2001 - Go the Distance\08 - Down To You.wav

Pre-gap length 0:00:00.25

Peak level 98.8 %
Track quality 100.0 %
Test CRC 11BF6642
Copy CRC 11BF6642
Accurately ripped (confidence 19) [DE44BE17]
Copy OK

Track 9

Filename F:\EAC Rips\Walter Trout and The Radicals - 2001 - Go the Distance\09 - Bugle Billy.wav

Pre-gap length 0:00:02.01

Peak level 98.8 %
Track quality 100.0 %
Test CRC 1A26A92F
Copy CRC 1A26A92F
Accurately ripped (confidence 19) [35A799D3]
Copy OK

Track 10

Filename F:\EAC Rips\Walter Trout and The Radicals - 2001 - Go the Distance\10 - Gotta Leave This Town.wav

Pre-gap length 0:00:00.97

Peak level 98.8 %
Track quality 100.0 %
Test CRC 65289A38
Copy CRC 65289A38
Accurately ripped (confidence 19) [526E081C]
Copy OK

Track 11

Filename F:\EAC Rips\Walter Trout and The Radicals - 2001 - Go the Distance\11 - I Don't Want My MTV.wav

Pre-gap length 0:00:01.29

Peak level 98.8 %
Track quality 99.9 %
Test CRC 65AA58E9
Copy CRC 65AA58E9
Accurately ripped (confidence 19) [4DBBAEB2]
Copy OK

Track 12

Filename F:\EAC Rips\Walter Trout and The Radicals - 2001 - Go the Distance\12 - Doin' Just Fine.wav

Pre-gap length 0:00:01.22

Peak level 98.8 %
Track quality 100.0 %
Test CRC 55502C0A
Copy CRC 55502C0A
Accurately ripped (confidence 19) [CCE118D3]
Copy OK

Track 13

Filename F:\EAC Rips\Walter Trout and The Radicals - 2001 - Go the Distance\13 - Always Been A Dreamer.wav

Pre-gap length 0:00:00.88

Peak level 97.8 %
Track quality 99.9 %
Test CRC 47D6B64B
Copy CRC 47D6B64B
Accurately ripped (confidence 19) [A83021D8]
Copy OK


All tracks accurately ripped

No errors occurred

End of status report


Hotfile Links



Rapid Share Links



Links Are Interchangeable


Password: mr. magoo