Subcategories

Walter Trout and The Radicals - Relentless (2003)

Posted By: mr. magoo
Walter Trout and The Radicals - Relentless (2003)

Walter Trout and The Radicals - Relentless (2003)
EAC AccurateRip | FLAC + Log + Cue | Scans | 498 MB | HF + RS | 5% recovery
Label: Ruf 1083| Genre: Blues


Another in a series of undiluted blues-rock offerings from guitarist Walter Trout, , his 11th disc since 1990, doesn't offer any surprises. Released in conjunction with a DVD, the album was recorded live in the Netherlands club The Paradiso on a single day with little post-production sweetening or audience intervention. This results in a successful balance between sonics and concert sparks. For those who relish his by now standard brand of sturdy, guitar-heavy, Stevie Ray Vaughan-inspired music, Trout is in fine fret-shredding form here. is the product of thirty-five years of hard work, total dedication and little distraction. His guitar expresses his deepest emotions, his singing gives voice to his soul. The years of driving, flying, trying to get to the next venue, the sleepless nights, the early-morning wake-up calls: The road life that follows when a career of music is chosen. Glamour has little to do with it. Life on the road is full of cracks, burns and tears - like the finish on Walter's guitar. Relentless.

Tracks:
01 - I'm Tired
02 - The Life I Chose
03 - Jericho Road
04 - Work No More
05 - Talk To Ya
06 - Cry If You Want To
07 - Chatroom Girl
08 - My Heart Is True
09 - Lonely Tonight
10 - Helpin' Hand
11 - Collingswood
12 - Empty Eyes
13 - The Best You Got
14 - Mercy

Exact Audio Copy V0.99 prebeta 4 from 23. January 2008

EAC extraction logfile from 28. December 2009, 20:13

Walter Trout and The Radicals / Relentless

Used drive : SONY DVD RW DRU-840A Adapter: 1 ID: 1

Read mode : Secure
Utilize accurate stream : Yes
Defeat audio cache : No
Make use of C2 pointers : No

Read offset correction : 6
Overread into Lead-In and Lead-Out : No
Fill up missing offset samples with silence : Yes
Delete leading and trailing silent blocks : No
Null samples used in CRC calculations : Yes
Used interface : Native Win32 interface for Win NT & 2000
Gap handling : Appended to previous track

Used output format : User Defined Encoder
Selected bitrate : 1024 kBit/s
Quality : High
Add ID3 tag : No
Command line compressor : C:\Program Files\Exact Audio Copy\Flac\flac.exe
Additional command line options : -8 -V -T "artist=%a" -T "title=%t" -T "album=%g" -T "date=%y" -T "tracknumber=%n" -T "genre=%m" %s


TOC of the extracted CD

Track | Start | Length | Start sector | End sector
––––––––––––––––––––––––––––-
1 | 0:00.00 | 6:03.69 | 0 | 27293
2 | 6:03.69 | 6:07.71 | 27294 | 54889
3 | 12:11.65 | 4:30.68 | 54890 | 75207
4 | 16:42.58 | 5:45.37 | 75208 | 101119
5 | 22:28.20 | 5:32.40 | 101120 | 126059
6 | 28:00.60 | 4:45.54 | 126060 | 147488
7 | 32:46.39 | 5:33.47 | 147489 | 172510
8 | 38:20.11 | 6:41.28 | 172511 | 202613
9 | 45:01.39 | 2:24.37 | 202614 | 213450
10 | 47:26.01 | 5:21.42 | 213451 | 237567
11 | 52:47.43 | 4:15.36 | 237568 | 256728
12 | 57:03.04 | 5:09.39 | 256729 | 279942
13 | 62:12.43 | 6:24.47 | 279943 | 308789
14 | 68:37.15 | 4:24.28 | 308790 | 328617


Track 1

Filename F:\EAC Rips\Walter Trout and The Radicals - 2003 - Relentless\01 - I'm Tired.wav

Pre-gap length 0:00:02.00

Peak level 96.6 %
Track quality 99.9 %
Test CRC 4A032063
Copy CRC 4A032063
Accurately ripped (confidence 20) [5EDCA51E]
Copy OK

Track 2

Filename F:\EAC Rips\Walter Trout and The Radicals - 2003 - Relentless\02 - The Life I Chose.wav

Pre-gap length 0:00:01.54

Peak level 96.6 %
Track quality 99.9 %
Test CRC 94A2D097
Copy CRC 94A2D097
Accurately ripped (confidence 20) [D93CB035]
Copy OK

Track 3

Filename F:\EAC Rips\Walter Trout and The Radicals - 2003 - Relentless\03 - Jericho Road.wav

Pre-gap length 0:00:02.08

Peak level 96.6 %
Track quality 100.0 %
Test CRC 6A8B47D9
Copy CRC 6A8B47D9
Accurately ripped (confidence 20) [DF0AE45B]
Copy OK

Track 4

Filename F:\EAC Rips\Walter Trout and The Radicals - 2003 - Relentless\04 - Work No More.wav

Pre-gap length 0:00:02.06

Peak level 96.6 %
Track quality 100.0 %
Test CRC 02A1E484
Copy CRC 02A1E484
Accurately ripped (confidence 20) [7CCB7498]
Copy OK

Track 5

Filename F:\EAC Rips\Walter Trout and The Radicals - 2003 - Relentless\05 - Talk To Ya.wav

Pre-gap length 0:00:04.69

Peak level 96.6 %
Track quality 100.0 %
Test CRC 6FAB8CC9
Copy CRC 6FAB8CC9
Accurately ripped (confidence 20) [2C313B44]
Copy OK

Track 6

Filename F:\EAC Rips\Walter Trout and The Radicals - 2003 - Relentless\06 - Cry If You Want To.wav

Pre-gap length 0:00:02.57

Peak level 96.6 %
Track quality 100.0 %
Test CRC 3B4D5BBC
Copy CRC 3B4D5BBC
Accurately ripped (confidence 20) [DA951199]
Copy OK

Track 7

Filename F:\EAC Rips\Walter Trout and The Radicals - 2003 - Relentless\07 - Chatroom Girl.wav

Pre-gap length 0:00:01.25

Peak level 96.6 %
Track quality 100.0 %
Test CRC 6D079EF8
Copy CRC 6D079EF8
Accurately ripped (confidence 20) [284212C1]
Copy OK

Track 8

Filename F:\EAC Rips\Walter Trout and The Radicals - 2003 - Relentless\08 - My Heart Is True.wav

Pre-gap length 0:00:01.61

Peak level 96.6 %
Track quality 100.0 %
Test CRC 5E17A9EA
Copy CRC 5E17A9EA
Accurately ripped (confidence 20) [C1E37777]
Copy OK

Track 9

Filename F:\EAC Rips\Walter Trout and The Radicals - 2003 - Relentless\09 - Lonely Tonight.wav

Pre-gap length 0:00:02.36

Peak level 96.6 %
Track quality 100.0 %
Test CRC E93694D1
Copy CRC E93694D1
Accurately ripped (confidence 20) [6405A272]
Copy OK

Track 10

Filename F:\EAC Rips\Walter Trout and The Radicals - 2003 - Relentless\10 - Helpin' Hand.wav

Pre-gap length 0:00:01.12

Peak level 96.6 %
Track quality 100.0 %
Test CRC 4130FA82
Copy CRC 4130FA82
Accurately ripped (confidence 20) [49603179]
Copy OK

Track 11

Filename F:\EAC Rips\Walter Trout and The Radicals - 2003 - Relentless\11 - Collingswood.wav

Pre-gap length 0:00:00.86

Peak level 96.6 %
Track quality 100.0 %
Test CRC 46BCD27B
Copy CRC 46BCD27B
Accurately ripped (confidence 20) [67E3C992]
Copy OK

Track 12

Filename F:\EAC Rips\Walter Trout and The Radicals - 2003 - Relentless\12 - Empty Eyes.wav

Pre-gap length 0:00:02.10

Peak level 96.6 %
Track quality 100.0 %
Test CRC CBE08F31
Copy CRC CBE08F31
Accurately ripped (confidence 20) [602A2388]
Copy OK

Track 13

Filename F:\EAC Rips\Walter Trout and The Radicals - 2003 - Relentless\13 - The Best You Got.wav

Pre-gap length 0:00:02.14

Peak level 96.6 %
Track quality 100.0 %
Test CRC 25685B7F
Copy CRC 25685B7F
Accurately ripped (confidence 18) [07025192]
Copy OK

Track 14

Filename F:\EAC Rips\Walter Trout and The Radicals - 2003 - Relentless\14 - Mercy.wav

Peak level 96.6 %
Track quality 100.0 %
Test CRC 6EBA3DCB
Copy CRC 6EBA3DCB
Accurately ripped (confidence 18) [2E1FEB14]
Copy OK


All tracks accurately ripped

No errors occurred

End of status report


Hotfile Links



Rapid Share Links



Links Are Interchangeable


Password: mr. magoo