Subcategories

Walter Trout Band - Breaking the Rules (1995)

Posted By: mr. magoo
Walter Trout Band - Breaking the Rules (1995)

Walter Trout Band - Breaking the Rules (1995)
EAC AccurateRip | FLAC + Log + Cue | Scans | 385 MB | HF + RS | 5% recovery
Label: Provogue PRD 70762| Genre: Blues


New Jersey-born blues-rocker Walter Trout spent decades as an ace sideman, playing guitar behind the likes of John Lee Hooker, Big Mama Thornton, and Joe Tex. In 1981, he was also tapped to replace the late Bob Hite in Canned Heat, remaining with the venerable group through the middle of the decade. While filling in one night for an ailing John Mayall, Trout (also a Bluesbreaker for some five years) was spotted by a Danish concert promoter who agreed to finance a solo tour. Assembling his own backing band, in 1990 he released his debut LP, Life in the Jungle, trailed a year later by Prisoner of a Dream. Albums including 1992's Live (No More Fish Jokes), 1994's Tellin' Stories, and 1997's Positively Beale Street followed. Trout continued a steady release schedule, issuing Livin' Every Day in 1999, a live album the following year (recorded at the Tampa Bay Blues Fest), the 2001 studio album Go the Distance, 2003's Relentless -- which Trout and his band, the Radicals, recorded in front of a live audience -- and 2005's Deep Trout, a compilation of early and unreleased recordings. On the 2006 release Full Circle, Trout realized his dream of creating an album with some of his most admired musicians, including John Mayall, Coco Montoya, and Joe Bonamassa, among others.

Tracks:
01 - To Begin Again
02 - How Much Do You Want
03 - Under My Skin
04 - Like a Stranger
05 - Surrounded By Eden
06 - Breaking The Rules
07 - The Reason I'm Gone
08 - I Don't Wanna Be Lonely
09 - Put It Right Back
10 - Lady Luck
11 - Watch Her Dance

Exact Audio Copy V0.99 prebeta 4 from 23. January 2008

EAC extraction logfile from 25. December 2009, 11:51

Walter Trout Band / Breaking the Rules

Used drive : SONY DVD RW DRU-840A Adapter: 1 ID: 1

Read mode : Secure
Utilize accurate stream : Yes
Defeat audio cache : No
Make use of C2 pointers : No

Read offset correction : 6
Overread into Lead-In and Lead-Out : No
Fill up missing offset samples with silence : Yes
Delete leading and trailing silent blocks : No
Null samples used in CRC calculations : Yes
Used interface : Native Win32 interface for Win NT & 2000
Gap handling : Appended to previous track

Used output format : User Defined Encoder
Selected bitrate : 1024 kBit/s
Quality : High
Add ID3 tag : No
Command line compressor : C:\Program Files\Exact Audio Copy\Flac\flac.exe
Additional command line options : -8 -V -T "artist=%a" -T "title=%t" -T "album=%g" -T "date=%y" -T "tracknumber=%n" -T "genre=%m" %s


TOC of the extracted CD

Track | Start | Length | Start sector | End sector
––––––––––––––––––––––––––––-
1 | 0:00.00 | 4:53.55 | 0 | 22029
2 | 4:53.55 | 4:37.37 | 22030 | 42841
3 | 9:31.17 | 4:12.20 | 42842 | 61761
4 | 13:43.37 | 5:08.28 | 61762 | 84889
5 | 18:51.65 | 5:55.30 | 84890 | 111544
6 | 24:47.20 | 4:10.57 | 111545 | 130351
7 | 28:58.02 | 6:21.60 | 130352 | 158986
8 | 35:19.62 | 4:31.65 | 158987 | 179376
9 | 39:51.52 | 6:03.65 | 179377 | 206666
10 | 45:55.42 | 3:30.60 | 206667 | 222476
11 | 49:26.27 | 4:00.55 | 222477 | 240531


Track 1

Filename F:\EAC Rips\Walter Trout Band - 1995 - Breaking the Rules\01 - To Begin Again.wav

Pre-gap length 0:00:02.00

Peak level 94.0 %
Track quality 100.0 %
Test CRC 9C87DF28
Copy CRC 9C87DF28
Accurately ripped (confidence 16) [542D99BE]
Copy OK

Track 2

Filename F:\EAC Rips\Walter Trout Band - 1995 - Breaking the Rules\02 - How Much Do You Want.wav

Peak level 100.0 %
Track quality 100.0 %
Test CRC DF9C51D0
Copy CRC DF9C51D0
Accurately ripped (confidence 16) [6BAF8A33]
Copy OK

Track 3

Filename F:\EAC Rips\Walter Trout Band - 1995 - Breaking the Rules\03 - Under My Skin.wav

Peak level 99.9 %
Track quality 100.0 %
Test CRC F516ECFA
Copy CRC F516ECFA
Accurately ripped (confidence 16) [6952B420]
Copy OK

Track 4

Filename F:\EAC Rips\Walter Trout Band - 1995 - Breaking the Rules\04 - Like a Stranger.wav

Peak level 100.0 %
Track quality 100.0 %
Test CRC 702868AE
Copy CRC 702868AE
Accurately ripped (confidence 16) [07355BCB]
Copy OK

Track 5

Filename F:\EAC Rips\Walter Trout Band - 1995 - Breaking the Rules\05 - Surrounded by Eden.wav

Peak level 99.7 %
Track quality 100.0 %
Test CRC D24434E0
Copy CRC D24434E0
Accurately ripped (confidence 16) [FEA71A90]
Copy OK

Track 6

Filename F:\EAC Rips\Walter Trout Band - 1995 - Breaking the Rules\06 - Breaking the Rules.wav

Peak level 99.8 %
Track quality 100.0 %
Test CRC E4FF7EDE
Copy CRC E4FF7EDE
Accurately ripped (confidence 16) [5DD305E9]
Copy OK

Track 7

Filename F:\EAC Rips\Walter Trout Band - 1995 - Breaking the Rules\07 - The Reason I'm Gone.wav

Peak level 100.0 %
Track quality 100.0 %
Test CRC B08E64C9
Copy CRC B08E64C9
Accurately ripped (confidence 16) [3F346A20]
Copy OK

Track 8

Filename F:\EAC Rips\Walter Trout Band - 1995 - Breaking the Rules\08 - I Don't Wanna Be Lonely.wav

Peak level 99.2 %
Track quality 100.0 %
Test CRC 89D24A2B
Copy CRC 89D24A2B
Accurately ripped (confidence 16) [7CFF8565]
Copy OK

Track 9

Filename F:\EAC Rips\Walter Trout Band - 1995 - Breaking the Rules\09 - Put It Right Back.wav

Peak level 99.3 %
Track quality 100.0 %
Test CRC A3DB6E86
Copy CRC A3DB6E86
Accurately ripped (confidence 16) [49C11538]
Copy OK

Track 10

Filename F:\EAC Rips\Walter Trout Band - 1995 - Breaking the Rules\10 - Lady Lucky.wav

Peak level 99.8 %
Track quality 100.0 %
Test CRC 379BDCC1
Copy CRC 379BDCC1
Accurately ripped (confidence 16) [ABB35219]
Copy OK

Track 11

Filename F:\EAC Rips\Walter Trout Band - 1995 - Breaking the Rules\11 - Watch Her Dance.wav

Peak level 99.9 %
Track quality 99.9 %
Test CRC 313C2B7B
Copy CRC 313C2B7B
Accurately ripped (confidence 16) [06A0D76B]
Copy OK


All tracks accurately ripped

No errors occurred

End of status report


Hotfile Links



Rapid Share Links



Links Are Interchangeable


Password: mr. magoo