Subcategories

Walter Trout Band - Transition (1992)

Posted By: mr. magoo
Walter Trout Band - Transition (1992)

Walter Trout Band - Transition (1992)
EAC AccurateRip | FLAC + Log + Cue | Scans | 345 MB | HF + RS | 5% recovery
Label: Provogue PRD 70442 | Genre: Blues


is the second studio album by blues guitarist Walter Trout, following Prisoner of a Dream which came out in 1991. His 1990 debut album Life in the Jungle contained a collection of live and studio recordings from 1989. Unlike early albums from most artists, Walter Trout hit the ground running with his style of blues infused with rock, as he was already a veteran musician. Hope you enjoy this as much as I did.

Tracks:
01 - Motivation of Love
02 - Endless Variety
03 - Transition
04 - Running In Place
05 - Deeper Shade of Blue
06 - Got To Kill The Monkey
07 - Face The Night
08 - Playing With Gloves On
09 - She's Missing
10 - Fast Moving Traffic

Exact Audio Copy V0.99 prebeta 4 from 23. January 2008

EAC extraction logfile from 27. December 2009, 15:05

Walter Trout Band / Transition

Used drive : SONY DVD RW DRU-840A Adapter: 1 ID: 1

Read mode : Secure
Utilize accurate stream : Yes
Defeat audio cache : No
Make use of C2 pointers : No

Read offset correction : 6
Overread into Lead-In and Lead-Out : No
Fill up missing offset samples with silence : Yes
Delete leading and trailing silent blocks : No
Null samples used in CRC calculations : Yes
Used interface : Native Win32 interface for Win NT & 2000
Gap handling : Appended to previous track

Used output format : User Defined Encoder
Selected bitrate : 1024 kBit/s
Quality : High
Add ID3 tag : No
Command line compressor : C:\Program Files\Exact Audio Copy\Flac\flac.exe
Additional command line options : -8 -V -T "artist=%a" -T "title=%t" -T "album=%g" -T "date=%y" -T "tracknumber=%n" -T "genre=%m" %s


TOC of the extracted CD

Track | Start | Length | Start sector | End sector
––––––––––––––––––––––––––––-
1 | 0:00.33 | 5:05.52 | 33 | 22959
2 | 5:06.10 | 3:34.35 | 22960 | 39044
3 | 8:40.45 | 5:15.38 | 39045 | 62707
4 | 13:56.08 | 5:25.10 | 62708 | 87092
5 | 19:21.18 | 4:11.70 | 87093 | 105987
6 | 23:33.13 | 4:13.50 | 105988 | 125012
7 | 27:46.63 | 4:28.25 | 125013 | 145137
8 | 32:15.13 | 4:15.52 | 145138 | 164314
9 | 36:30.65 | 6:30.70 | 164315 | 193634
10 | 43:01.60 | 4:49.15 | 193635 | 215324


Track 1

Filename F:\EAC Rips\Walter Trout Band - 1992 - Transition\01 - Motivation Of Love.wav

Pre-gap length 0:00:02.44

Peak level 100.0 %
Track quality 100.0 %
Test CRC 433FC04D
Copy CRC 433FC04D
Accurately ripped (confidence 8) [B7256784]
Copy OK

Track 2

Filename F:\EAC Rips\Walter Trout Band - 1992 - Transition\02 - Endless Variety.wav

Peak level 95.6 %
Track quality 100.0 %
Test CRC 776FEC2F
Copy CRC 776FEC2F
Accurately ripped (confidence 8) [7AD4DA9B]
Copy OK

Track 3

Filename F:\EAC Rips\Walter Trout Band - 1992 - Transition\03 - Transition.wav

Peak level 100.0 %
Track quality 100.0 %
Test CRC 75D54BF2
Copy CRC 75D54BF2
Accurately ripped (confidence 8) [D05D74FF]
Copy OK

Track 4

Filename F:\EAC Rips\Walter Trout Band - 1992 - Transition\04 - Running In Place.wav

Peak level 100.0 %
Track quality 100.0 %
Test CRC E68BC664
Copy CRC E68BC664
Accurately ripped (confidence 8) [CE800122]
Copy OK

Track 5

Filename F:\EAC Rips\Walter Trout Band - 1992 - Transition\05 - Deeper Shade Of Blue.wav

Peak level 99.0 %
Track quality 100.0 %
Test CRC 11497299
Copy CRC 11497299
Accurately ripped (confidence 8) [651384E5]
Copy OK

Track 6

Filename F:\EAC Rips\Walter Trout Band - 1992 - Transition\06 - Got To Kill The Monkey.wav

Peak level 100.0 %
Track quality 99.9 %
Test CRC 3D9587DD
Copy CRC 3D9587DD
Accurately ripped (confidence 8) [4A02CACA]
Copy OK

Track 7

Filename F:\EAC Rips\Walter Trout Band - 1992 - Transition\07 - Face The Night.wav

Peak level 98.1 %
Track quality 100.0 %
Test CRC 8565661C
Copy CRC 8565661C
Accurately ripped (confidence 8) [894A2440]
Copy OK

Track 8

Filename F:\EAC Rips\Walter Trout Band - 1992 - Transition\08 - Playing With Gloves On.wav

Peak level 98.8 %
Track quality 99.9 %
Test CRC A8906252
Copy CRC A8906252
Accurately ripped (confidence 8) [9F0C7A36]
Copy OK

Track 9

Filename F:\EAC Rips\Walter Trout Band - 1992 - Transition\09 - She's Missing.wav

Peak level 100.0 %
Track quality 100.0 %
Test CRC F7E75DE1
Copy CRC F7E75DE1
Accurately ripped (confidence 7) [1DF47FEC]
Copy OK

Track 10

Filename F:\EAC Rips\Walter Trout Band - 1992 - Transition\10 - Fast Moving Traffic.wav

Peak level 100.0 %
Track quality 100.0 %
Test CRC 501E5C1B
Copy CRC 501E5C1B
Accurately ripped (confidence 7) [634B925F]
Copy OK


All tracks accurately ripped

No errors occurred

End of status report


Hotfile Links



Rapid Share Links



Links Are Interchangeable


Password: mr. magoo