Subcategories

Walter Trout - Walter Trout (1998)

Posted By: mr. magoo
Walter Trout - Walter Trout (1998)

Walter Trout - Walter Trout (1998)
EAC AccurateRip | FLAC + Log + Cue | Scans | 490 MB | HF + RS | 5% recovery
Label: Ruf 51416 1349 2| Genre: Blues


Walter Trout's eponymous debut for Ruf finds the former Canned Heat and John Mayall guitarist at the top of his game, tearing through a number of original contemporary blues songs. The songwriting occasionally is a little undistinguished, but Trout sounds dynamic throughout the album, capable of fiery leads and sensitive, lyrical solos. It was made for aficionados of blues guitar, and it won't disappoint anyone looking for that kind of record.

Tracks:
01 - Got a Broken Heart
02 - Obstacles In My Way
03 - Come Home
04 - Marie's Mood
05 - One Way Street
06 - Tender Heart
07 - Hardtime Blues
08 - In Love With You Again
09 - Don't Worry About It
10 - Song For A Wanderer
11 - Temptation
12 - Walkin' In The Rain
13 - If You Ever Change Your Mind
14 - Jules Well
15 - Let Me Be The One
16 - Boo

Exact Audio Copy V0.99 prebeta 4 from 23. January 2008

EAC extraction logfile from 30. December 2009, 10:02

Walter Trout / Walter Trout

Used drive : SONY DVD RW DRU-840A Adapter: 1 ID: 1

Read mode : Secure
Utilize accurate stream : Yes
Defeat audio cache : Yes
Make use of C2 pointers : No

Read offset correction : 6
Overread into Lead-In and Lead-Out : No
Fill up missing offset samples with silence : Yes
Delete leading and trailing silent blocks : No
Null samples used in CRC calculations : Yes
Used interface : Native Win32 interface for Win NT & 2000
Gap handling : Appended to previous track

Used output format : User Defined Encoder
Selected bitrate : 1024 kBit/s
Quality : High
Add ID3 tag : No
Command line compressor : C:\Program Files\Exact Audio Copy\Flac\flac.exe
Additional command line options : -8 -V -T "artist=%a" -T "title=%t" -T "album=%g" -T "date=%y" -T "tracknumber=%n" -T "genre=%m" %s


TOC of the extracted CD

Track | Start | Length | Start sector | End sector
––––––––––––––––––––––––––––-
1 | 0:00.00 | 6:08.15 | 0 | 27614
2 | 6:08.15 | 3:54.20 | 27615 | 45184
3 | 10:02.35 | 6:31.15 | 45185 | 74524
4 | 16:33.50 | 5:44.04 | 74525 | 100328
5 | 22:17.54 | 4:15.53 | 100329 | 119506
6 | 26:33.32 | 3:58.58 | 119507 | 137414
7 | 30:32.15 | 4:08.19 | 137415 | 156033
8 | 34:40.34 | 4:07.46 | 156034 | 174604
9 | 38:48.05 | 3:10.65 | 174605 | 188919
10 | 41:58.70 | 4:42.55 | 188920 | 210124
11 | 46:41.50 | 4:42.22 | 210125 | 231296
12 | 51:23.72 | 4:45.00 | 231297 | 252671
13 | 56:08.72 | 3:37.30 | 252672 | 268976
14 | 59:46.27 | 5:38.10 | 268977 | 294336
15 | 65:24.37 | 2:39.08 | 294337 | 306269
16 | 68:03.45 | 5:56.60 | 306270 | 333029


Track 1

Filename F:\EAC Rips\Walter Trout - 1998 - Walter Trout [Ruf 51416 1349 2]\01 - Got a Broken Heart.wav

Pre-gap length 0:00:02.00

Peak level 100.0 %
Track quality 100.0 %
Test CRC B5A5D952
Copy CRC B5A5D952
Accurately ripped (confidence 2) [E8D7139A]
Copy OK

Track 2

Filename F:\EAC Rips\Walter Trout - 1998 - Walter Trout [Ruf 51416 1349 2]\02 - Obstacles in My Way.wav

Peak level 96.1 %
Track quality 100.0 %
Test CRC 42CD88A0
Copy CRC 42CD88A0
Accurately ripped (confidence 2) [14780E00]
Copy OK

Track 3

Filename F:\EAC Rips\Walter Trout - 1998 - Walter Trout [Ruf 51416 1349 2]\03 - Come Home.wav

Peak level 100.0 %
Track quality 100.0 %
Test CRC 79587408
Copy CRC 79587408
Accurately ripped (confidence 2) [5D8843E6]
Copy OK

Track 4

Filename F:\EAC Rips\Walter Trout - 1998 - Walter Trout [Ruf 51416 1349 2]\04 - Marie's Mood.wav

Pre-gap length 0:00:02.29

Peak level 92.3 %
Track quality 100.0 %
Test CRC B9877179
Copy CRC B9877179
Accurately ripped (confidence 2) [4B573A7B]
Copy OK

Track 5

Filename F:\EAC Rips\Walter Trout - 1998 - Walter Trout [Ruf 51416 1349 2]\05 - One Way Street.wav

Pre-gap length 0:00:01.85

Peak level 98.1 %
Track quality 99.9 %
Test CRC 1C92705E
Copy CRC 1C92705E
Accurately ripped (confidence 2) [EFB37992]
Copy OK

Track 6

Filename F:\EAC Rips\Walter Trout - 1998 - Walter Trout [Ruf 51416 1349 2]\06 - Tender Heart.wav

Peak level 97.7 %
Track quality 100.0 %
Test CRC F9F3BA77
Copy CRC F9F3BA77
Accurately ripped (confidence 2) [A11FB827]
Copy OK

Track 7

Filename F:\EAC Rips\Walter Trout - 1998 - Walter Trout [Ruf 51416 1349 2]\07 - Hardtime Blues.wav

Pre-gap length 0:00:03.24

Peak level 98.9 %
Track quality 100.0 %
Test CRC FC7AD974
Copy CRC FC7AD974
Accurately ripped (confidence 2) [023B73D5]
Copy OK

Track 8

Filename F:\EAC Rips\Walter Trout - 1998 - Walter Trout [Ruf 51416 1349 2]\08 - In Love with You Again.wav

Peak level 98.7 %
Track quality 100.0 %
Test CRC AA5D0C57
Copy CRC AA5D0C57
Accurately ripped (confidence 2) [343B7528]
Copy OK

Track 9

Filename F:\EAC Rips\Walter Trout - 1998 - Walter Trout [Ruf 51416 1349 2]\09 - Don't Worry about It.wav

Pre-gap length 0:00:02.13

Peak level 97.9 %
Track quality 100.0 %
Test CRC 84AB1234
Copy CRC 84AB1234
Accurately ripped (confidence 2) [DC095F52]
Copy OK

Track 10

Filename F:\EAC Rips\Walter Trout - 1998 - Walter Trout [Ruf 51416 1349 2]\10 - Song for a Wanderer.wav

Pre-gap length 0:00:02.44

Peak level 94.4 %
Track quality 100.0 %
Test CRC E46BEF6B
Copy CRC E46BEF6B
Accurately ripped (confidence 2) [4B43457E]
Copy OK

Track 11

Filename F:\EAC Rips\Walter Trout - 1998 - Walter Trout [Ruf 51416 1349 2]\11 - Temptation.wav

Pre-gap length 0:00:02.73

Peak level 97.0 %
Track quality 100.0 %
Test CRC 94B6D98C
Copy CRC 94B6D98C
Accurately ripped (confidence 2) [211CBB9A]
Copy OK

Track 12

Filename F:\EAC Rips\Walter Trout - 1998 - Walter Trout [Ruf 51416 1349 2]\12 - Walkin' in the Rain.wav

Peak level 99.3 %
Track quality 100.0 %
Test CRC CF89A1D9
Copy CRC CF89A1D9
Accurately ripped (confidence 2) [2B6866C9]
Copy OK

Track 13

Filename F:\EAC Rips\Walter Trout - 1998 - Walter Trout [Ruf 51416 1349 2]\13 - If You Ever Change Your Mind.wav

Peak level 97.4 %
Track quality 100.0 %
Test CRC 0D77B4ED
Copy CRC 0D77B4ED
Accurately ripped (confidence 2) [B1EA46AA]
Copy OK

Track 14

Filename F:\EAC Rips\Walter Trout - 1998 - Walter Trout [Ruf 51416 1349 2]\14 - Jules Well.wav

Pre-gap length 0:00:01.16

Peak level 95.8 %
Track quality 100.0 %
Test CRC F4D14E6B
Copy CRC F4D14E6B
Accurately ripped (confidence 2) [5C4F4A67]
Copy OK

Track 15

Filename F:\EAC Rips\Walter Trout - 1998 - Walter Trout [Ruf 51416 1349 2]\15 - Let Me Be the One.wav

Pre-gap length 0:00:03.29

Peak level 86.5 %
Track quality 100.0 %
Test CRC E552B5C2
Copy CRC E552B5C2
Accurately ripped (confidence 2) [D3F35F46]
Copy OK

Track 16

Filename F:\EAC Rips\Walter Trout - 1998 - Walter Trout [Ruf 51416 1349 2]\16 - Boo.wav

Peak level 96.7 %
Track quality 100.0 %
Test CRC 4E059FB5
Copy CRC 4E059FB5
Accurately ripped (confidence 2) [140E161B]
Copy OK


All tracks accurately ripped

No errors occurred

End of status report


Hotfile Links



Rapid Share Links



Links Are Interchangeable


Password: mr. magoo