Tags
Language
Tags

Wilhelm Kempff - Beethoven: Die Klaviersonaten - The Piano Sonatas (1995) (8CD Box Set)

Posted By: shamanicus
Wilhelm Kempff - Beethoven: Die Klaviersonaten - The Piano Sonatas (1995) (8CD Box Set)

Wilhelm Kempff - Beethoven: Die Klaviersonaten - The Piano Sonatas (1995) (8CD Box Set)
XLD Rip | FLAC (tracks+.cue, log) | Covers | 1.53 Gb | MP3 CBR 320kbps | 09:41:29 | 1.29 Gb
Classical | Label: Deutsche Grammophon / 447 966-2

One of the great cycles. Of the hundred or so available recorded cycles (out of about one hundred and fifteen or so), this rates as one of the best. In better sound than either the DG stereo cycle and the live King International cycle, Kempff's style is more poetic and less intense and fiery than others. Whatever Kempff may give away in terms of speed, power, and precision, he makes up for in other ways

Having listened to several complete sets of Beethoven's piano sonatas and some incomplete sets as well, I have come to the conclusion that Wilhelm Kempff's mono studio recordings from the mid-1950s comprise my overall favorite. This has surprised me as much as anyone; Kempff's musical temperament doesn't match that of the stereotypical Beethoven - the moody, fiery virtuoso so apparent in the `Appassionata' sonata or the 5th symphony. Yet as those of us who have explored his music in depth, there has always been more to Beethoven, whether it be his humor and charm in works such as Op. 31/1 and the 8th symphony, or the searching, introspective way that revealed itself most completely in his late sonatas and quartets. It is these lesser-acknowledged facets of Beethoven's musical personality that Kempff conveys so completely, and they are at the heart of the 32 sonatas.

Kempff was not drawn to extreme tempos as are many Beethoven interpreters - his slow movements are often on the fast side and his fast movements are sometimes on the slow side. Yet he is able to give the music its meaning with attention to detail, thoughtful yet subtle phrasing, spontaneity, and a highly expressive tone. This last point is particularly commendable and is something that is perhaps undervalued among our contemporary virtuosi. Kempff seems to mold his piano into several different instruments depending on the needs of the music, achieving a level of tonal variety that is seldom approached among other pianists. Kempff was at his greatest among the lesser-known sonatas. For me, Kempff's recordings of the Op. 10 and 31 trios, Op. 26, Op. 27(#1&2), Op. 28, Op. 78, Op. 79, Op. 81a, Op. 90, Op. 101, and Op. 111 are reference recordings. Others may share that reference status in some cases, but in my opinion none exceed Kempff in these works.

On the other hand, one could complain about his approach to some of the more famous sonatas. His `Pathetique' and `Appassionata' sonatas are rather tame by most standards, lacking the pacing and sheer energy to be considered entirely successful. The same could be said of a smattering of other fast movements throughout this collection. By the same token there are slow movements that sometimes don't seem to get the gravity they deserve, like the Andante of the `Pathetique', or even some of the more poetic portions of Op. 109 and 110.

Overall though the positives in this set are too significant to be outweighed by these complaints, and complemented by other recordings I have no doubt that Kempff's mono set will find a happy home on many shelves.

The sound of these late mono recordings is clear and intimate, if somewhat flat due to its vintage. I prefer it to the brittle sound of Kempff's stereo set recorded a decade later. Furthermore, to my ears the playing in the mono set is more vital and virtuosic. There are a few areas with recording artifacts if you listen very carefully, but I won't point them out lest they detract from your experience. The box set is nicely assembled with liner notes and individually labeled sleeves for the CDs
Gwac, amazon


Tracklist:

Disc 1 - Sonaten Op.2 Nos.1 & 2 - Op.7 (12 / 1:09:28)

01. Sonata No.1 in F minor, op.2 no.1 - I. Allegro
02. Sonata No.1 in F minor, op.2 no.1 - II. Adagio
03. Sonata No.1 in F minor, op.2 no.1 - III. Menuetto. Allegretto
04. Sonata No.1 in F minor, op.2 no.1 - IV. Prestissimo
05. Sonata No.2 in A major, op.2 no.2 - I. Allegro vivace
06. Sonata No.2 in A major, op.2 no.2 - II. Largo appassionato
07. Sonata No.2 in A major, op.2 no.2 - III. Scherzo. Allegretto
08. Sonata No.2 in A major, op.2 no.2 - IV. Rondo. Grazioso
09. Sonata No.4 in E flat major, op.7 - I. Allegro molto e con brio
10. Sonata No.4 in E flat major, op.7 - II. Largo, con gran espressione
11. Sonata No.4 in E flat major, op.7 - III. Allegro
12. Sonata No.4 in E flat major, op.7 - IV. Rondo. Poco allegretto e grazioso


Disc 2 - Sonaten Op.2 No.3 - Op.10 Nos.1-3 (14 / 1:14:41)

01. Sonata No.3 in C major, op.2 no.3 - I. Allegro con brio
02. Sonata No.3 in C major, op.2 no.3 - II. Adagio
03. Sonata No.3 in C major, op.2 no.3 - III. Scherzo. Allegro
04. Sonata No.3 in C major, op.2 no.3 - IV. Allegro assai
05. Sonata No.5 in C minor, op.10 no.1 - I. Allegro molto e con brio
06. Sonata No.5 in C minor, op.10 no.1 - II. Adagio molto
07. Sonata No.5 in C minor, op.10 no.1 - III. Finale. Prestissimo
08. Sonata No.6 in F major, op.10 no.2 - I. Allegro
09. Sonata No.6 in F major, op.10 no.2 - II. Allegretto
10. Sonata No.6 in F major, op.10 no.2 - III. Presto
11. Sonata No.7 in D major, op.10 no.3 - I. Presto
12. Sonata No.7 in D major, op.10 no.3 - II. Largo e mesto
13. Sonata No.7 in D major, op.10 no.3 - III. Menuetto. Allegro
14. Sonata No.7 in D major, op.10 no.3 - IV. Rondo. Allegro


Disc 3 - Sonaten Op.13 Pathetique - Op.14 Nos.1 & 2 - Op.22 (13 / 1:11:43)

01. Sonata No.8 in C minor, op.13 - Pathetique - I. Grave. Allegro
02. Sonata No.8 in C minor, op.13 - Pathetique - II. Adagio cantabile
03. Sonata No.8 in C minor, op.13 - Pathetique - III. Rondo. Allegro
04. Sonata No.9 in E major, op.14 no.1 - I. Allegro
05. Sonata No.9 in E major, op.14 no.1 - II. Allegretto
06. Sonata No.9 in E major, op.14 no.1 - III. Rondo. Allegro comodo
07. Sonata No.10 in G major, op.14 no.2 - I. Allegro
08. Sonata No.10 in G major, op.14 no.2 - II. Andante
09. Sonata No.10 in G major, op.14 no.2 - III. Scherzo. Allegro assai
10. Sonata No.11 in B flat major, op.22 - I. Allegro con brio
11. Sonata No.11 in B flat major, op.22 - II. Adagio con molta espressione
12. Sonata No.11 in B flat major, op.22 - III. Menuetto
13. Sonata No.11 in B flat major, op.22 - IV. Rondo. Allegretto


Disc 4 - Sonaten Op.26 - Op.27 No.1, No.2 Moonlight - Op.28 Pastorale (15 / 1:12:06)

01. Sonata No.12 in A flat major, op.26 - I. Andante con variazioni
02. Sonata No.12 in A flat major, op.26 - II. Scherzo. Allegro molto
03. Sonata No.12 in A flat major, op.26 - III. Marcia funebre
04. Sonata No.12 in A flat major, op.26 - IV. Allegro
05. Sonata No.13 in in E flat major, op.27 no.1 - I. Andante. Allegro
06. Sonata No.13 in in E flat major, op.27 no.1 - II. Allegro molto e vivace
07. Sonata No.13 in in E flat major, op.27 no.1 - III. Adagio con espressione
08. Sonata No.13 in in E flat major, op.27 no.1 - IV. Allegro vivace
09. Sonata No.14 in C sharp minor, op.27 no.2 - Moonlight - I. Adagio sostenuto
10. Sonata No.14 in C sharp minor, op.27 no.2 - Moonlight - II. Allegretto
11. Sonata No.14 in C sharp minor, op.27 no.2 - Moonlight - III. Presto agitato
12. Sonata No.15 in D major, op.28 - Pastorale - I. Allegro
13. Sonata No.15 in D major, op.28 - Pastorale - II. Andante
14. Sonata No.15 in D major, op.28 - Pastorale - III. Scherzo. Allegro
15. Sonata No.15 in D major, op.28 - Pastorale - IV. Rondo. Allegro


Disc 5 - Sonaten Op.31 No.1, No.2 The Tempest, No.3 - Op.49 No.1 (12 / 1:12:02)

01. Sonata No.16 in G major op.31 no.1 - I. Allegro vivace
02. Sonata No.16 in G major op.31 no.1 - II. Adagio grazioso
03. Sonata No.16 in G major op.31 no.1 - III. Rondo. Allegretto
04. Sonata No.17 in D minor op.31 no.2 - Tempest - I. Largo. Allegro
05. Sonata No.17 in D minor op.31 no.2 - Tempest - II. Adagio
06. Sonata No.17 in D minor op.31 no.2 - Tempest - III. Allegretto
07. Sonata No.18 in E flat major op.31 no.3 - I. Allegro
08. Sonata No.18 in E flat major op.31 no.3 - II. Scherzo. Allegretto vivace
09. Sonata No.18 in E flat major op.31 no.3 - III. Minuetto. Moderato e grazioso
10. Sonata No.18 in E flat major op.31 no.3 - IV. Presto con fuoco
11. Sonata No.19 in G minor op.49 no.1 - I. Andante
12. Sonata No.19 in G minor op.49 no.1 - II. Rondo. Allegro


Disc 6 - Sonaten Op.49 No.2 - Op.53 Waldstein - Op.54 - Op.57 Appassionata - Op.78 (12 / 1:11:57)

01. Sonata No.20 in G major op.49 no.2 - I. Allegro, ma non troppo
02. Sonata No.20 in G major op.49 no.2 - II. Tempo di minuetto
03. Sonata No.21 in C major op.53 - Waldstein - I. Allegro con brio
04. Sonata No.21 in C major op.53 - Waldstein - II. Introduzione. Adagio molto
05. Sonata No.21 in C major op.53 - Waldstein - III. Rondo. Allegretto moderato
06. Sonata No.22 in F major op.54 - I. In tempo d'un menuetto
07. Sonata No.22 in F major op.54 - II. Allegretto
08. Sonata No.23 in F minor op.57 - Appassionata - I. Allegro assai
09. Sonata No.23 in F minor op.57 - Appassionata - II. Andante con moto
10. Sonata No.23 in F minor op.57 - Appassionata - III. Allegro ma non troppo. Presto
11. Sonata No.24 in F sharp major op.78 - I. Adagio cantabile. Allegro ma non troppo
12. Sonata No.24 in F sharp major op.78 - II. Allegro vivace


Disc 7 - Sonaten Op.79 - Op.81a Les Adieux - Op. 90 - Op.106 Hammerklavier (12 / 1:13:51)

01. Sonate No.25 in G major op.79 - I. Presto alla tedesca
02. Sonate No.25 in G major op.79 - II. Andante
03. Sonate No.25 in G major op.79 - III. Vivace
04. Sonate No.26 in E flat major op.81a - Les Adieux - I. Das Lebewohl
05. Sonate No.26 in E flat major op.81a - Les Adieux - II. Abwesenheit
06. Sonate No.26 in E flat major op.81a - Les Adieux - III. Das Wiedersehn
07. Sonate No.27 in E minor op.90 - I.
08. Sonate No.27 in E minor op.90 - II.
09. Sonate No.29 in B flat major op.106 - Hammerklavier - I. Allegro
10. Sonate No.29 in B flat major op.106 - Hammerklavier - II. Scherzo. Assai vivace
11. Sonate No.29 in B flat major op.106 - Hammerklavier - III. Adagio sostenuto. Appassionato
12. Sonate No.29 in B flat major op.106 - Hammerklavier - IV. Largo. Molto risoluto


Disc 8 - Sonaten Op.101 - Op.109 - Op.110 - Op.111 (12 / 1:15:38)

01. Sonata No.28 in A major op.101 - I. Allegretto ma non troppo
02. Sonata No.28 in A major op.101 - II. Vivace alla marcia
03. Sonata No.28 in A major op.101 - III. Adagio ma non troppo, con affetto
04. Sonata No.28 in A major op.101 - IV. Allegro
05. Sonata No.30 in E major op.109 - I. Vivace, ma non troppo
06. Sonata No.30 in E major op.109 - II. Prestissimo
07. Sonata No.30 in E major op.109 - III. Andante
08. Sonata No.31 in A flat major op.110 - I. Moderato cantabile molto espressivo
09. Sonata No.31 in A flat major op.110 - II. Allegro molto
10. Sonata No.31 in A flat major op.110 - III. Adagio. Fuga. Allegro
11. Sonata No.32 in C minor op.111 - I. Maestoso. Allegro
12. Sonata No.32 in C minor op.111 - II. Arietta. Adagio

Wilhelm Kempff - Beethoven: Die Klaviersonaten - The Piano Sonatas (1995) (8CD Box Set)



X Lossless Decoder version 20141129 (148.1)

XLD extraction logfile from 2017-08-30 23:48:49 +0200

Wilhelm Kempff / Beethoven - Piano Sonatas No.1, 2 & 4

Used drive : HL-DT-ST DVDRW GA11NR (revision KR06)
Media type : Pressed CD

Ripper mode : XLD Secure Ripper
Disable audio cache : OK for the drive with a cache less than 1375KiB
Make use of C2 pointers : NO
Read offset correction : 667
Max retry count : 20
Gap status : Analyzed, Appended

TOC of the extracted CD
Track | Start | Length | Start sector | End sector
––––––––––––––––––––––––––––-
1 | 00:00:33 | 04:33:00 | 33 | 20507
2 | 04:33:33 | 04:41:00 | 20508 | 41582
3 | 09:14:33 | 03:02:00 | 41583 | 55232
4 | 12:16:33 | 05:34:00 | 55233 | 80282
5 | 17:50:33 | 05:32:00 | 80283 | 105182
6 | 23:22:33 | 07:02:00 | 105183 | 136832
7 | 30:24:33 | 03:17:00 | 136833 | 151607
8 | 33:41:33 | 06:42:00 | 151608 | 181757
9 | 40:23:33 | 08:42:00 | 181758 | 220907
10 | 49:05:33 | 07:50:00 | 220908 | 256157
11 | 56:55:33 | 05:19:00 | 256158 | 280082
12 | 62:14:33 | 07:14:00 | 280083 | 312632

List of alternate offset correction values
# | Absolute | Relative | Confidence
–––––––––––––––––––––
1 | 2564 | 1897 | 31
2 | 103 | -564 | 17

AccurateRip Summary (DiscID: 001c1e74-010dbdeb-a210480c)
Track 01 : OK (v2, confidence 23/47, with different offset)
Track 02 : OK (v2, confidence 23/47, with different offset)
Track 03 : OK (v2, confidence 23/47, with different offset)
Track 04 : OK (v2, confidence 23/47, with different offset)
Track 05 : OK (v2, confidence 23/47, with different offset)
Track 06 : OK (v2, confidence 21/45, with different offset)
Track 07 : OK (v2, confidence 21/45, with different offset)
Track 08 : OK (v2, confidence 21/45, with different offset)
Track 09 : OK (v2, confidence 21/45, with different offset)
Track 10 : OK (v2, confidence 21/45, with different offset)
Track 11 : OK (v2, confidence 24/48, with different offset)
Track 12 : OK (v2, confidence 24/48, with different offset)
->All tracks accurately ripped.

All Tracks
Album gain : -1.06 dB
Peak : 0.999939
Statistics
Read error : 0
Jitter error (maybe fixed) : 0
Retry sector count : 0
Damaged sector count : 0

Track 01
Filename : /Users/dehors/Music/Wilhelm Kempff - Ludwig van Beethoven - The Piano Sonatas (1995) [FLAC]/Disc 1 - Sonaten Op.2 Nos.1 & 2 - Op.7/01 - Sonata No.1 in F minor, op.2 no.1 - I. Allegro.flac
Pre-gap length : 00:02:33

Track gain : -0.75 dB
Peak : 0.999939
CRC32 hash (test run) : F1A95953
CRC32 hash : F1A95953
CRC32 hash (skip zero) : 90FF0DA5
AccurateRip v1 signature : 1E5F2BB6
AccurateRip v2 signature : AC6061B3 (18D6FE32 w/correction)
->Accurately ripped with different offset (v2, confidence 23/47, offset +1897)
Statistics
Read error : 0
Jitter error (maybe fixed) : 0
Retry sector count : 0
Damaged sector count : 0

Track 02
Filename : /Users/dehors/Music/Wilhelm Kempff - Ludwig van Beethoven - The Piano Sonatas (1995) [FLAC]/Disc 1 - Sonaten Op.2 Nos.1 & 2 - Op.7/02 - Sonata No.1 in F minor, op.2 no.1 - II. Adagio.flac

Track gain : 5.02 dB
Peak : 0.602905
CRC32 hash (test run) : F8D59EB0
CRC32 hash : F8D59EB0
CRC32 hash (skip zero) : 6D82F31F
AccurateRip v1 signature : 2388227C
AccurateRip v2 signature : 0EE6C27A (2FC2F62D w/correction)
->Accurately ripped with different offset (v2, confidence 23/47, offset +1897)
Statistics
Read error : 0
Jitter error (maybe fixed) : 0
Retry sector count : 0
Damaged sector count : 0

Track 03
Filename : /Users/dehors/Music/Wilhelm Kempff - Ludwig van Beethoven - The Piano Sonatas (1995) [FLAC]/Disc 1 - Sonaten Op.2 Nos.1 & 2 - Op.7/03 - Sonata No.1 in F minor, op.2 no.1 - III. Menuetto. Allegretto.flac

Track gain : -2.46 dB
Peak : 0.999939
CRC32 hash (test run) : 03ED369A
CRC32 hash : 03ED369A
CRC32 hash (skip zero) : 087817AD
AccurateRip v1 signature : 5937356F
AccurateRip v2 signature : 7EADD297 (90B0C727 w/correction)
->Accurately ripped with different offset (v2, confidence 23/47, offset +1897)
Statistics
Read error : 0
Jitter error (maybe fixed) : 0
Retry sector count : 0
Damaged sector count : 0

Track 04
Filename : /Users/dehors/Music/Wilhelm Kempff - Ludwig van Beethoven - The Piano Sonatas (1995) [FLAC]/Disc 1 - Sonaten Op.2 Nos.1 & 2 - Op.7/04 - Sonata No.1 in F minor, op.2 no.1 - IV. Prestissimo.flac

Track gain : -2.27 dB
Peak : 0.899994
CRC32 hash (test run) : CDDF2A76
CRC32 hash : CDDF2A76
CRC32 hash (skip zero) : 236BCC8C
AccurateRip v1 signature : 8BF83181
AccurateRip v2 signature : 6DA9543D (A0B589B7 w/correction)
->Accurately ripped with different offset (v2, confidence 23/47, offset +1897)
Statistics
Read error : 0
Jitter error (maybe fixed) : 0
Retry sector count : 0
Damaged sector count : 0

Track 05
Filename : /Users/dehors/Music/Wilhelm Kempff - Ludwig van Beethoven - The Piano Sonatas (1995) [FLAC]/Disc 1 - Sonaten Op.2 Nos.1 & 2 - Op.7/05 - Sonata No.2 in A major, op.2 no.2 - I. Allegro vivace.flac
Pre-gap length : 00:11:00

Track gain : -2.03 dB
Peak : 0.877350
CRC32 hash (test run) : 44352C97
CRC32 hash : 44352C97
CRC32 hash (skip zero) : 01672EF8
AccurateRip v1 signature : 0252B692
AccurateRip v2 signature : 9759E304 (56080A38 w/correction)
->Accurately ripped with different offset (v2, confidence 23/47, offset +1897)
Statistics
Read error : 0
Jitter error (maybe fixed) : 0
Retry sector count : 0
Damaged sector count : 0

Track 06
Filename : /Users/dehors/Music/Wilhelm Kempff - Ludwig van Beethoven - The Piano Sonatas (1995) [FLAC]/Disc 1 - Sonaten Op.2 Nos.1 & 2 - Op.7/06 - Sonata No.2 in A major, op.2 no.2 - II. Largo appassionato.flac

Track gain : 3.12 dB
Peak : 0.885315
CRC32 hash (test run) : 897137B8
CRC32 hash : 897137B8
CRC32 hash (skip zero) : 25D3C026
AccurateRip v1 signature : DD6210EE
AccurateRip v2 signature : 4806C087 (CFF59885 w/correction)
->Accurately ripped with different offset (v2, confidence 21/45, offset +1897)
Statistics
Read error : 0
Jitter error (maybe fixed) : 0
Retry sector count : 0
Damaged sector count : 0

Track 07
Filename : /Users/dehors/Music/Wilhelm Kempff - Ludwig van Beethoven - The Piano Sonatas (1995) [FLAC]/Disc 1 - Sonaten Op.2 Nos.1 & 2 - Op.7/07 - Sonata No.2 in A major, op.2 no.2 - III. Scherzo. Allegretto.flac

Track gain : 0.35 dB
Peak : 0.870728
CRC32 hash (test run) : 0AAD993B
CRC32 hash : 0AAD993B
CRC32 hash (skip zero) : 39D31040
AccurateRip v1 signature : 2D1AB099
AccurateRip v2 signature : 3FFEFB86 (A4D55B8E w/correction)
->Accurately ripped with different offset (v2, confidence 21/45, offset +1897)
Statistics
Read error : 0
Jitter error (maybe fixed) : 0
Retry sector count : 0
Damaged sector count : 0

Track 08
Filename : /Users/dehors/Music/Wilhelm Kempff - Ludwig van Beethoven - The Piano Sonatas (1995) [FLAC]/Disc 1 - Sonaten Op.2 Nos.1 & 2 - Op.7/08 - Sonata No.2 in A major, op.2 no.2 - IV. Rondo. Grazioso.flac

Track gain : -1.64 dB
Peak : 0.968079
CRC32 hash (test run) : DE247E8C
CRC32 hash : DE247E8C
CRC32 hash (skip zero) : 29B84082
AccurateRip v1 signature : 9CB80C9B
AccurateRip v2 signature : 339B19CC (FBFEF4E7 w/correction)
->Accurately ripped with different offset (v2, confidence 21/45, offset +1897)
Statistics
Read error : 0
Jitter error (maybe fixed) : 0
Retry sector count : 0
Damaged sector count : 0

Track 09
Filename : /Users/dehors/Music/Wilhelm Kempff - Ludwig van Beethoven - The Piano Sonatas (1995) [FLAC]/Disc 1 - Sonaten Op.2 Nos.1 & 2 - Op.7/09 - Sonata No.4 in E flat major, op.7 - I. Allegro molto e con brio.flac
Pre-gap length : 00:12:00

Track gain : -2.39 dB
Peak : 0.954041
CRC32 hash (test run) : 026E3440
CRC32 hash : 026E3440
CRC32 hash (skip zero) : E92AC25D
AccurateRip v1 signature : 3730404D
AccurateRip v2 signature : A3DEA747 (427B134C w/correction)
->Accurately ripped with different offset (v2, confidence 21/45, offset +1897)
Statistics
Read error : 0
Jitter error (maybe fixed) : 0
Retry sector count : 0
Damaged sector count : 0

Track 10
Filename : /Users/dehors/Music/Wilhelm Kempff - Ludwig van Beethoven - The Piano Sonatas (1995) [FLAC]/Disc 1 - Sonaten Op.2 Nos.1 & 2 - Op.7/10 - Sonata No.4 in E flat major, op.7 - II. Largo, con gran espressione.flac

Track gain : 3.16 dB
Peak : 0.885712
CRC32 hash (test run) : 6E4DF0CA
CRC32 hash : 6E4DF0CA
CRC32 hash (skip zero) : 8C1089AA
AccurateRip v1 signature : 0937E7E5
AccurateRip v2 signature : 9189D541 (BB0A4CAB w/correction)
->Accurately ripped with different offset (v2, confidence 21/45, offset +1897)
Statistics
Read error : 0
Jitter error (maybe fixed) : 0
Retry sector count : 0
Damaged sector count : 0

Track 11
Filename : /Users/dehors/Music/Wilhelm Kempff - Ludwig van Beethoven - The Piano Sonatas (1995) [FLAC]/Disc 1 - Sonaten Op.2 Nos.1 & 2 - Op.7/11 - Sonata No.4 in E flat major, op.7 - III. Allegro.flac

Track gain : -1.73 dB
Peak : 0.857178
CRC32 hash (test run) : B74C0128
CRC32 hash : B74C0128
CRC32 hash (skip zero) : DE7A9817
AccurateRip v1 signature : 0618ED41
AccurateRip v2 signature : EAF60E04 (12C6C68F w/correction)
->Accurately ripped with different offset (v2, confidence 24/48, offset +1897)
Statistics
Read error : 0
Jitter error (maybe fixed) : 0
Retry sector count : 0
Damaged sector count : 0

Track 12
Filename : /Users/dehors/Music/Wilhelm Kempff - Ludwig van Beethoven - The Piano Sonatas (1995) [FLAC]/Disc 1 - Sonaten Op.2 Nos.1 & 2 - Op.7/12 - Sonata No.4 in E flat major, op.7 - IV. Rondo. Poco allegretto e grazioso.flac

Track gain : -1.48 dB
Peak : 0.994659
CRC32 hash (test run) : E5480FB7
CRC32 hash : E5480FB7
CRC32 hash (skip zero) : C7026CB2
AccurateRip v1 signature : EC41C727
AccurateRip v2 signature : A7F4AB48 (C033D3D3 w/correction)
->Accurately ripped with different offset (v2, confidence 24/48, offset +1897)
Statistics
Read error : 0
Jitter error (maybe fixed) : 0
Retry sector count : 0
Damaged sector count : 0

No errors occurred

End of status report

––-BEGIN XLD SIGNATURE––-
dW0oHJRsaF66r6v_p0S_pkpJ0aIjQdqGLZVNVyaM8iblKxj0NUKuqakbze22L0uKEifggbnPKQod7WHXBeHvg5onRAL1BcTfn855lQy
––-END XLD SIGNATURE––-

X Lossless Decoder version 20141129 (148.1)

XLD extraction logfile from 2017-08-31 00:12:20 +0200

Wilhelm Kempff / Beethoven - Piano Sonatas No.3, 5, 6 & 7

Used drive : HL-DT-ST DVDRW GA11NR (revision KR06)
Media type : Pressed CD

Ripper mode : XLD Secure Ripper
Disable audio cache : OK for the drive with a cache less than 1375KiB
Make use of C2 pointers : NO
Read offset correction : 667
Max retry count : 20
Gap status : Analyzed, Appended

TOC of the extracted CD
Track | Start | Length | Start sector | End sector
––––––––––––––––––––––––––––-
1 | 00:00:32 | 07:40:00 | 32 | 34531
2 | 07:40:32 | 07:09:00 | 34532 | 66706
3 | 14:49:32 | 02:46:00 | 66707 | 79156
4 | 17:35:32 | 05:24:00 | 79157 | 103456
5 | 22:59:32 | 06:09:00 | 103457 | 131131
6 | 29:08:32 | 07:45:00 | 131132 | 166006
7 | 36:53:32 | 04:08:00 | 166007 | 184606
8 | 41:01:32 | 05:39:00 | 184607 | 210031
9 | 46:40:32 | 03:30:00 | 210032 | 225781
10 | 50:10:32 | 03:56:00 | 225782 | 243481
11 | 54:06:32 | 05:00:00 | 243482 | 265981
12 | 59:06:32 | 08:45:00 | 265982 | 305356
13 | 67:51:32 | 02:51:00 | 305357 | 318181
14 | 70:42:32 | 03:59:00 | 318182 | 336106

List of alternate offset correction values
# | Absolute | Relative | Confidence
–––––––––––––––––––––
1 | 103 | -564 | 24
2 | -561 | -1228 | 13

AccurateRip Summary (DiscID: 0028bfdb-01ab710f-b311810e)
Track 01 : OK (v1+v2, confidence 23/36, with different offset)
Track 02 : OK (v1+v2, confidence 23/36, with different offset)
Track 03 : OK (v1+v2, confidence 23/36, with different offset)
Track 04 : OK (v1+v2, confidence 23/36, with different offset)
Track 05 : OK (v1+v2, confidence 23/36, with different offset)
Track 06 : OK (v1+v2, confidence 22/35, with different offset)
Track 07 : OK (v1+v2, confidence 23/36, with different offset)
Track 08 : OK (v1+v2, confidence 23/36, with different offset)
Track 09 : OK (v1+v2, confidence 23/36, with different offset)
Track 10 : OK (v1+v2, confidence 23/36, with different offset)
Track 11 : OK (v1+v2, confidence 22/35, with different offset)
Track 12 : OK (v1+v2, confidence 22/35, with different offset)
Track 13 : OK (v1+v2, confidence 23/36, with different offset)
Track 14 : OK (v1+v2, confidence 24/37, with different offset)
->All tracks accurately ripped.

All Tracks
Album gain : -0.67 dB
Peak : 0.999939
Statistics
Read error : 0
Jitter error (maybe fixed) : 0
Retry sector count : 5
Damaged sector count : 0

Track 01
Filename : /Users/dehors/Music/Wilhelm Kempff - Ludwig van Beethoven - The Piano Sonatas (1995) [FLAC]/Disc 2 - Sonaten Op.2 No.3 - Op.10 Nos.1-3/01 - Sonata No.3 in C major, op.2 no.3 - I. Allegro con brio.flac
Pre-gap length : 00:02:32

Track gain : -3.28 dB
Peak : 0.979156
CRC32 hash (test run) : 46AAC133
CRC32 hash : 46AAC133
CRC32 hash (skip zero) : F8A17641
AccurateRip v1 signature : F036756E (4DD00835 w/correction)
AccurateRip v2 signature : C34FC71C (CD987A3F w/correction)
->Accurately ripped with different offset (v1+v2, confidence 10+13/36, offset -564)
Statistics
Read error : 0
Jitter error (maybe fixed) : 0
Retry sector count : 0
Damaged sector count : 0

Track 02
Filename : /Users/dehors/Music/Wilhelm Kempff - Ludwig van Beethoven - The Piano Sonatas (1995) [FLAC]/Disc 2 - Sonaten Op.2 No.3 - Op.10 Nos.1-3/02 - Sonata No.3 in C major, op.2 no.3 - II. Adagio.flac

Track gain : 5.29 dB
Peak : 0.784973
CRC32 hash (test run) : DA67CCAB
CRC32 hash : DA67CCAB
CRC32 hash (skip zero) : B9554D52
AccurateRip v1 signature : 6EFFD9A4 (86D38D4E w/correction)
AccurateRip v2 signature : D014DB7D (BC5C1A88 w/correction)
->Accurately ripped with different offset (v1+v2, confidence 10+13/36, offset -564)
Statistics
Read error : 0
Jitter error (maybe fixed) : 0
Retry sector count : 0
Damaged sector count : 0

Track 03
Filename : /Users/dehors/Music/Wilhelm Kempff - Ludwig van Beethoven - The Piano Sonatas (1995) [FLAC]/Disc 2 - Sonaten Op.2 No.3 - Op.10 Nos.1-3/03 - Sonata No.3 in C major, op.2 no.3 - III. Scherzo. Allegro.flac

Track gain : -0.93 dB
Peak : 0.909241
CRC32 hash (test run) : 06E0A686
CRC32 hash : 06E0A686
CRC32 hash (skip zero) : 87B3D011
AccurateRip v1 signature : C309F71C (D57B3E7B w/correction)
AccurateRip v2 signature : 94F627C0 (FA75C5B3 w/correction)
->Accurately ripped with different offset (v1+v2, confidence 10+13/36, offset -564)
Statistics
Read error : 0
Jitter error (maybe fixed) : 0
Retry sector count : 0
Damaged sector count : 0

Track 04
Filename : /Users/dehors/Music/Wilhelm Kempff - Ludwig van Beethoven - The Piano Sonatas (1995) [FLAC]/Disc 2 - Sonaten Op.2 No.3 - Op.10 Nos.1-3/04 - Sonata No.3 in C major, op.2 no.3 - IV. Allegro assai.flac

Track gain : -0.76 dB
Peak : 0.999939
CRC32 hash (test run) : F331FDC4
CRC32 hash : F331FDC4
CRC32 hash (skip zero) : C3BF7B25
AccurateRip v1 signature : C4C99905 (AF52F876 w/correction)
AccurateRip v2 signature : 7E36BF9D (1BD22F98 w/correction)
->Accurately ripped with different offset (v1+v2, confidence 10+13/36, offset -564)
Statistics
Read error : 0
Jitter error (maybe fixed) : 0
Retry sector count : 1
Damaged sector count : 0

Track 05
Filename : /Users/dehors/Music/Wilhelm Kempff - Ludwig van Beethoven - The Piano Sonatas (1995) [FLAC]/Disc 2 - Sonaten Op.2 No.3 - Op.10 Nos.1-3/05 - Sonata No.5 in C minor, op.10 no.1 - I. Allegro molto e con brio.flac
Pre-gap length : 00:10:00

Track gain : -1.57 dB
Peak : 0.833374
CRC32 hash (test run) : 38816E34
CRC32 hash : 38816E34
CRC32 hash (skip zero) : 8CD4C14F
AccurateRip v1 signature : 6C3860AB (124C7C85 w/correction)
AccurateRip v2 signature : F2324D89 (3DF32B30 w/correction)
->Accurately ripped with different offset (v1+v2, confidence 10+13/36, offset -564)
Statistics
Read error : 0
Jitter error (maybe fixed) : 0
Retry sector count : 4
Damaged sector count : 0

Track 06
Filename : /Users/dehors/Music/Wilhelm Kempff - Ludwig van Beethoven - The Piano Sonatas (1995) [FLAC]/Disc 2 - Sonaten Op.2 No.3 - Op.10 Nos.1-3/06 - Sonata No.5 in C minor, op.10 no.1 - II. Adagio molto.flac

Track gain : 4.46 dB
Peak : 0.787262
CRC32 hash (test run) : 6B5BFEB3
CRC32 hash : 6B5BFEB3
CRC32 hash (skip zero) : D0027D13
AccurateRip v1 signature : 6008CEC0 (04665070 w/correction)
AccurateRip v2 signature : E6815EE4 (5A52E2EA w/correction)
->Accurately ripped with different offset (v1+v2, confidence 9+13/35, offset -564)
Statistics
Read error : 0
Jitter error (maybe fixed) : 0
Retry sector count : 0
Damaged sector count : 0

Track 07
Filename : /Users/dehors/Music/Wilhelm Kempff - Ludwig van Beethoven - The Piano Sonatas (1995) [FLAC]/Disc 2 - Sonaten Op.2 No.3 - Op.10 Nos.1-3/07 - Sonata No.5 in C minor, op.10 no.1 - III. Finale. Prestissimo.flac

Track gain : -1.15 dB
Peak : 0.903656
CRC32 hash (test run) : 222C25B0
CRC32 hash : 222C25B0
CRC32 hash (skip zero) : 88AF610A
AccurateRip v1 signature : 4D871192 (181A96F6 w/correction)
AccurateRip v2 signature : 7CDAFA18 (A6157A05 w/correction)
->Accurately ripped with different offset (v1+v2, confidence 10+13/36, offset -564)
Statistics
Read error : 0
Jitter error (maybe fixed) : 0
Retry sector count : 0
Damaged sector count : 0

Track 08
Filename : /Users/dehors/Music/Wilhelm Kempff - Ludwig van Beethoven - The Piano Sonatas (1995) [FLAC]/Disc 2 - Sonaten Op.2 No.3 - Op.10 Nos.1-3/08 - Sonata No.6 in F major, op.10 no.2 - I. Allegro.flac
Pre-gap length : 00:10:00

Track gain : -0.16 dB
Peak : 0.836884
CRC32 hash (test run) : 83855E49
CRC32 hash : 83855E49
CRC32 hash (skip zero) : EFE0A7FB
AccurateRip v1 signature : CAE66696 (AC91E631 w/correction)
AccurateRip v2 signature : A3F86AFB (2DC7F56D w/correction)
->Accurately ripped with different offset (v1+v2, confidence 10+13/36, offset -564)
Statistics
Read error : 0
Jitter error (maybe fixed) : 0
Retry sector count : 0
Damaged sector count : 0

Track 09
Filename : /Users/dehors/Music/Wilhelm Kempff - Ludwig van Beethoven - The Piano Sonatas (1995) [FLAC]/Disc 2 - Sonaten Op.2 No.3 - Op.10 Nos.1-3/09 - Sonata No.6 in F major, op.10 no.2 - II. Allegretto.flac

Track gain : 2.27 dB
Peak : 0.698242
CRC32 hash (test run) : 62D6012A
CRC32 hash : 62D6012A
CRC32 hash (skip zero) : A6419E95
AccurateRip v1 signature : 1998A8D7 (B05955FE w/correction)
AccurateRip v2 signature : F20FC759 (ED5989C0 w/correction)
->Accurately ripped with different offset (v1+v2, confidence 11+12/36, offset -564)
Statistics
Read error : 0
Jitter error (maybe fixed) : 0
Retry sector count : 0
Damaged sector count : 0

Track 10
Filename : /Users/dehors/Music/Wilhelm Kempff - Ludwig van Beethoven - The Piano Sonatas (1995) [FLAC]/Disc 2 - Sonaten Op.2 No.3 - Op.10 Nos.1-3/10 - Sonata No.6 in F major, op.10 no.2 - III. Presto.flac

Track gain : -0.20 dB
Peak : 0.852600
CRC32 hash (test run) : 25F3D4D3
CRC32 hash : 25F3D4D3
CRC32 hash (skip zero) : FA3CBB70
AccurateRip v1 signature : 0642721D (DBCA0599 w/correction)
AccurateRip v2 signature : 1C2D3E5C (53E5CD0D w/correction)
->Accurately ripped with different offset (v1+v2, confidence 10+13/36, offset -564)
Statistics
Read error : 0
Jitter error (maybe fixed) : 0
Retry sector count : 0
Damaged sector count : 0

Track 11
Filename : /Users/dehors/Music/Wilhelm Kempff - Ludwig van Beethoven - The Piano Sonatas (1995) [FLAC]/Disc 2 - Sonaten Op.2 No.3 - Op.10 Nos.1-3/11 - Sonata No.7 in D major, op.10 no.3 - I. Presto.flac
Pre-gap length : 00:12:00

Track gain : -1.81 dB
Peak : 0.823456
CRC32 hash (test run) : F4184685
CRC32 hash : F4184685
CRC32 hash (skip zero) : 8FD7DBCB
AccurateRip v1 signature : A02D97BA (D29A2959 w/correction)
AccurateRip v2 signature : C5EF9EFA (797860CD w/correction)
->Accurately ripped with different offset (v1+v2, confidence 10+12/35, offset -564)
Statistics
Read error : 0
Jitter error (maybe fixed) : 0
Retry sector count : 0
Damaged sector count : 0

Track 12
Filename : /Users/dehors/Music/Wilhelm Kempff - Ludwig van Beethoven - The Piano Sonatas (1995) [FLAC]/Disc 2 - Sonaten Op.2 No.3 - Op.10 Nos.1-3/12 - Sonata No.7 in D major, op.10 no.3 - II. Largo e mesto.flac

Track gain : 0.90 dB
Peak : 0.820953
CRC32 hash (test run) : F34668B6
CRC32 hash : F34668B6
CRC32 hash (skip zero) : 627CB933
AccurateRip v1 signature : 903643DF (01EEBE81 w/correction)
AccurateRip v2 signature : AC8B0EE6 (11A18117 w/correction)
->Accurately ripped with different offset (v1+v2, confidence 10+12/35, offset -564)
Statistics
Read error : 0
Jitter error (maybe fixed) : 0
Retry sector count : 0
Damaged sector count : 0

Track 13
Filename : /Users/dehors/Music/Wilhelm Kempff - Ludwig van Beethoven - The Piano Sonatas (1995) [FLAC]/Disc 2 - Sonaten Op.2 No.3 - Op.10 Nos.1-3/13 - Sonata No.7 in D major, op.10 no.3 - III. Menuetto. Allegro.flac

Track gain : 2.98 dB
Peak : 0.672241
CRC32 hash (test run) : 863153A9
CRC32 hash : 863153A9
CRC32 hash (skip zero) : 458F772B
AccurateRip v1 signature : 766F650C (46DAF750 w/correction)
AccurateRip v2 signature : DD93D219 (0076FB4F w/correction)
->Accurately ripped with different offset (v1+v2, confidence 10+13/36, offset -564)
Statistics
Read error : 0
Jitter error (maybe fixed) : 0
Retry sector count : 0
Damaged sector count : 0

Track 14
Filename : /Users/dehors/Music/Wilhelm Kempff - Ludwig van Beethoven - The Piano Sonatas (1995) [FLAC]/Disc 2 - Sonaten Op.2 No.3 - Op.10 Nos.1-3/14 - Sonata No.7 in D major, op.10 no.3 - IV. Rondo. Allegro.flac

Track gain : -1.07 dB
Peak : 0.851257
CRC32 hash (test run) : FAD7CB8E
CRC32 hash : FAD7CB8E
CRC32 hash (skip zero) : FCB899DA
AccurateRip v1 signature : 84E54EFF (EEE5F96D w/correction)
AccurateRip v2 signature : 32A96B37 (4EDDF6C3 w/correction)
->Accurately ripped with different offset (v1+v2, confidence 11+13/37, offset -564)
Statistics
Read error : 0
Jitter error (maybe fixed) : 0
Retry sector count : 0
Damaged sector count : 0

No errors occurred

End of status report

––-BEGIN XLD SIGNATURE––-
kwP4aerog_sZUyF3pbeX2g6TMctdErUh_oftGvtE4USQy2_kflIGp9s900ExagmV895ZW.Ct.WoPhkb83jdH4AgGbdPqzdKXq2nT0iK
––-END XLD SIGNATURE––-

X Lossless Decoder version 20141129 (148.1)

XLD extraction logfile from 2017-08-31 01:11:56 +0200

Wilhelm Kempff / Beethoven - Piano Sonatas No.8, 9, 10 & 11

Used drive : HL-DT-ST DVDRW GA11NR (revision KR06)
Media type : Pressed CD

Ripper mode : XLD Secure Ripper
Disable audio cache : OK for the drive with a cache less than 1375KiB
Make use of C2 pointers : NO
Read offset correction : 667
Max retry count : 20
Gap status : Analyzed, Appended

TOC of the extracted CD
Track | Start | Length | Start sector | End sector
––––––––––––––––––––––––––––-
1 | 00:00:33 | 07:44:00 | 33 | 34832
2 | 07:44:33 | 04:05:00 | 34833 | 53207
3 | 11:49:33 | 04:45:00 | 53208 | 74582
4 | 16:34:33 | 06:40:00 | 74583 | 104582
5 | 23:14:33 | 03:34:00 | 104583 | 120632
6 | 26:48:33 | 03:48:00 | 120633 | 137732
7 | 30:36:33 | 07:29:00 | 137733 | 171407
8 | 38:05:33 | 05:23:00 | 171408 | 195632
9 | 43:28:33 | 03:29:00 | 195633 | 211307
10 | 46:57:33 | 07:33:00 | 211308 | 245282
11 | 54:30:33 | 07:37:00 | 245283 | 279557
12 | 62:07:33 | 03:09:00 | 279558 | 293732
13 | 65:16:33 | 06:27:00 | 293733 | 322757

List of alternate offset correction values
# | Absolute | Relative | Confidence
–––––––––––––––––––––
1 | 103 | -564 | 19
2 | -566 | -1233 | 17

AccurateRip Summary (DiscID: 002242a7-01556472-ca10cf0d)
Track 01 : OK (v2, confidence 12/36, with different offset)
Track 02 : OK (v2, confidence 12/36, with different offset)
Track 03 : OK (v2, confidence 12/36, with different offset)
Track 04 : OK (v2, confidence 12/36, with different offset)
Track 05 : OK (v2, confidence 11/35, with different offset)
Track 06 : OK (v2, confidence 12/36, with different offset)
Track 07 : OK (v2, confidence 12/36, with different offset)
Track 08 : OK (v2, confidence 12/36, with different offset)
Track 09 : OK (v2, confidence 12/36, with different offset)
Track 10 : OK (v2, confidence 12/36, with different offset)
Track 11 : OK (v2, confidence 12/36, with different offset)
Track 12 : OK (v2, confidence 12/36, with different offset)
Track 13 : OK (v2, confidence 11/35, with different offset)
->All tracks accurately ripped.

All Tracks
Album gain : 0.94 dB
Peak : 0.999939
Statistics
Read error : 0
Jitter error (maybe fixed) : 0
Retry sector count : 0
Damaged sector count : 0

Track 01
Filename : /Users/dehors/Music/Wilhelm Kempff - Ludwig van Beethoven - The Piano Sonatas (1995) [FLAC]/Disc 3 - Sonaten Op.13 Pathetique - Op.14 Nos.1 & 2 - Op.22/01 - Sonata No.8 in C minor, op.13 - Pathetique - I. Grave. Allegro.flac
Pre-gap length : 00:02:33

Track gain : -1.26 dB
Peak : 0.978455
CRC32 hash (test run) : E62C35CA
CRC32 hash : E62C35CA
CRC32 hash (skip zero) : A2A64E07
AccurateRip v1 signature : 77B1E4E1
AccurateRip v2 signature : EC10347A (76A00D4A w/correction)
->Accurately ripped with different offset (v2, confidence 12/36, offset -1233)
Statistics
Read error : 0
Jitter error (maybe fixed) : 0
Retry sector count : 0
Damaged sector count : 0

Track 02
Filename : /Users/dehors/Music/Wilhelm Kempff - Ludwig van Beethoven - The Piano Sonatas (1995) [FLAC]/Disc 3 - Sonaten Op.13 Pathetique - Op.14 Nos.1 & 2 - Op.22/02 - Sonata No.8 in C minor, op.13 - Pathetique - II. Adagio cantabile.flac

Track gain : 5.71 dB
Peak : 0.947662
CRC32 hash (test run) : C2D90D09
CRC32 hash : C2D90D09
CRC32 hash (skip zero) : 4A082585
AccurateRip v1 signature : EDE58213
AccurateRip v2 signature : 55C42949 (9C996091 w/correction)
->Accurately ripped with different offset (v2, confidence 12/36, offset -1233)
Statistics
Read error : 0
Jitter error (maybe fixed) : 0
Retry sector count : 0
Damaged sector count : 0

Track 03
Filename : /Users/dehors/Music/Wilhelm Kempff - Ludwig van Beethoven - The Piano Sonatas (1995) [FLAC]/Disc 3 - Sonaten Op.13 Pathetique - Op.14 Nos.1 & 2 - Op.22/03 - Sonata No.8 in C minor, op.13 - Pathetique - III. Rondo. Allegro.flac

Track gain : -0.60 dB
Peak : 0.974670
CRC32 hash (test run) : E0DCC3CA
CRC32 hash : E0DCC3CA
CRC32 hash (skip zero) : FB45204C
AccurateRip v1 signature : 145557CE
AccurateRip v2 signature : 404294E1 (6D84B98D w/correction)
->Accurately ripped with different offset (v2, confidence 12/36, offset -1233)
Statistics
Read error : 0
Jitter error (maybe fixed) : 0
Retry sector count : 0
Damaged sector count : 0

Track 04
Filename : /Users/dehors/Music/Wilhelm Kempff - Ludwig van Beethoven - The Piano Sonatas (1995) [FLAC]/Disc 3 - Sonaten Op.13 Pathetique - Op.14 Nos.1 & 2 - Op.22/04 - Sonata No.9 in E major, op.14 no.1 - I. Allegro.flac
Pre-gap length : 00:12:00

Track gain : 1.71 dB
Peak : 0.848663
CRC32 hash (test run) : 747471A1
CRC32 hash : 747471A1
CRC32 hash (skip zero) : BDA421F9
AccurateRip v1 signature : DE07C5B6
AccurateRip v2 signature : 758CDC7E (5783CFFA w/correction)
->Accurately ripped with different offset (v2, confidence 12/36, offset -1233)
Statistics
Read error : 0
Jitter error (maybe fixed) : 0
Retry sector count : 0
Damaged sector count : 0

Track 05
Filename : /Users/dehors/Music/Wilhelm Kempff - Ludwig van Beethoven - The Piano Sonatas (1995) [FLAC]/Disc 3 - Sonaten Op.13 Pathetique - Op.14 Nos.1 & 2 - Op.22/05 - Sonata No.9 in E major, op.14 no.1 - II. Allegretto.flac

Track gain : 0.92 dB
Peak : 0.913910
CRC32 hash (test run) : 30CEC1BE
CRC32 hash : 30CEC1BE
CRC32 hash (skip zero) : 398A4DA7
AccurateRip v1 signature : 5E4818A4
AccurateRip v2 signature : A255A13F (31826903 w/correction)
->Accurately ripped with different offset (v2, confidence 11/35, offset -1233)
Statistics
Read error : 0
Jitter error (maybe fixed) : 0
Retry sector count : 0
Damaged sector count : 0

Track 06
Filename : /Users/dehors/Music/Wilhelm Kempff - Ludwig van Beethoven - The Piano Sonatas (1995) [FLAC]/Disc 3 - Sonaten Op.13 Pathetique - Op.14 Nos.1 & 2 - Op.22/06 - Sonata No.9 in E major, op.14 no.1 - III. Rondo. Allegro comodo.flac

Track gain : -0.95 dB
Peak : 0.741455
CRC32 hash (test run) : 1816F692
CRC32 hash : 1816F692
CRC32 hash (skip zero) : 233831F5
AccurateRip v1 signature : AFC341B3
AccurateRip v2 signature : 0E775865 (A8BA9502 w/correction)
->Accurately ripped with different offset (v2, confidence 12/36, offset -1233)
Statistics
Read error : 0
Jitter error (maybe fixed) : 0
Retry sector count : 0
Damaged sector count : 0

Track 07
Filename : /Users/dehors/Music/Wilhelm Kempff - Ludwig van Beethoven - The Piano Sonatas (1995) [FLAC]/Disc 3 - Sonaten Op.13 Pathetique - Op.14 Nos.1 & 2 - Op.22/07 - Sonata No.10 in G major, op.14 no.2 - I. Allegro.flac
Pre-gap length : 00:11:00

Track gain : 2.21 dB
Peak : 0.632202
CRC32 hash (test run) : DCCEF581
CRC32 hash : DCCEF581
CRC32 hash (skip zero) : 993F8F0F
AccurateRip v1 signature : A6E8944C
AccurateRip v2 signature : 51BA37E0 (AC3EC914 w/correction)
->Accurately ripped with different offset (v2, confidence 12/36, offset -1233)
Statistics
Read error : 0
Jitter error (maybe fixed) : 0
Retry sector count : 0
Damaged sector count : 0

Track 08
Filename : /Users/dehors/Music/Wilhelm Kempff - Ludwig van Beethoven - The Piano Sonatas (1995) [FLAC]/Disc 3 - Sonaten Op.13 Pathetique - Op.14 Nos.1 & 2 - Op.22/08 - Sonata No.10 in G major, op.14 no.2 - II. Andante.flac

Track gain : 3.96 dB
Peak : 0.695984
CRC32 hash (test run) : 187D1C3C
CRC32 hash : 187D1C3C
CRC32 hash (skip zero) : 75DECC64
AccurateRip v1 signature : 543A6EDA
AccurateRip v2 signature : 84919178 (68ACA5B0 w/correction)
->Accurately ripped with different offset (v2, confidence 12/36, offset -1233)
Statistics
Read error : 0
Jitter error (maybe fixed) : 0
Retry sector count : 0
Damaged sector count : 0

Track 09
Filename : /Users/dehors/Music/Wilhelm Kempff - Ludwig van Beethoven - The Piano Sonatas (1995) [FLAC]/Disc 3 - Sonaten Op.13 Pathetique - Op.14 Nos.1 & 2 - Op.22/09 - Sonata No.10 in G major, op.14 no.2 - III. Scherzo. Allegro assai.flac

Track gain : 0.66 dB
Peak : 0.837830
CRC32 hash (test run) : CA5A1942
CRC32 hash : CA5A1942
CRC32 hash (skip zero) : 447998B3
AccurateRip v1 signature : 4E90F4C4
AccurateRip v2 signature : A79965F7 (6EA7055E w/correction)
->Accurately ripped with different offset (v2, confidence 12/36, offset -1233)
Statistics
Read error : 0
Jitter error (maybe fixed) : 0
Retry sector count : 0
Damaged sector count : 0

Track 10
Filename : /Users/dehors/Music/Wilhelm Kempff - Ludwig van Beethoven - The Piano Sonatas (1995) [FLAC]/Disc 3 - Sonaten Op.13 Pathetique - Op.14 Nos.1 & 2 - Op.22/10 - Sonata No.11 in B flat major, op.22 - I. Allegro con brio.flac
Pre-gap length : 00:11:00

Track gain : 1.08 dB
Peak : 0.938538
CRC32 hash (test run) : 0D7E3EF3
CRC32 hash : 0D7E3EF3
CRC32 hash (skip zero) : 65D3AD9D
AccurateRip v1 signature : 4A8AE552
AccurateRip v2 signature : 7ED4E056 (7D6B309A w/correction)
->Accurately ripped with different offset (v2, confidence 12/36, offset -1233)
Statistics
Read error : 0
Jitter error (maybe fixed) : 0
Retry sector count : 0
Damaged sector count : 0

Track 11
Filename : /Users/dehors/Music/Wilhelm Kempff - Ludwig van Beethoven - The Piano Sonatas (1995) [FLAC]/Disc 3 - Sonaten Op.13 Pathetique - Op.14 Nos.1 & 2 - Op.22/11 - Sonata No.11 in B flat major, op.22 - II. Adagio con molta espressione.flac

Track gain : 5.85 dB
Peak : 0.563324
CRC32 hash (test run) : 9A1F4226
CRC32 hash : 9A1F4226
CRC32 hash (skip zero) : E5E882EF
AccurateRip v1 signature : 0B3ED3A7
AccurateRip v2 signature : F6B8FC84 (E873AC4F w/correction)
->Accurately ripped with different offset (v2, confidence 12/36, offset -1233)
Statistics
Read error : 0
Jitter error (maybe fixed) : 0
Retry sector count : 0
Damaged sector count : 0

Track 12
Filename : /Users/dehors/Music/Wilhelm Kempff - Ludwig van Beethoven - The Piano Sonatas (1995) [FLAC]/Disc 3 - Sonaten Op.13 Pathetique - Op.14 Nos.1 & 2 - Op.22/12 - Sonata No.11 in B flat major, op.22 - III. Menuetto.flac

Track gain : -0.91 dB
Peak : 0.817047
CRC32 hash (test run) : E1E64CCC
CRC32 hash : E1E64CCC
CRC32 hash (skip zero) : 73EF88FB
AccurateRip v1 signature : 2C3F3B59
AccurateRip v2 signature : 813207FC (46361183 w/correction)
->Accurately ripped with different offset (v2, confidence 12/36, offset -1233)
Statistics
Read error : 0
Jitter error (maybe fixed) : 0
Retry sector count : 0
Damaged sector count : 0

Track 13
Filename : /Users/dehors/Music/Wilhelm Kempff - Ludwig van Beethoven - The Piano Sonatas (1995) [FLAC]/Disc 3 - Sonaten Op.13 Pathetique - Op.14 Nos.1 & 2 - Op.22/13 - Sonata No.11 in B flat major, op.22 - IV. Rondo. Allegretto.flac

Track gain : 1.71 dB
Peak : 0.999939
CRC32 hash (test run) : DF4BF2CF
CRC32 hash : DF4BF2CF
CRC32 hash (skip zero) : E0288742
AccurateRip v1 signature : 52C96E47
AccurateRip v2 signature : CEB8C1A0 (AA98DAF8 w/correction)
->Accurately ripped with different offset (v2, confidence 11/35, offset -1233)
Statistics
Read error : 0
Jitter error (maybe fixed) : 0
Retry sector count : 0
Damaged sector count : 0

No errors occurred

End of status report

––-BEGIN XLD SIGNATURE––-
vgrS8GHXwKkuAqwgqkhEEaE.yaC1ttAbgyYIQ004ss7pUBLxChGT2NmxXYF8lol14sScFPXlKS0NYFI0zdGF3hyUtaIzpHwrcUEXT8S
––-END XLD SIGNATURE––-

X Lossless Decoder version 20141129 (148.1)

XLD extraction logfile from 2017-08-31 05:43:41 +0200

Wilhelm Kempff / Beethoven - Piano Sonatas No.12, 13, 14 & 15

Used drive : HL-DT-ST DVDRW GA11NR (revision KR06)
Media type : Pressed CD

Ripper mode : XLD Secure Ripper
Disable audio cache : OK for the drive with a cache less than 1375KiB
Make use of C2 pointers : NO
Read offset correction : 667
Max retry count : 20
Gap status : Analyzed, Appended

TOC of the extracted CD
Track | Start | Length | Start sector | End sector
––––––––––––––––––––––––––––-
1 | 00:00:32 | 08:06:00 | 32 | 36481
2 | 08:06:32 | 02:56:00 | 36482 | 49681
3 | 11:02:32 | 05:31:00 | 49682 | 74506
4 | 16:33:32 | 03:19:00 | 74507 | 89431
5 | 19:52:32 | 04:45:50 | 89432 | 110856
6 | 24:38:07 | 02:18:25 | 110857 | 121231
7 | 26:56:32 | 02:58:25 | 121232 | 134606
8 | 29:54:57 | 05:57:50 | 134607 | 161431
9 | 35:52:32 | 06:20:00 | 161432 | 189931
10 | 42:12:32 | 02:19:00 | 189932 | 200356
11 | 44:31:32 | 06:03:00 | 200357 | 227581
12 | 50:34:32 | 07:28:00 | 227582 | 261181
13 | 58:02:32 | 06:37:00 | 261182 | 290956
14 | 64:39:32 | 02:27:00 | 290957 | 301981
15 | 67:06:32 | 05:00:00 | 301982 | 324481

List of alternate offset correction values
# | Absolute | Relative | Confidence
–––––––––––––––––––––
1 | 103 | -564 | 20
2 | -561 | -1228 | 14
3 | -1225 | -1892 | 2

AccurateRip Summary (DiscID: 00274991-01bb0aa9-ed10e60f)
Track 01 : OK (v1+v2, confidence 20/71, with different offset)
Track 02 : OK (v1+v2, confidence 20/71, with different offset)
Track 03 : OK (v1+v2, confidence 20/71, with different offset)
Track 04 : OK (v1+v2, confidence 20/71, with different offset)
Track 05 : OK (v1+v2, confidence 20/71, with different offset)
Track 06 : OK (v1+v2, confidence 20/71, with different offset)
Track 07 : OK (v1+v2, confidence 20/71, with different offset)
Track 08 : OK (v1+v2, confidence 20/71, with different offset)
Track 09 : OK (v1+v2, confidence 20/71, with different offset)
Track 10 : OK (v1+v2, confidence 20/71, with different offset)
Track 11 : OK (v1+v2, confidence 19/70, with different offset)
Track 12 : OK (v1+v2, confidence 20/71, with different offset)
Track 13 : OK (v1+v2, confidence 20/71, with different offset)
Track 14 : OK (v1+v2, confidence 20/71, with different offset)
Track 15 : OK (v1+v2, confidence 19/70, with different offset)
->All tracks accurately ripped.

All Tracks
Album gain : -0.46 dB
Peak : 0.979919
Statistics
Read error : 0
Jitter error (maybe fixed) : 0
Retry sector count : 0
Damaged sector count : 0

Track 01
Filename : /Users/dehors/Music/Wilhelm Kempff - Ludwig van Beethoven - The Piano Sonatas (1995) [FLAC]/Disc 4 - Sonaten Op.26 - Op.27 No.1, No.2 Moonlight - Op.28 Pastorale/01 - Sonata No.12 in A flat major, op.26 - I. Andante con variazioni.flac
Pre-gap length : 00:02:32

Track gain : 1.71 dB
Peak : 0.686646
CRC32 hash (test run) : 51A13A15
CRC32 hash : 51A13A15
CRC32 hash (skip zero) : 07F069CB
AccurateRip v1 signature : D813E97A (082314D2 w/correction)
AccurateRip v2 signature : E7453ED7 (14ABACF2 w/correction)
->Accurately ripped with different offset (v1+v2, confidence 9+11/71, offset -564)
Statistics
Read error : 0
Jitter error (maybe fixed) : 0
Retry sector count : 0
Damaged sector count : 0

Track 02
Filename : /Users/dehors/Music/Wilhelm Kempff - Ludwig van Beethoven - The Piano Sonatas (1995) [FLAC]/Disc 4 - Sonaten Op.26 - Op.27 No.1, No.2 Moonlight - Op.28 Pastorale/02 - Sonata No.12 in A flat major, op.26 - II. Scherzo. Allegro molto.flac

Track gain : -2.30 dB
Peak : 0.879456
CRC32 hash (test run) : 7CD7197C
CRC32 hash : 7CD7197C
CRC32 hash (skip zero) : 2C927ACE
AccurateRip v1 signature : BB1CAEEA (C2EDECB7 w/correction)
AccurateRip v2 signature : 71A3543E (BEAD39E8 w/correction)
->Accurately ripped with different offset (v1+v2, confidence 9+11/71, offset -564)
Statistics
Read error : 0
Jitter error (maybe fixed) : 0
Retry sector count : 0
Damaged sector count : 0

Track 03
Filename : /Users/dehors/Music/Wilhelm Kempff - Ludwig van Beethoven - The Piano Sonatas (1995) [FLAC]/Disc 4 - Sonaten Op.26 - Op.27 No.1, No.2 Moonlight - Op.28 Pastorale/03 - Sonata No.12 in A flat major, op.26 - III. Marcia funebre.flac

Track gain : -3.83 dB
Peak : 0.923828
CRC32 hash (test run) : 5D02112B
CRC32 hash : 5D02112B
CRC32 hash (skip zero) : 31A84FFB
AccurateRip v1 signature : 73E021DD (A2B027AC w/correction)
AccurateRip v2 signature : 140BCD66 (EAA6650E w/correction)
->Accurately ripped with different offset (v1+v2, confidence 9+11/71, offset -564)
Statistics
Read error : 0
Jitter error (maybe fixed) : 0
Retry sector count : 0
Damaged sector count : 0

Track 04
Filename : /Users/dehors/Music/Wilhelm Kempff - Ludwig van Beethoven - The Piano Sonatas (1995) [FLAC]/Disc 4 - Sonaten Op.26 - Op.27 No.1, No.2 Moonlight - Op.28 Pastorale/04 - Sonata No.12 in A flat major, op.26 - IV. Allegro.flac

Track gain : -1.06 dB
Peak : 0.879059
CRC32 hash (test run) : B9D6E9AD
CRC32 hash : B9D6E9AD
CRC32 hash (skip zero) : 51627447
AccurateRip v1 signature : AC55B3CA (633C0A2B w/correction)
AccurateRip v2 signature : 7787C158 (900E4E93 w/correction)
->Accurately ripped with different offset (v1+v2, confidence 9+11/71, offset -564)
Statistics
Read error : 0
Jitter error (maybe fixed) : 0
Retry sector count : 0
Damaged sector count : 0

Track 05
Filename : /Users/dehors/Music/Wilhelm Kempff - Ludwig van Beethoven - The Piano Sonatas (1995) [FLAC]/Disc 4 - Sonaten Op.26 - Op.27 No.1, No.2 Moonlight - Op.28 Pastorale/05 - Sonata No.13 in in E flat major, op.27 no.1 - I. Andante. Allegro.flac
Pre-gap length : 00:12:00

Track gain : 2.62 dB
Peak : 0.725647
CRC32 hash (test run) : 500A40E5
CRC32 hash : 500A40E5
CRC32 hash (skip zero) : 1A3782B4
AccurateRip v1 signature : CD51DA34 (E8CAFD8A w/correction)
AccurateRip v2 signature : 3DEF17A1 (BCD7E045 w/correction)
->Accurately ripped with different offset (v1+v2, confidence 9+11/71, offset -564)
Statistics
Read error : 0
Jitter error (maybe fixed) : 0
Retry sector count : 0
Damaged sector count : 0

Track 06
Filename : /Users/dehors/Music/Wilhelm Kempff - Ludwig van Beethoven - The Piano Sonatas (1995) [FLAC]/Disc 4 - Sonaten Op.26 - Op.27 No.1, No.2 Moonlight - Op.28 Pastorale/06 - Sonata No.13 in in E flat major, op.27 no.1 - II. Allegro molto e vivace.flac

Track gain : -3.88 dB
Peak : 0.979919
CRC32 hash (test run) : 06D594F4
CRC32 hash : 06D594F4
CRC32 hash (skip zero) : 83397E6E
AccurateRip v1 signature : 01A5D72A (145A4A37 w/correction)
AccurateRip v2 signature : 27DF06AD (04BE480F w/correction)
->Accurately ripped with different offset (v1+v2, confidence 9+11/71, offset -564)
Statistics
Read error : 0
Jitter error (maybe fixed) : 0
Retry sector count : 0
Damaged sector count : 0

Track 07
Filename : /Users/dehors/Music/Wilhelm Kempff - Ludwig van Beethoven - The Piano Sonatas (1995) [FLAC]/Disc 4 - Sonaten Op.26 - Op.27 No.1, No.2 Moonlight - Op.28 Pastorale/07 - Sonata No.13 in in E flat major, op.27 no.1 - III. Adagio con espressione.flac

Track gain : 5.02 dB
Peak : 0.525085
CRC32 hash (test run) : 7D99832A
CRC32 hash : 7D99832A
CRC32 hash (skip zero) : 333AD035
AccurateRip v1 signature : 61E272F4 (0B0B5122 w/correction)
AccurateRip v2 signature : 54BDB349 (EE63C4BA w/correction)
->Accurately ripped with different offset (v1+v2, confidence 9+11/71, offset -564)
Statistics
Read error : 0
Jitter error (maybe fixed) : 0
Retry sector count : 0
Damaged sector count : 0

Track 08
Filename : /Users/dehors/Music/Wilhelm Kempff - Ludwig van Beethoven - The Piano Sonatas (1995) [FLAC]/Disc 4 - Sonaten Op.26 - Op.27 No.1, No.2 Moonlight - Op.28 Pastorale/08 - Sonata No.13 in in E flat major, op.27 no.1 - IV. Allegro vivace.flac

Track gain : -2.11 dB
Peak : 0.892426
CRC32 hash (test run) : E98AA82B
CRC32 hash : E98AA82B
CRC32 hash (skip zero) : D9B2D683
AccurateRip v1 signature : 768C3B9E (44CB9596 w/correction)
AccurateRip v2 signature : B6DD2690 (13CF6682 w/correction)
->Accurately ripped with different offset (v1+v2, confidence 9+11/71, offset -564)
Statistics
Read error : 0
Jitter error (maybe fixed) : 0
Retry sector count : 0
Damaged sector count : 0

Track 09
Filename : /Users/dehors/Music/Wilhelm Kempff - Ludwig van Beethoven - The Piano Sonatas (1995) [FLAC]/Disc 4 - Sonaten Op.26 - Op.27 No.1, No.2 Moonlight - Op.28 Pastorale/09 - Sonata No.14 in C sharp minor, op.27 no.2 - Moonlight - I. Adagio sostenuto.flac
Pre-gap length : 00:10:00

Track gain : 14.00 dB
Peak : 0.186066
CRC32 hash (test run) : FC60801B
CRC32 hash : FC60801B
CRC32 hash (skip zero) : B3614EA9
AccurateRip v1 signature : C4405630 (A3162434 w/correction)
AccurateRip v2 signature : E531C0D5 (4227BDB2 w/correction)
->Accurately ripped with different offset (v1+v2, confidence 9+11/71, offset -564)
Statistics
Read error : 0
Jitter error (maybe fixed) : 0
Retry sector count : 0
Damaged sector count : 0

Track 10
Filename : /Users/dehors/Music/Wilhelm Kempff - Ludwig van Beethoven - The Piano Sonatas (1995) [FLAC]/Disc 4 - Sonaten Op.26 - Op.27 No.1, No.2 Moonlight - Op.28 Pastorale/10 - Sonata No.14 in C sharp minor, op.27 no.2 - Moonlight - II. Allegretto.flac

Track gain : 1.60 dB
Peak : 0.576447
CRC32 hash (test run) : DE7C9EDF
CRC32 hash : DE7C9EDF
CRC32 hash (skip zero) : E529C7A1
AccurateRip v1 signature : 012246BC (F2FB9B58 w/correction)
AccurateRip v2 signature : 683281C8 (A0BC63BE w/correction)
->Accurately ripped with different offset (v1+v2, confidence 9+11/71, offset -564)
Statistics
Read error : 0
Jitter error (maybe fixed) : 0
Retry sector count : 0
Damaged sector count : 0

Track 11
Filename : /Users/dehors/Music/Wilhelm Kempff - Ludwig van Beethoven - The Piano Sonatas (1995) [FLAC]/Disc 4 - Sonaten Op.26 - Op.27 No.1, No.2 Moonlight - Op.28 Pastorale/11 - Sonata No.14 in C sharp minor, op.27 no.2 - Moonlight - III. Presto agitato.flac

Track gain : -1.25 dB
Peak : 0.950256
CRC32 hash (test run) : F828AC02
CRC32 hash : F828AC02
CRC32 hash (skip zero) : 67E19C8B
AccurateRip v1 signature : 89EEECDF (59C4427D w/correction)
AccurateRip v2 signature : 392CDC97 (DCD601F7 w/correction)
->Accurately ripped with different offset (v1+v2, confidence 8+11/70, offset -564)
Statistics
Read error : 0
Jitter error (maybe fixed) : 0
Retry sector count : 0
Damaged sector count : 0

Track 12
Filename : /Users/dehors/Music/Wilhelm Kempff - Ludwig van Beethoven - The Piano Sonatas (1995) [FLAC]/Disc 4 - Sonaten Op.26 - Op.27 No.1, No.2 Moonlight - Op.28 Pastorale/12 - Sonata No.15 in D major, op.28 - Pastorale - I. Allegro.flac
Pre-gap length : 00:11:00

Track gain : 0.87 dB
Peak : 0.696747
CRC32 hash (test run) : E4B194A2
CRC32 hash : E4B194A2
CRC32 hash (skip zero) : 816803AB
AccurateRip v1 signature : AF3FA746 (5F696F52 w/correction)
AccurateRip v2 signature : 262AA796 (B88673B7 w/correction)
->Accurately ripped with different offset (v1+v2, confidence 9+11/71, offset -564)
Statistics
Read error : 0
Jitter error (maybe fixed) : 0
Retry sector count : 0
Damaged sector count : 0

Track 13
Filename : /Users/dehors/Music/Wilhelm Kempff - Ludwig van Beethoven - The Piano Sonatas (1995) [FLAC]/Disc 4 - Sonaten Op.26 - Op.27 No.1, No.2 Moonlight - Op.28 Pastorale/13 - Sonata No.15 in D major, op.28 - Pastorale - II. Andante.flac

Track gain : 3.05 dB
Peak : 0.944977
CRC32 hash (test run) : C0BAE6B5
CRC32 hash : C0BAE6B5
CRC32 hash (skip zero) : 8E81C066
AccurateRip v1 signature : 0C9EFC0C (CC56ACBA w/correction)
AccurateRip v2 signature : 78F9BB1A (D574B56A w/correction)
->Accurately ripped with different offset (v1+v2, confidence 9+11/71, offset -564)
Statistics
Read error : 0
Jitter error (maybe fixed) : 0
Retry sector count : 0
Damaged sector count : 0

Track 14
Filename : /Users/dehors/Music/Wilhelm Kempff - Ludwig van Beethoven - The Piano Sonatas (1995) [FLAC]/Disc 4 - Sonaten Op.26 - Op.27 No.1, No.2 Moonlight - Op.28 Pastorale/14 - Sonata No.15 in D major, op.28 - Pastorale - III. Scherzo. Allegro.flac

Track gain : 0.50 dB
Peak : 0.728973
CRC32 hash (test run) : A338D9FF
CRC32 hash : A338D9FF
CRC32 hash (skip zero) : 2D7DF8B7
AccurateRip v1 signature : 374F31B6 (ABF6EB10 w/correction)
AccurateRip v2 signature : 405F91F9 (F2577897 w/correction)
->Accurately ripped with different offset (v1+v2, confidence 9+11/71, offset -564)
Statistics
Read error : 0
Jitter error (maybe fixed) : 0
Retry sector count : 0
Damaged sector count : 0

Track 15
Filename : /Users/dehors/Music/Wilhelm Kempff - Ludwig van Beethoven - The Piano Sonatas (1995) [FLAC]/Disc 4 - Sonaten Op.26 - Op.27 No.1, No.2 Moonlight - Op.28 Pastorale/15 - Sonata No.15 in D major, op.28 - Pastorale - IV. Rondo. Allegro.flac

Track gain : -0.71 dB
Peak : 0.831085
CRC32 hash (test run) : B4788D6C
CRC32 hash : B4788D6C
CRC32 hash (skip zero) : 87E21529
AccurateRip v1 signature : 4AC4D558 (58A7117C w/correction)
AccurateRip v2 signature : 11D4D0A4 (FCDE3530 w/correction)
->Accurately ripped with different offset (v1+v2, confidence 9+10/70, offset -564)
Statistics
Read error : 0
Jitter error (maybe fixed) : 0
Retry sector count : 0
Damaged sector count : 0

No errors occurred

End of status report

––-BEGIN XLD SIGNATURE––-
qK6nmGyt9CRN0zYbVnWS7.qdl88Lpoy8G_yjFXkVhb0Fx4knHNegKuidG_MiF8MTG1JdHKnA.aXPWI.hcFugIJFQRipu4xh3JNF._sa
––-END XLD SIGNATURE––-

X Lossless Decoder version 20141129 (148.1)

XLD extraction logfile from 2017-08-31 02:58:33 +0200

Wilhelm Kempff / Beethoven - Piano Sonatas 16, 17, 18 & 19

Used drive : HL-DT-ST DVDRW GA11NR (revision KR06)
Media type : Pressed CD

Ripper mode : XLD Secure Ripper
Disable audio cache : OK for the drive with a cache less than 1375KiB
Make use of C2 pointers : NO
Read offset correction : 667
Max retry count : 20
Gap status : Analyzed, Appended

TOC of the extracted CD
Track | Start | Length | Start sector | End sector
––––––––––––––––––––––––––––-
1 | 00:00:32 | 04:53:00 | 32 | 22006
2 | 04:53:32 | 11:02:00 | 22007 | 71656
3 | 15:55:32 | 06:34:00 | 71657 | 101206
4 | 22:29:32 | 06:19:00 | 101207 | 129631
5 | 28:48:32 | 07:21:00 | 129632 | 162706
6 | 36:09:32 | 07:17:00 | 162707 | 195481
7 | 43:26:32 | 06:09:00 | 195482 | 223156
8 | 49:35:32 | 05:07:00 | 223157 | 246181
9 | 54:42:32 | 04:32:00 | 246182 | 266581
10 | 59:14:32 | 04:56:00 | 266582 | 288781
11 | 64:10:32 | 04:07:00 | 288782 | 307306
12 | 68:17:32 | 03:45:00 | 307307 | 324181

List of alternate offset correction values
# | Absolute | Relative | Confidence
–––––––––––––––––––––
1 | -564 | -1231 | 23
2 | 103 | -564 | 20

AccurateRip Summary (DiscID: 0023b064-01469183-bc10e20c)
Track 01 : OK (v2, confidence 16/42, with different offset)
Track 02 : OK (v2, confidence 16/43, with different offset)
Track 03 : OK (v1+v2, confidence 20/43, with different offset)
Track 04 : OK (v2, confidence 16/43, with different offset)
Track 05 : OK (v2, confidence 16/43, with different offset)
Track 06 : OK (v2, confidence 16/43, with different offset)
Track 07 : OK (v2, confidence 16/43, with different offset)
Track 08 : OK (v2, confidence 16/43, with different offset)
Track 09 : OK (v2, confidence 16/43, with different offset)
Track 10 : OK (v2, confidence 16/43, with different offset)
Track 11 : OK (v2, confidence 16/42, with different offset)
Track 12 : OK (v2, confidence 16/43, with different offset)
->All tracks accurately ripped.

All Tracks
Album gain : 1.07 dB
Peak : 0.936523
Statistics
Read error : 0
Jitter error (maybe fixed) : 0
Retry sector count : 3
Damaged sector count : 0

Track 01
Filename : /Users/dehors/Music/Wilhelm Kempff - Ludwig van Beethoven - The Piano Sonatas (1995) [FLAC]/Disc 5 - Sonaten Op.31 No.1, No.2 The Tempest, No.3 - Op.49 No.1/01 - Sonata No.16 in G major op.31 no.1 - I. Allegro vivace.flac
Pre-gap length : 00:02:32

Track gain : -1.29 dB
Peak : 0.770996
CRC32 hash (test run) : 5577687F
CRC32 hash : 5577687F
CRC32 hash (skip zero) : 53014E71
AccurateRip v1 signature : 872D1A0E
AccurateRip v2 signature : 5980E4E6 (89DADCBB w/correction)
->Accurately ripped with different offset (v2, confidence 16/42, offset -1231)
Statistics
Read error : 0
Jitter error (maybe fixed) : 0
Retry sector count : 0
Damaged sector count : 0

Track 02
Filename : /Users/dehors/Music/Wilhelm Kempff - Ludwig van Beethoven - The Piano Sonatas (1995) [FLAC]/Disc 5 - Sonaten Op.31 No.1, No.2 The Tempest, No.3 - Op.49 No.1/02 - Sonata No.16 in G major op.31 no.1 - II. Adagio grazioso.flac

Track gain : 4.02 dB
Peak : 0.765656
CRC32 hash (test run) : 5C182A3A
CRC32 hash : 5C182A3A
CRC32 hash (skip zero) : 70511D53
AccurateRip v1 signature : 496C4CF3
AccurateRip v2 signature : 7D7C6AC9 (DB1D0349 w/correction)
->Accurately ripped with different offset (v2, confidence 16/43, offset -1231)
Statistics
Read error : 0
Jitter error (maybe fixed) : 0
Retry sector count : 0
Damaged sector count : 0

Track 03
Filename : /Users/dehors/Music/Wilhelm Kempff - Ludwig van Beethoven - The Piano Sonatas (1995) [FLAC]/Disc 5 - Sonaten Op.31 No.1, No.2 The Tempest, No.3 - Op.49 No.1/03 - Sonata No.16 in G major op.31 no.1 - III. Rondo. Allegretto.flac

Track gain : 0.86 dB
Peak : 0.785278
CRC32 hash (test run) : 84FD6BF3
CRC32 hash : 84FD6BF3
CRC32 hash (skip zero) : E39F2958
AccurateRip v1 signature : D586F97A (C7AD3AD7 w/correction)
AccurateRip v2 signature : 6547E005 (1C4F1C5E w/correction)
->Accurately ripped with different offset (v1+v2, confidence 10+10/43, offset -564)
Statistics
Read error : 0
Jitter error (maybe fixed) : 0
Retry sector count : 0
Damaged sector count : 0

Track 04
Filename : /Users/dehors/Music/Wilhelm Kempff - Ludwig van Beethoven - The Piano Sonatas (1995) [FLAC]/Disc 5 - Sonaten Op.31 No.1, No.2 The Tempest, No.3 - Op.49 No.1/04 - Sonata No.17 in D minor op.31 no.2 - Tempest - I. Largo. Allegro.flac
Pre-gap length : 00:11:00

Track gain : -0.87 dB
Peak : 0.936523
CRC32 hash (test run) : E7FDF009
CRC32 hash : E7FDF009
CRC32 hash (skip zero) : 570D561B
AccurateRip v1 signature : 1298B0B2
AccurateRip v2 signature : B6FBEC56 (9EF28DD2 w/correction)
->Accurately ripped with different offset (v2, confidence 16/43, offset -1231)
Statistics
Read error : 0
Jitter error (maybe fixed) : 0
Retry sector count : 0
Damaged sector count : 0

Track 05
Filename : /Users/dehors/Music/Wilhelm Kempff - Ludwig van Beethoven - The Piano Sonatas (1995) [FLAC]/Disc 5 - Sonaten Op.31 No.1, No.2 The Tempest, No.3 - Op.49 No.1/05 - Sonata No.17 in D minor op.31 no.2 - Tempest - II. Adagio.flac

Track gain : 6.68 dB
Peak : 0.491547
CRC32 hash (test run) : D3876ED9
CRC32 hash : D3876ED9
CRC32 hash (skip zero) : E0554445
AccurateRip v1 signature : 7BAD90E2
AccurateRip v2 signature : 0BC799DD (CAD2068C w/correction)
->Accurately ripped with different offset (v2, confidence 16/43, offset -1231)
Statistics
Read error : 0
Jitter error (maybe fixed) : 0
Retry sector count : 0
Damaged sector count : 0

Track 06
Filename : /Users/dehors/Music/Wilhelm Kempff - Ludwig van Beethoven - The Piano Sonatas (1995) [FLAC]/Disc 5 - Sonaten Op.31 No.1, No.2 The Tempest, No.3 - Op.49 No.1/06 - Sonata No.17 in D minor op.31 no.2 - Tempest - III. Allegretto.flac

Track gain : 0.15 dB
Peak : 0.688934
CRC32 hash (test run) : 7B3C3467
CRC32 hash : 7B3C3467
CRC32 hash (skip zero) : DB8515DF
AccurateRip v1 signature : D8EBDECD
AccurateRip v2 signature : 47B9A006 (AE7329CB w/correction)
->Accurately ripped with different offset (v2, confidence 16/43, offset -1231)
Statistics
Read error : 0
Jitter error (maybe fixed) : 0
Retry sector count : 0
Damaged sector count : 0

Track 07
Filename : /Users/dehors/Music/Wilhelm Kempff - Ludwig van Beethoven - The Piano Sonatas (1995) [FLAC]/Disc 5 - Sonaten Op.31 No.1, No.2 The Tempest, No.3 - Op.49 No.1/07 - Sonata No.18 in E flat major op.31 no.3 - I. Allegro.flac
Pre-gap length : 00:11:00

Track gain : 2.76 dB
Peak : 0.596741
CRC32 hash (test run) : 16CF64B4
CRC32 hash : 16CF64B4
CRC32 hash (skip zero) : 46F2DF3C
AccurateRip v1 signature : 6F8B7686
AccurateRip v2 signature : 25DA0A04 (92462908 w/correction)
->Accurately ripped with different offset (v2, confidence 16/43, offset -1231)
Statistics
Read error : 0
Jitter error (maybe fixed) : 0
Retry sector count : 3
Damaged sector count : 0

Track 08
Filename : /Users/dehors/Music/Wilhelm Kempff - Ludwig van Beethoven - The Piano Sonatas (1995) [FLAC]/Disc 5 - Sonaten Op.31 No.1, No.2 The Tempest, No.3 - Op.49 No.1/08 - Sonata No.18 in E flat major op.31 no.3 - II. Scherzo. Allegretto vivace.flac

Track gain : 4.88 dB
Peak : 0.656464
CRC32 hash (test run) : D8E34A98
CRC32 hash : D8E34A98
CRC32 hash (skip zero) : 5BCBDDEC
AccurateRip v1 signature : 79B2C3E2
AccurateRip v2 signature : 71C70CA9 (D13DC7B4 w/correction)
->Accurately ripped with different offset (v2, confidence 16/43, offset -1231)
Statistics
Read error : 0
Jitter error (maybe fixed) : 0
Retry sector count : 0
Damaged sector count : 0

Track 09
Filename : /Users/dehors/Music/Wilhelm Kempff - Ludwig van Beethoven - The Piano Sonatas (1995) [FLAC]/Disc 5 - Sonaten Op.31 No.1, No.2 The Tempest, No.3 - Op.49 No.1/09 - Sonata No.18 in E flat major op.31 no.3 - III. Minuetto. Moderato e grazioso.flac

Track gain : 3.60 dB
Peak : 0.830475
CRC32 hash (test run) : B555FDF3
CRC32 hash : B555FDF3
CRC32 hash (skip zero) : FD50424A
AccurateRip v1 signature : 5ECA7F2B
AccurateRip v2 signature : 28889FDE (946561FF w/correction)
->Accurately ripped with different offset (v2, confidence 16/43, offset -1231)
Statistics
Read error : 0
Jitter error (maybe fixed) : 0
Retry sector count : 0
Damaged sector count : 0

Track 10
Filename : /Users/dehors/Music/Wilhelm Kempff - Ludwig van Beethoven - The Piano Sonatas (1995) [FLAC]/Disc 5 - Sonaten Op.31 No.1, No.2 The Tempest, No.3 - Op.49 No.1/10 - Sonata No.18 in E flat major op.31 no.3 - IV. Presto con fuoco.flac

Track gain : -2.05 dB
Peak : 0.866028
CRC32 hash (test run) : B452CD3D
CRC32 hash : B452CD3D
CRC32 hash (skip zero) : E1E857C6
AccurateRip v1 signature : 77FEAAA2
AccurateRip v2 signature : D110B55E (0AD885FE w/correction)
->Accurately ripped with different offset (v2, confidence 16/43, offset -1231)
Statistics
Read error : 0
Jitter error (maybe fixed) : 0
Retry sector count : 0
Damaged sector count : 0

Track 11
Filename : /Users/dehors/Music/Wilhelm Kempff - Ludwig van Beethoven - The Piano Sonatas (1995) [FLAC]/Disc 5 - Sonaten Op.31 No.1, No.2 The Tempest, No.3 - Op.49 No.1/11 - Sonata No.19 in G minor op.49 no.1 - I. Andante.flac
Pre-gap length : 00:11:00

Track gain : 3.08 dB
Peak : 0.486664
CRC32 hash (test run) : 5025FAB9
CRC32 hash : 5025FAB9
CRC32 hash (skip zero) : E9114B57
AccurateRip v1 signature : 74A426B9
AccurateRip v2 signature : 383050D5 (B3B34EF9 w/correction)
->Accurately ripped with different offset (v2, confidence 16/42, offset -1231)
Statistics
Read error : 0
Jitter error (maybe fixed) : 0
Retry sector count : 0
Damaged sector count : 0

Track 12
Filename : /Users/dehors/Music/Wilhelm Kempff - Ludwig van Beethoven - The Piano Sonatas (1995) [FLAC]/Disc 5 - Sonaten Op.31 No.1, No.2 The Tempest, No.3 - Op.49 No.1/12 - Sonata No.19 in G minor op.49 no.1 - II. Rondo. Allegro.flac

Track gain : 3.87 dB
Peak : 0.597168
CRC32 hash (test run) : F60CEA04
CRC32 hash : F60CEA04
CRC32 hash (skip zero) : 6EC4BF58
AccurateRip v1 signature : 4DC709ED
AccurateRip v2 signature : 930731ED (C44CCB58 w/correction)
->Accurately ripped with different offset (v2, confidence 16/43, offset -1231)
Statistics
Read error : 0
Jitter error (maybe fixed) : 0
Retry sector count : 0
Damaged sector count : 0

No errors occurred

End of status report

––-BEGIN XLD SIGNATURE––-
EykAKprdJf.xldylX.YPS4FSniWDUAsqoakh4m_c6g4MyH9Jq7zZYkzTWXWC._D8BUEEy0UAqLA6_f9KnCuwj0bva5ZaxbOS9N8Cjrq
––-END XLD SIGNATURE––-

X Lossless Decoder version 20141129 (148.1)

XLD extraction logfile from 2017-08-31 04:51:06 +0200

Wilhelm Kempff / Beethoven - Piano Sonatas 20, 21, 22, 23 & 24

Used drive : HL-DT-ST DVDRW GA11NR (revision KR06)
Media type : Pressed CD

Ripper mode : XLD Secure Ripper
Disable audio cache : OK for the drive with a cache less than 1375KiB
Make use of C2 pointers : NO
Read offset correction : 667
Max retry count : 20
Gap status : Analyzed, Appended

TOC of the extracted CD
Track | Start | Length | Start sector | End sector
––––––––––––––––––––––––––––-
1 | 00:00:32 | 04:37:00 | 32 | 20806
2 | 04:37:32 | 03:56:00 | 20807 | 38506
3 | 08:33:32 | 08:25:00 | 38507 | 76381
4 | 16:58:32 | 03:30:63 | 76382 | 92194
5 | 20:29:20 | 09:55:12 | 92195 | 136831
6 | 30:24:32 | 06:01:00 | 136832 | 163906
7 | 36:25:32 | 06:06:00 | 163907 | 191356
8 | 42:31:32 | 09:43:00 | 191357 | 235081
9 | 52:14:32 | 06:10:63 | 235082 | 262894
10 | 58:25:20 | 05:44:12 | 262895 | 288706
11 | 64:09:32 | 04:59:00 | 288707 | 311131
12 | 69:08:32 | 02:49:00 | 311132 | 323806

List of alternate offset correction values
# | Absolute | Relative | Confidence
–––––––––––––––––––––
1 | 103 | -564 | 16
2 | -578 | -1245 | 14
3 | 2011 | 1344 | 11

AccurateRip Summary (DiscID: 0020adca-01358bc7-9210dd0c)
Track 01 : OK (v2, confidence 9/41, with different offset)
Track 02 : OK (v2, confidence 9/41, with different offset)
Track 03 : OK (v2, confidence 9/41, with different offset)
Track 04 : OK (v2, confidence 9/41, with different offset)
Track 05 : OK (v2, confidence 9/41, with different offset)
Track 06 : OK (v2, confidence 9/41, with different offset)
Track 07 : OK (v2, confidence 9/41, with different offset)
Track 08 : OK (v2, confidence 9/41, with different offset)
Track 09 : OK (v2, confidence 9/41, with different offset)
Track 10 : OK (v2, confidence 9/41, with different offset)
Track 11 : OK (v2, confidence 9/41, with different offset)
Track 12 : OK (v2, confidence 9/41, with different offset)
->All tracks accurately ripped.

All Tracks
Album gain : -0.76 dB
Peak : 0.999939
Statistics
Read error : 0
Jitter error (maybe fixed) : 0
Retry sector count : 0
Damaged sector count : 0

Track 01
Filename : /Users/dehors/Music/Wilhelm Kempff - Ludwig van Beethoven - The Piano Sonatas (1995) [FLAC]/Disc 6 - Sonaten Op.49 No.2 - Op.53 Waldstein - Op.54 - Op.57 Appassionata - Op.78/01 - Sonata No.20 in G major op.49 no.2 - I. Allegro, ma non troppo.flac
Pre-gap length : 00:02:32

Track gain : 3.45 dB
Peak : 0.661804
CRC32 hash (test run) : 1A41F34A
CRC32 hash : 1A41F34A
CRC32 hash (skip zero) : B73A0A70
AccurateRip v1 signature : 2BD9E452
AccurateRip v2 signature : BE5271D6 (D70DCB04 w/correction)
->Accurately ripped with different offset (v2, confidence 9/41, offset -1245)
Statistics
Read error : 0
Jitter error (maybe fixed) : 0
Retry sector count : 0
Damaged sector count : 0

Track 02
Filename : /Users/dehors/Music/Wilhelm Kempff - Ludwig van Beethoven - The Piano Sonatas (1995) [FLAC]/Disc 6 - Sonaten Op.49 No.2 - Op.53 Waldstein - Op.54 - Op.57 Appassionata - Op.78/02 - Sonata No.20 in G major op.49 no.2 - II. Tempo di minuetto.flac

Track gain : 3.84 dB
Peak : 0.418091
CRC32 hash (test run) : AF4F0574
CRC32 hash : AF4F0574
CRC32 hash (skip zero) : E4DCBD20
AccurateRip v1 signature : 80A4EB19
AccurateRip v2 signature : DD6A03D0 (A68E2842 w/correction)
->Accurately ripped with different offset (v2, confidence 9/41, offset -1245)
Statistics
Read error : 0
Jitter error (maybe fixed) : 0
Retry sector count : 0
Damaged sector count : 0

Track 03
Filename : /Users/dehors/Music/Wilhelm Kempff - Ludwig van Beethoven - The Piano Sonatas (1995) [FLAC]/Disc 6 - Sonaten Op.49 No.2 - Op.53 Waldstein - Op.54 - Op.57 Appassionata - Op.78/03 - Sonata No.21 in C major op.53 - Waldstein - I. Allegro con brio.flac
Pre-gap length : 00:11:00

Track gain : -0.62 dB
Peak : 0.779877
CRC32 hash (test run) : 178B5848
CRC32 hash : 178B5848
CRC32 hash (skip zero) : EE7640FF
AccurateRip v1 signature : 671A521E
AccurateRip v2 signature : 89914978 (E47AEE77 w/correction)
->Accurately ripped with different offset (v2, confidence 9/41, offset -1245)
Statistics
Read error : 0
Jitter error (maybe fixed) : 0
Retry sector count : 0
Damaged sector count : 0

Track 04
Filename : /Users/dehors/Music/Wilhelm Kempff - Ludwig van Beethoven - The Piano Sonatas (1995) [FLAC]/Disc 6 - Sonaten Op.49 No.2 - Op.53 Waldstein - Op.54 - Op.57 Appassionata - Op.78/04 - Sonata No.21 in C major op.53 - Waldstein - II. Introduzione. Adagio molto.flac

Track gain : 10.93 dB
Peak : 0.361755
CRC32 hash (test run) : 1F6696EC
CRC32 hash : 1F6696EC
CRC32 hash (skip zero) : DB441743
AccurateRip v1 signature : E40BB4F1
AccurateRip v2 signature : 6D4DDB76 (BFECE085 w/correction)
->Accurately ripped with different offset (v2, confidence 9/41, offset -1245)
Statistics
Read error : 0
Jitter error (maybe fixed) : 0
Retry sector count : 0
Damaged sector count : 0

Track 05
Filename : /Users/dehors/Music/Wilhelm Kempff - Ludwig van Beethoven - The Piano Sonatas (1995) [FLAC]/Disc 6 - Sonaten Op.49 No.2 - Op.53 Waldstein - Op.54 - Op.57 Appassionata - Op.78/05 - Sonata No.21 in C major op.53 - Waldstein - III. Rondo. Allegretto moderato.flac

Track gain : -1.45 dB
Peak : 0.907898
CRC32 hash (test run) : 08EA7FDB
CRC32 hash : 08EA7FDB
CRC32 hash (skip zero) : DEFEA318
AccurateRip v1 signature : C30404CD
AccurateRip v2 signature : 1E6C68EB (231AD0AA w/correction)
->Accurately ripped with different offset (v2, confidence 9/41, offset -1245)
Statistics
Read error : 0
Jitter error (maybe fixed) : 0
Retry sector count : 0
Damaged sector count : 0

Track 06
Filename : /Users/dehors/Music/Wilhelm Kempff - Ludwig van Beethoven - The Piano Sonatas (1995) [FLAC]/Disc 6 - Sonaten Op.49 No.2 - Op.53 Waldstein - Op.54 - Op.57 Appassionata - Op.78/06 - Sonata No.22 in F major op.54 - I. In tempo d'un menuetto.flac
Pre-gap length : 00:12:00

Track gain : -0.32 dB
Peak : 0.992371
CRC32 hash (test run) : 75DE4281
CRC32 hash : 75DE4281
CRC32 hash (skip zero) : B430C4EC
AccurateRip v1 signature : 035379A8
AccurateRip v2 signature : B33107E4 (1F19F4FC w/correction)
->Accurately ripped with different offset (v2, confidence 9/41, offset -1245)
Statistics
Read error : 0
Jitter error (maybe fixed) : 0
Retry sector count : 0
Damaged sector count : 0

Track 07
Filename : /Users/dehors/Music/Wilhelm Kempff - Ludwig van Beethoven - The Piano Sonatas (1995) [FLAC]/Disc 6 - Sonaten Op.49 No.2 - Op.53 Waldstein - Op.54 - Op.57 Appassionata - Op.78/07 - Sonata No.22 in F major op.54 - II. Allegretto.flac

Track gain : -1.65 dB
Peak : 0.828735
CRC32 hash (test run) : B0AC6AF2
CRC32 hash : B0AC6AF2
CRC32 hash (skip zero) : 27C1BE3B
AccurateRip v1 signature : F6ECD5C5
AccurateRip v2 signature : 7DFAD5D5 (748E3643 w/correction)
->Accurately ripped with different offset (v2, confidence 9/41, offset -1245)
Statistics
Read error : 0
Jitter error (maybe fixed) : 0
Retry sector count : 0
Damaged sector count : 0

Track 08
Filename : /Users/dehors/Music/Wilhelm Kempff - Ludwig van Beethoven - The Piano Sonatas (1995) [FLAC]/Disc 6 - Sonaten Op.49 No.2 - Op.53 Waldstein - Op.54 - Op.57 Appassionata - Op.78/08 - Sonata No.23 in F minor op.57 - Appassionata - I. Allegro assai.flac
Pre-gap length : 00:09:00

Track gain : -1.71 dB
Peak : 0.981689
CRC32 hash (test run) : DDBD91F0
CRC32 hash : DDBD91F0
CRC32 hash (skip zero) : 5B4DBA50
AccurateRip v1 signature : 805B5F68
AccurateRip v2 signature : FA4B625D (38C4BDFA w/correction)
->Accurately ripped with different offset (v2, confidence 9/41, offset -1245)
Statistics
Read error : 0
Jitter error (maybe fixed) : 0
Retry sector count : 0
Damaged sector count : 0

Track 09
Filename : /Users/dehors/Music/Wilhelm Kempff - Ludwig van Beethoven - The Piano Sonatas (1995) [FLAC]/Disc 6 - Sonaten Op.49 No.2 - Op.53 Waldstein - Op.54 - Op.57 Appassionata - Op.78/09 - Sonata No.23 in F minor op.57 - Appassionata - II. Andante con moto.flac

Track gain : 5.29 dB
Peak : 0.718689
CRC32 hash (test run) : 9B314E19
CRC32 hash : 9B314E19
CRC32 hash (skip zero) : CFF6E2A6
AccurateRip v1 signature : A7C7198A
AccurateRip v2 signature : B4213499 (22ECC818 w/correction)
->Accurately ripped with different offset (v2, confidence 9/41, offset -1245)
Statistics
Read error : 0
Jitter error (maybe fixed) : 0
Retry sector count : 0
Damaged sector count : 0

Track 10
Filename : /Users/dehors/Music/Wilhelm Kempff - Ludwig van Beethoven - The Piano Sonatas (1995) [FLAC]/Disc 6 - Sonaten Op.49 No.2 - Op.53 Waldstein - Op.54 - Op.57 Appassionata - Op.78/10 - Sonata No.23 in F minor op.57 - Appassionata - III. Allegro ma non troppo. Presto.flac

Track gain : -1.65 dB
Peak : 0.896881
CRC32 hash (test run) : 0EDE3697
CRC32 hash : 0EDE3697
CRC32 hash (skip zero) : 06D753CC
AccurateRip v1 signature : 3248F024
AccurateRip v2 signature : FEAC2621 (46C065D8 w/correction)
->Accurately ripped with different offset (v2, confidence 9/41, offset -1245)
Statistics
Read error : 0
Jitter error (maybe fixed) : 0
Retry sector count : 0
Damaged sector count : 0

Track 11
Filename : /Users/dehors/Music/Wilhelm Kempff - Ludwig van Beethoven - The Piano Sonatas (1995) [FLAC]/Disc 6 - Sonaten Op.49 No.2 - Op.53 Waldstein - Op.54 - Op.57 Appassionata - Op.78/11 - Sonata No.24 in F sharp major op.78 - I. Adagio cantabile. Allegro ma non troppo.flac
Pre-gap length : 00:09:00

Track gain : -1.07 dB
Peak : 0.930817
CRC32 hash (test run) : A92BDDC0
CRC32 hash : A92BDDC0
CRC32 hash (skip zero) : ADC8E01C
AccurateRip v1 signature : CAD58DCA
AccurateRip v2 signature : AC9F0937 (43015104 w/correction)
->Accurately ripped with different offset (v2, confidence 9/41, offset -1245)
Statistics
Read error : 0
Jitter error (maybe fixed) : 0
Retry sector count : 0
Damaged sector count : 0

Track 12
Filename : /Users/dehors/Music/Wilhelm Kempff - Ludwig van Beethoven - The Piano Sonatas (1995) [FLAC]/Disc 6 - Sonaten Op.49 No.2 - Op.53 Waldstein - Op.54 - Op.57 Appassionata - Op.78/12 - Sonata No.24 in F sharp major op.78 - II. Allegro vivace.flac

Track gain : -2.69 dB
Peak : 0.999939
CRC32 hash (test run) : 967F9363
CRC32 hash : 967F9363
CRC32 hash (skip zero) : 207F8E33
AccurateRip v1 signature : FDABC526
AccurateRip v2 signature : EF29CD8B (ED1A6724 w/correction)
->Accurately ripped with different offset (v2, confidence 9/41, offset -1245)
Statistics
Read error : 0
Jitter error (maybe fixed) : 0
Retry sector count : 0
Damaged sector count : 0

No errors occurred

End of status report

––-BEGIN XLD SIGNATURE––-
D7ZY..b_bLcvvmrlB1iYZ.Rmpf1J3j1W9QIGujlHqtnSP2iDf.W7.ebYfkhtWOf83snK5zteWLqFNu74hwxkdvcduKCAzRyLr3dKo4q
––-END XLD SIGNATURE––-

X Lossless Decoder version 20141129 (148.1)

XLD extraction logfile from 2017-08-31 06:35:08 +0200

Wilhelm Kempff / Beethoven - Piano Sonatas 25, 26, 27 & 29

Used drive : HL-DT-ST DVDRW GA11NR (revision KR06)
Media type : Pressed CD

Ripper mode : XLD Secure Ripper
Disable audio cache : OK for the drive with a cache less than 1375KiB
Make use of C2 pointers : NO
Read offset correction : 667
Max retry count : 20
Gap status : Analyzed, Appended

TOC of the extracted CD
Track | Start | Length | Start sector | End sector
––––––––––––––––––––––––––––-
1 | 00:00:33 | 03:03:00 | 33 | 13757
2 | 03:03:33 | 02:29:00 | 13758 | 24932
3 | 05:32:33 | 02:02:00 | 24933 | 34082
4 | 07:34:33 | 06:51:00 | 34083 | 64907
5 | 14:25:33 | 03:00:40 | 64908 | 78447
6 | 17:25:73 | 04:18:35 | 78448 | 97832
7 | 21:44:33 | 05:07:00 | 97833 | 120857
8 | 26:51:33 | 08:17:00 | 120858 | 158132
9 | 35:08:33 | 08:54:00 | 158133 | 198182
10 | 44:02:33 | 02:41:00 | 198183 | 210257
11 | 46:43:33 | 15:21:00 | 210258 | 279332
12 | 62:04:33 | 11:47:00 | 279333 | 332357

List of alternate offset correction values
# | Absolute | Relative | Confidence
–––––––––––––––––––––
1 | -267 | -934 | 35
2 | 103 | -564 | 20
3 | -561 | -1228 | 17

AccurateRip Summary (DiscID: 00189d3f-00f54d56-94114f0c)
Track 01 : OK (v2, confidence 27/71, with different offset)
Track 02 : OK (v2, confidence 27/71, with different offset)
Track 03 : OK (v2, confidence 27/71, with different offset)
Track 04 : OK (v2, confidence 27/71, with different offset)
Track 05 : OK (v2, confidence 27/71, with different offset)
Track 06 : OK (v1+v2, confidence 35/70, with different offset)
Track 07 : OK (v2, confidence 27/71, with different offset)
Track 08 : OK (v2, confidence 27/71, with different offset)
Track 09 : OK (v2, confidence 27/72, with different offset)
Track 10 : OK (v2, confidence 26/71, with different offset)
Track 11 : OK (v2, confidence 27/70, with different offset)
Track 12 : OK (v2, confidence 27/69, with different offset)
->All tracks accurately ripped.

All Tracks
Album gain : -1.21 dB
Peak : 0.999939
Statistics
Read error : 0
Jitter error (maybe fixed) : 0
Retry sector count : 11
Damaged sector count : 0

Track 01
Filename : /Users/dehors/Music/Wilhelm Kempff - Ludwig van Beethoven - The Piano Sonatas (1995) [FLAC]/Disc 7 - Sonaten Op.79 - Op.81a Les Adieux - Op. 90 - Op.106 Hammerklavier/01 - Sonate No.25 in G major op.79 - I. Presto alla tedesca.flac
Pre-gap length : 00:02:33

Track gain : -2.08 dB
Peak : 0.810455
CRC32 hash (test run) : 2308939A
CRC32 hash : 2308939A
CRC32 hash (skip zero) : F2BC5E6F
AccurateRip v1 signature : D012779C
AccurateRip v2 signature : E7C2F9BE (84409F37 w/correction)
->Accurately ripped with different offset (v2, confidence 27/71, offset -934)
Statistics
Read error : 0
Jitter error (maybe fixed) : 0
Retry sector count : 0
Damaged sector count : 0

Track 02
Filename : /Users/dehors/Music/Wilhelm Kempff - Ludwig van Beethoven - The Piano Sonatas (1995) [FLAC]/Disc 7 - Sonaten Op.79 - Op.81a Les Adieux - Op. 90 - Op.106 Hammerklavier/02 - Sonate No.25 in G major op.79 - II. Andante.flac

Track gain : 7.12 dB
Peak : 0.515228
CRC32 hash (test run) : 1F94451C
CRC32 hash : 1F94451C
CRC32 hash (skip zero) : B02344FE
AccurateRip v1 signature : 9842E5C2
AccurateRip v2 signature : 1E766D10 (F9487733 w/correction)
->Accurately ripped with different offset (v2, confidence 27/71, offset -934)
Statistics
Read error : 0
Jitter error (maybe fixed) : 0
Retry sector count : 0
Damaged sector count : 0

Track 03
Filename : /Users/dehors/Music/Wilhelm Kempff - Ludwig van Beethoven - The Piano Sonatas (1995) [FLAC]/Disc 7 - Sonaten Op.79 - Op.81a Les Adieux - Op. 90 - Op.106 Hammerklavier/03 - Sonate No.25 in G major op.79 - III. Vivace.flac

Track gain : 0.86 dB
Peak : 0.791992
CRC32 hash (test run) : 2A824016
CRC32 hash : 2A824016
CRC32 hash (skip zero) : AD4FB2FD
AccurateRip v1 signature : AF17ACC6
AccurateRip v2 signature : C71621D2 (6D2C2B9A w/correction)
->Accurately ripped with different offset (v2, confidence 27/71, offset -934)
Statistics
Read error : 0
Jitter error (maybe fixed) : 0
Retry sector count : 0
Damaged sector count : 0

Track 04
Filename : /Users/dehors/Music/Wilhelm Kempff - Ludwig van Beethoven - The Piano Sonatas (1995) [FLAC]/Disc 7 - Sonaten Op.79 - Op.81a Les Adieux - Op. 90 - Op.106 Hammerklavier/04 - Sonate No.26 in E flat major op.81a - Les Adieux - I. Das Lebewohl.flac
Pre-gap length : 00:10:00

Track gain : -0.54 dB
Peak : 0.997589
CRC32 hash (test run) : 5D7702D6
CRC32 hash : 5D7702D6
CRC32 hash (skip zero) : 9D82FB01
AccurateRip v1 signature : 33C9EF8A
AccurateRip v2 signature : 11FA1A63 (7506254B w/correction)
->Accurately ripped with different offset (v2, confidence 27/71, offset -934)
Statistics
Read error : 0
Jitter error (maybe fixed) : 0
Retry sector count : 0
Damaged sector count : 0

Track 05
Filename : /Users/dehors/Music/Wilhelm Kempff - Ludwig van Beethoven - The Piano Sonatas (1995) [FLAC]/Disc 7 - Sonaten Op.79 - Op.81a Les Adieux - Op. 90 - Op.106 Hammerklavier/05 - Sonate No.26 in E flat major op.81a - Les Adieux - II. Abwesenheit.flac

Track gain : 2.04 dB
Peak : 0.751831
CRC32 hash (test run) : A3B374DE
CRC32 hash : A3B374DE
CRC32 hash (skip zero) : 7CADEBFF
AccurateRip v1 signature : D543C8FB
AccurateRip v2 signature : 6423D46A (F717311C w/correction)
->Accurately ripped with different offset (v2, confidence 27/71, offset -934)
Statistics
Read error : 0
Jitter error (maybe fixed) : 0
Retry sector count : 0
Damaged sector count : 0

Track 06
Filename : /Users/dehors/Music/Wilhelm Kempff - Ludwig van Beethoven - The Piano Sonatas (1995) [FLAC]/Disc 7 - Sonaten Op.79 - Op.81a Les Adieux - Op. 90 - Op.106 Hammerklavier/06 - Sonate No.26 in E flat major op.81a - Les Adieux - III. Das Wiedersehn.flac

Track gain : -3.41 dB
Peak : 0.999939
CRC32 hash (test run) : FBCB0605
CRC32 hash : FBCB0605
CRC32 hash (skip zero) : F859996C
AccurateRip v1 signature : 058AF4C0 (29B31A4E w/correction)
AccurateRip v2 signature : F5F2E873 (F1C0F79A w/correction)
->Accurately ripped with different offset (v1+v2, confidence 8+27/70, offset -934)
Statistics
Read error : 0
Jitter error (maybe fixed) : 0
Retry sector count : 0
Damaged sector count : 0

Track 07
Filename : /Users/dehors/Music/Wilhelm Kempff - Ludwig van Beethoven - The Piano Sonatas (1995) [FLAC]/Disc 7 - Sonaten Op.79 - Op.81a Les Adieux - Op. 90 - Op.106 Hammerklavier/07 - Sonate No.27 in E minor op.90 - I..flac
Pre-gap length : 00:10:00

Track gain : -2.61 dB
Peak : 0.999939
CRC32 hash (test run) : 64F74660
CRC32 hash : 64F74660
CRC32 hash (skip zero) : 74BACF9E
AccurateRip v1 signature : 6A0DD394
AccurateRip v2 signature : E55FAFCF (4AA6CCCE w/correction)
->Accurately ripped with different offset (v2, confidence 27/71, offset -934)
Statistics
Read error : 0
Jitter error (maybe fixed) : 0
Retry sector count : 0
Damaged sector count : 0

Track 08
Filename : /Users/dehors/Music/Wilhelm Kempff - Ludwig van Beethoven - The Piano Sonatas (1995) [FLAC]/Disc 7 - Sonaten Op.79 - Op.81a Les Adieux - Op. 90 - Op.106 Hammerklavier/08 - Sonate No.27 in E minor op.90 - II..flac

Track gain : 1.65 dB
Peak : 0.728180
CRC32 hash (test run) : 2D8DA72E
CRC32 hash : 2D8DA72E
CRC32 hash (skip zero) : 52DA5162
AccurateRip v1 signature : 5060A273
AccurateRip v2 signature : 643BF650 (34050FCF w/correction)
->Accurately ripped with different offset (v2, confidence 27/71, offset -934)
Statistics
Read error : 0
Jitter error (maybe fixed) : 0
Retry sector count : 4
Damaged sector count : 0

Track 09
Filename : /Users/dehors/Music/Wilhelm Kempff - Ludwig van Beethoven - The Piano Sonatas (1995) [FLAC]/Disc 7 - Sonaten Op.79 - Op.81a Les Adieux - Op. 90 - Op.106 Hammerklavier/09 - Sonate No.29 in B flat major op.106 - Hammerklavier - I. Allegro.flac
Pre-gap length : 00:10:00

Track gain : -2.04 dB
Peak : 0.911346
CRC32 hash (test run) : DF105C23
CRC32 hash : DF105C23
CRC32 hash (skip zero) : 8175CB28
AccurateRip v1 signature : 01092E93
AccurateRip v2 signature : DF704D2A (1471D8DE w/correction)
->Accurately ripped with different offset (v2, confidence 27/72, offset -934)
Statistics
Read error : 0
Jitter error (maybe fixed) : 0
Retry sector count : 7
Damaged sector count : 0

Track 10
Filename : /Users/dehors/Music/Wilhelm Kempff - Ludwig van Beethoven - The Piano Sonatas (1995) [FLAC]/Disc 7 - Sonaten Op.79 - Op.81a Les Adieux - Op. 90 - Op.106 Hammerklavier/10 - Sonate No.29 in B flat major op.106 - Hammerklavier - II. Scherzo. Assai vivace.flac

Track gain : -0.85 dB
Peak : 0.726990
CRC32 hash (test run) : CF6BEC2F
CRC32 hash : CF6BEC2F
CRC32 hash (skip zero) : 512F5741
AccurateRip v1 signature : 378D08DD
AccurateRip v2 signature : DBD54CA5 (147EF964 w/correction)
->Accurately ripped with different offset (v2, confidence 26/71, offset -934)
Statistics
Read error : 0
Jitter error (maybe fixed) : 0
Retry sector count : 0
Damaged sector count : 0

Track 11
Filename : /Users/dehors/Music/Wilhelm Kempff - Ludwig van Beethoven - The Piano Sonatas (1995) [FLAC]/Disc 7 - Sonaten Op.79 - Op.81a Les Adieux - Op. 90 - Op.106 Hammerklavier/11 - Sonate No.29 in B flat major op.106 - Hammerklavier - III. Adagio sostenuto. Appassionato.flac

Track gain : 4.62 dB
Peak : 0.651611
CRC32 hash (test run) : FCFCBCA2
CRC32 hash : FCFCBCA2
CRC32 hash (skip zero) : 61B31BA6
AccurateRip v1 signature : 5F5EDC59
AccurateRip v2 signature : BC3D5F82 (B3958156 w/correction)
->Accurately ripped with different offset (v2, confidence 27/70, offset -934)
Statistics
Read error : 0
Jitter error (maybe fixed) : 0
Retry sector count : 0
Damaged sector count : 0

Track 12
Filename : /Users/dehors/Music/Wilhelm Kempff - Ludwig van Beethoven - The Piano Sonatas (1995) [FLAC]/Disc 7 - Sonaten Op.79 - Op.81a Les Adieux - Op. 90 - Op.106 Hammerklavier/12 - Sonate No.29 in B flat major op.106 - Hammerklavier - IV. Largo. Molto risoluto.flac

Track gain : -2.82 dB
Peak : 0.967255
CRC32 hash (test run) : 146A39FC
CRC32 hash : 146A39FC
CRC32 hash (skip zero) : 2C055D1A
AccurateRip v1 signature : 149DA951
AccurateRip v2 signature : 1FAC5EBF (14949959 w/correction)
->Accurately ripped with different offset (v2, confidence 27/69, offset -934)
Statistics
Read error : 0
Jitter error (maybe fixed) : 0
Retry sector count : 0
Damaged sector count : 0

No errors occurred

End of status report

––-BEGIN XLD SIGNATURE––-
oPHs4pw0hSIOPIwFhALTZTr3v4tMZIkZrHhvbKxMyAhHl86bp5hzcrROS9GG2iC00KsTyXWSGBH.fvhCBiQyblPfSE2DLy3ifY2fVNG
––-END XLD SIGNATURE––-

X Lossless Decoder version 20141129 (148.1)

XLD extraction logfile from 2017-08-31 08:33:40 +0200

Wilhelm Kempff / Beethoven - Piano Sonatas 28, 30, 31 & 32

Used drive : HL-DT-ST DVDRW GA11NR (revision KR06)
Media type : Pressed CD

Ripper mode : XLD Secure Ripper
Disable audio cache : OK for the drive with a cache less than 1375KiB
Make use of C2 pointers : NO
Read offset correction : 667
Max retry count : 20
Gap status : Analyzed, Appended

TOC of the extracted CD
Track | Start | Length | Start sector | End sector
––––––––––––––––––––––––––––-
1 | 00:00:32 | 03:35:00 | 32 | 16156
2 | 03:35:32 | 05:41:00 | 16157 | 41731
3 | 09:16:32 | 02:23:15 | 41732 | 52471
4 | 11:39:47 | 07:20:60 | 52472 | 85531
5 | 19:00:32 | 03:14:00 | 85532 | 100081
6 | 22:14:32 | 02:23:00 | 100082 | 110806
7 | 24:37:32 | 11:08:00 | 110807 | 160906
8 | 35:45:32 | 06:04:00 | 160907 | 188206
9 | 41:49:32 | 02:29:00 | 188207 | 199381
10 | 44:18:32 | 09:42:00 | 199382 | 243031
11 | 54:00:32 | 07:05:00 | 243032 | 274906
12 | 61:05:32 | 14:33:00 | 274907 | 340381

List of alternate offset correction values
# | Absolute | Relative | Confidence
–––––––––––––––––––––
1 | 103 | -564 | 20
2 | -561 | -1228 | 12

AccurateRip Summary (DiscID: 001bac7f-010bb0cc-9611ba0c)
Track 01 : OK (v1+v2, confidence 20/44, with different offset)
Track 02 : OK (v1+v2, confidence 20/44, with different offset)
Track 03 : OK (v1+v2, confidence 20/44, with different offset)
Track 04 : OK (v1+v2, confidence 20/44, with different offset)
Track 05 : OK (v1+v2, confidence 20/44, with different offset)
Track 06 : OK (v1+v2, confidence 20/43, with different offset)
Track 07 : OK (v1+v2, confidence 20/43, with different offset)
Track 08 : OK (v1+v2, confidence 20/43, with different offset)
Track 09 : OK (v1+v2, confidence 20/43, with different offset)
Track 10 : OK (v1+v2, confidence 20/43, with different offset)
Track 11 : OK (v1+v2, confidence 20/43, with different offset)
Track 12 : OK (v1+v2, confidence 18/40, with different offset)
->All tracks accurately ripped.

All Tracks
Album gain : 0.40 dB
Peak : 0.999939
Statistics
Read error : 0
Jitter error (maybe fixed) : 0
Retry sector count : 11
Damaged sector count : 0

Track 01
Filename : /Users/dehors/Music/Wilhelm Kempff - Ludwig van Beethoven - The Piano Sonatas (1995) [FLAC]/Disc 8 - Sonaten Op.101 - Op.109 - Op.110 - Op.111/01 - Sonata No.28 in A major op.101 - I. Allegretto ma non troppo.flac
Pre-gap length : 00:02:32

Track gain : 2.58 dB
Peak : 0.800720
CRC32 hash (test run) : A55E9D83
CRC32 hash : A55E9D83
CRC32 hash (skip zero) : D4370F18
AccurateRip v1 signature : 3FFAB040 (9B3517EC w/correction)
AccurateRip v2 signature : 82A9185B (58FE1BCA w/correction)
->Accurately ripped with different offset (v1+v2, confidence 9+11/44, offset -564)
Statistics
Read error : 0
Jitter error (maybe fixed) : 0
Retry sector count : 9
Damaged sector count : 0

Track 02
Filename : /Users/dehors/Music/Wilhelm Kempff - Ludwig van Beethoven - The Piano Sonatas (1995) [FLAC]/Disc 8 - Sonaten Op.101 - Op.109 - Op.110 - Op.111/02 - Sonata No.28 in A major op.101 - II. Vivace alla marcia.flac

Track gain : -2.23 dB
Peak : 0.987640
CRC32 hash (test run) : 121260A3
CRC32 hash : 121260A3
CRC32 hash (skip zero) : EAE63DBF
AccurateRip v1 signature : 46477FCD (4D21E2C2 w/correction)
AccurateRip v2 signature : 06B01814 (C33BC7C9 w/correction)
->Accurately ripped with different offset (v1+v2, confidence 9+11/44, offset -564)
Statistics
Read error : 0
Jitter error (maybe fixed) : 0
Retry sector count : 2
Damaged sector count : 0

Track 03
Filename : /Users/dehors/Music/Wilhelm Kempff - Ludwig van Beethoven - The Piano Sonatas (1995) [FLAC]/Disc 8 - Sonaten Op.101 - Op.109 - Op.110 - Op.111/03 - Sonata No.28 in A major op.101 - III. Adagio ma non troppo, con affetto.flac

Track gain : 5.63 dB
Peak : 0.798431
CRC32 hash (test run) : 60104778
CRC32 hash : 60104778
CRC32 hash (skip zero) : 394B62DD
AccurateRip v1 signature : 15CA9102 (4DA6BF9A w/correction)
AccurateRip v2 signature : 87DBF5D6 (CF633DE7 w/correction)
->Accurately ripped with different offset (v1+v2, confidence 9+11/44, offset -564)
Statistics
Read error : 0
Jitter error (maybe fixed) : 0
Retry sector count : 0
Damaged sector count : 0

Track 04
Filename : /Users/dehors/Music/Wilhelm Kempff - Ludwig van Beethoven - The Piano Sonatas (1995) [FLAC]/Disc 8 - Sonaten Op.101 - Op.109 - Op.110 - Op.111/04 - Sonata No.28 in A major op.101 - IV. Allegro.flac

Track gain : -2.90 dB
Peak : 0.999939
CRC32 hash (test run) : EC585D78
CRC32 hash : EC585D78
CRC32 hash (skip zero) : 76E25434
AccurateRip v1 signature : 83C44054 (895D0960 w/correction)
AccurateRip v2 signature : 21CE4D7E (F0340510 w/correction)
->Accurately ripped with different offset (v1+v2, confidence 9+11/44, offset -564)
Statistics
Read error : 0
Jitter error (maybe fixed) : 0
Retry sector count : 0
Damaged sector count : 0

Track 05
Filename : /Users/dehors/Music/Wilhelm Kempff - Ludwig van Beethoven - The Piano Sonatas (1995) [FLAC]/Disc 8 - Sonaten Op.101 - Op.109 - Op.110 - Op.111/05 - Sonata No.30 in E major op.109 - I. Vivace, ma non troppo.flac
Pre-gap length : 00:09:00

Track gain : 3.69 dB
Peak : 0.772369
CRC32 hash (test run) : ED80249B
CRC32 hash : ED80249B
CRC32 hash (skip zero) : 80DC7C83
AccurateRip v1 signature : EE477D6F (B7C32ECE w/correction)
AccurateRip v2 signature : DAB5386E (B747B50E w/correction)
->Accurately ripped with different offset (v1+v2, confidence 9+11/44, offset -564)
Statistics
Read error : 0
Jitter error (maybe fixed) : 0
Retry sector count : 0
Damaged sector count : 0

Track 06
Filename : /Users/dehors/Music/Wilhelm Kempff - Ludwig van Beethoven - The Piano Sonatas (1995) [FLAC]/Disc 8 - Sonaten Op.101 - Op.109 - Op.110 - Op.111/06 - Sonata No.30 in E major op.109 - II. Prestissimo.flac

Track gain : -0.70 dB
Peak : 0.845825
CRC32 hash (test run) : 76B31A6A
CRC32 hash : 76B31A6A
CRC32 hash (skip zero) : 58A6D156
AccurateRip v1 signature : 713B7A58 (97DD5CD3 w/correction)
AccurateRip v2 signature : 116EACDE (810F80BC w/correction)
->Accurately ripped with different offset (v1+v2, confidence 9+11/43, offset -564)
Statistics
Read error : 0
Jitter error (maybe fixed) : 0
Retry sector count : 0
Damaged sector count : 0

Track 07
Filename : /Users/dehors/Music/Wilhelm Kempff - Ludwig van Beethoven - The Piano Sonatas (1995) [FLAC]/Disc 8 - Sonaten Op.101 - Op.109 - Op.110 - Op.111/07 - Sonata No.30 in E major op.109 - III. Andante.flac

Track gain : 2.13 dB
Peak : 0.696930
CRC32 hash (test run) : 6B07851E
CRC32 hash : 6B07851E
CRC32 hash (skip zero) : 85F72539
AccurateRip v1 signature : 5377DDC5 (A052B455 w/correction)
AccurateRip v2 signature : 09A7BDE0 (7E75C792 w/correction)
->Accurately ripped with different offset (v1+v2, confidence 9+11/43, offset -564)
Statistics
Read error : 0
Jitter error (maybe fixed) : 0
Retry sector count : 0
Damaged sector count : 0

Track 08
Filename : /Users/dehors/Music/Wilhelm Kempff - Ludwig van Beethoven - The Piano Sonatas (1995) [FLAC]/Disc 8 - Sonaten Op.101 - Op.109 - Op.110 - Op.111/08 - Sonata No.31 in A flat major op.110 - I. Moderato cantabile molto espressivo.flac
Pre-gap length : 00:09:00

Track gain : 3.67 dB
Peak : 0.534607
CRC32 hash (test run) : 22A2E2C6
CRC32 hash : 22A2E2C6
CRC32 hash (skip zero) : 88639B52
AccurateRip v1 signature : 9CE304C1 (1AFC5D4D w/correction)
AccurateRip v2 signature : BCA6CEC6 (DDAC498B w/correction)
->Accurately ripped with different offset (v1+v2, confidence 9+11/43, offset -564)
Statistics
Read error : 0
Jitter error (maybe fixed) : 0
Retry sector count : 0
Damaged sector count : 0

Track 09
Filename : /Users/dehors/Music/Wilhelm Kempff - Ludwig van Beethoven - The Piano Sonatas (1995) [FLAC]/Disc 8 - Sonaten Op.101 - Op.109 - Op.110 - Op.111/09 - Sonata No.31 in A flat major op.110 - II. Allegro molto.flac

Track gain : -2.86 dB
Peak : 0.894165
CRC32 hash (test run) : FA206DB4
CRC32 hash : FA206DB4
CRC32 hash (skip zero) : 7DEEFA56
AccurateRip v1 signature : 2EADDE5F (0FFFD3A7 w/correction)
AccurateRip v2 signature : BF685F9A (ED6670E7 w/correction)
->Accurately ripped with different offset (v1+v2, confidence 9+11/43, offset -564)
Statistics
Read error : 0
Jitter error (maybe fixed) : 0
Retry sector count : 0
Damaged sector count : 0

Track 10
Filename : /Users/dehors/Music/Wilhelm Kempff - Ludwig van Beethoven - The Piano Sonatas (1995) [FLAC]/Disc 8 - Sonaten Op.101 - Op.109 - Op.110 - Op.111/10 - Sonata No.31 in A flat major op.110 - III. Adagio. Fuga. Allegro.flac

Track gain : -0.16 dB
Peak : 0.933472
CRC32 hash (test run) : 5A37C712
CRC32 hash : 5A37C712
CRC32 hash (skip zero) : CB0A0B51
AccurateRip v1 signature : 0D60AE8F (6B61A191 w/correction)
AccurateRip v2 signature : 03906E7B (748F9D0E w/correction)
->Accurately ripped with different offset (v1+v2, confidence 9+11/43, offset -564)
Statistics
Read error : 0
Jitter error (maybe fixed) : 0
Retry sector count : 0
Damaged sector count : 0

Track 11
Filename : /Users/dehors/Music/Wilhelm Kempff - Ludwig van Beethoven - The Piano Sonatas (1995) [FLAC]/Disc 8 - Sonaten Op.101 - Op.109 - Op.110 - Op.111/11 - Sonata No.32 in C minor op.111 - I. Maestoso. Allegro.flac
Pre-gap length : 00:09:00

Track gain : 0.29 dB
Peak : 0.739929
CRC32 hash (test run) : EE58C24D
CRC32 hash : EE58C24D
CRC32 hash (skip zero) : 3C16D5E2
AccurateRip v1 signature : 45597FEA (136B1D8E w/correction)
AccurateRip v2 signature : E74EE86F (81DF5921 w/correction)
->Accurately ripped with different offset (v1+v2, confidence 9+11/43, offset -564)
Statistics
Read error : 0
Jitter error (maybe fixed) : 0
Retry sector count : 0
Damaged sector count : 0

Track 12
Filename : /Users/dehors/Music/Wilhelm Kempff - Ludwig van Beethoven - The Piano Sonatas (1995) [FLAC]/Disc 8 - Sonaten Op.101 - Op.109 - Op.110 - Op.111/12 - Sonata No.32 in C minor op.111 - II. Arietta. Adagio.flac

Track gain : 3.76 dB
Peak : 0.533508
CRC32 hash (test run) : 8368FB51
CRC32 hash : 8368FB51
CRC32 hash (skip zero) : 0049BEAE
AccurateRip v1 signature : 027F7D01 (515D9870 w/correction)
AccurateRip v2 signature : 85C6B4F3 (611FDF59 w/correction)
->Accurately ripped with different offset (v1+v2, confidence 9+9/40, offset -564)
Statistics
Read error : 0
Jitter error (maybe fixed) : 0
Retry sector count : 0
Damaged sector count : 0

No errors occurred

End of status report

––-BEGIN XLD SIGNATURE––-
2sQpcEfAM5UPm8SHP1TiZUrm.qQNSbwBInrWDVj8ODZ0_oW_ofYPSTxwoukW55vJjcYz_sv5FwZVdFq8k3d1SfoqgikzHxrnSAziW0G
––-END XLD SIGNATURE––-


Thanks to the Original customer.