Tags
Language
Tags

Yndi Halda - Under Summer (2016)

Posted By:
Yndi Halda - Under Summer (2016)

Yndi Halda - Under Summer (2016)
EAC Rip | FLAC (tracks+log+.cue) | 00:57:59 | 289 Mb
Post-Rock, Progressive Rock | Label: Burnt Toast Vinyl

The British post-rock favourites return, better late than never. Yndi Halda have never been in a hurry. Born in Kent but now based in Brighton, their first and till now last release saw songs stretch into 20-minute symphonic slow-blooms with shades of Tortoise, Mono and the Erased Tapes stable, in a scene and on a label then full of frenzied math bands. That mini-album’s title also riffed on a vast, endless span of time: Enjoy Eternal Bliss read its sleeve, their band name translated from Old Norse. Neither the group nor their cult fan base, however, saw its follow-up taking a whole decade to surface.

“We listened to lots of music” is guitarist and singer James Vella’s excuse for the 10-year lull between 2006’s …Eternal Bliss and the imminent Under Summer. Well, one of them. “We watched endless films and read endless books, wrote solo albums, published fiction, underwent great personal changes and moved cities and countries.” Changes to the band line-up can’t have helped either: while Yndi spent Sunday night gearing up to the album’s March 4 release, their former bassist Brendan Grieve was suited-and-booted onstage at the Oscars, performing in Sam Smith’s backing band.

They describe it as a more “personal” record than their last, “hence the singing” says Vella. It’s certainly just as vast and ambitious as their previous, braiding big choral harmonies, classical string arrangements, Explosions In The Sky dreaminess and beneath it all, pop hooks. Some things, then, are worth not hurrying.
Tracklist:
01. Together Those Leaves (10:36)
02. Golden Threads From The Sun (14:12)
03. Helena (18:07)
04. This Very Flight (15:04)

Exact Audio Copy V1.0 beta 3 from 29. August 2011

EAC extraction logfile from 26. February 2016, 22:44

Yndi Halda / Under Summer

Used drive : HL-DT-STDVDRAM GH40N Adapter: 1 ID: 1

Read mode : Secure
Utilize accurate stream : Yes
Defeat audio cache : Yes
Make use of C2 pointers : No

Read offset correction : 667
Overread into Lead-In and Lead-Out : No
Fill up missing offset samples with silence : Yes
Delete leading and trailing silent blocks : No
Null samples used in CRC calculations : Yes
Used interface : Native Win32 interface for Win NT & 2000
Gap handling : Appended to previous track

Used output format : User Defined Encoder
Selected bitrate : 1024 kBit/s
Quality : High
Add ID3 tag : No
Command line compressor : C:\Program Files (x86)\Exact Audio Copy\Flac\flac.exe
Additional command line options : -8 -V -T "ARTIST=%artist%" -T "TITLE=%title%" -T "ALBUM=%albumtitle%" -T "DATE=%year%" -T "TRACKNUMBER=%tracknr1%" -T "GENRE=%genre%" -T "PERFORMER=%albuminterpret%" -T "COMPOSER=%composer%" %haslyrics%–tag-from-file=LYRICS="%lyricsfile%"%haslyrics% -T "ALBUMARTIST=%albumartist%" -T "DISCNUMBER=%cdnumber%" -T "TOTALDISCS=%totalcds%" -T "TOTALTRACKS=%numtracks%" -T "COMMENT=%comment%" %source% -o %dest%


TOC of the extracted CD

Track | Start | Length | Start sector | End sector
––––––––––––––––––––––––––––-
1 | 0:00.00 | 10:36.00 | 0 | 47699
2 | 10:36.00 | 14:12.00 | 47700 | 111599
3 | 24:48.00 | 18:07.00 | 111600 | 193124
4 | 42:55.00 | 15:04.00 | 193125 | 260924


Track 1

Filename F:\Up\Yndi Halda - Under Summer (FLAC)\01 Together Those Leaves.wav

Pre-gap length 0:00:02.00

Peak level 99.8 %
Extraction speed 1.2 X
Track quality 100.0 %
Test CRC CCD63148
Copy CRC CCD63148
Track not present in AccurateRip database
Copy OK

Track 2

Filename F:\Up\Yndi Halda - Under Summer (FLAC)\02 Golden Threads from the Sun.wav

Peak level 100.0 %
Extraction speed 1.6 X
Track quality 100.0 %
Test CRC B601CA6D
Copy CRC B601CA6D
Track not present in AccurateRip database
Copy OK

Track 3

Filename F:\Up\Yndi Halda - Under Summer (FLAC)\03 Helena.wav

Peak level 100.0 %
Extraction speed 1.9 X
Track quality 100.0 %
Test CRC 9556144F
Copy CRC 9556144F
Track not present in AccurateRip database
Copy OK

Track 4

Filename F:\Up\Yndi Halda - Under Summer (FLAC)\04 This Very Flight.wav

Peak level 100.0 %
Extraction speed 2.2 X
Track quality 100.0 %
Test CRC F6D2EA55
Copy CRC F6D2EA55
Track not present in AccurateRip database
Copy OK


None of the tracks are present in the AccurateRip database

No errors occurred

End of status report

==== Log checksum 47FDB77DEBE8BCB74BD8B33002C02083066E69D89E9F0CD274B9E8736BFFDD53 ====

Thanks to the Original ripper requiem73 !