Subcategories

Yoshiaki Masuo And His Group - Winds Of Barcelona (1969) {2014 Japan Jazz Collection 1000 Columbia-RCA Series SICP 4291}

Posted By: ruskaval
Yoshiaki Masuo And His Group - Winds Of Barcelona (1969) {2014 Japan Jazz Collection 1000 Columbia-RCA Series SICP 4291}

Yoshiaki Masuo And His Group - Winds Of Barcelona (1969) {2014 Japan Jazz Collection 1000 Columbia-RCA Series SICP 4291}
EAC rip (secure mode) | FLAC (image)+CUE+LOG -> 243 Mb | MP3 @320 -> 88 Mb
Full Artwork @ 300 dpi (png) -> 30 Mb | 5% repair rar
© 1969, 2014 Columbia / Sony Music Japan | SICP 4291
Jazz / Post Bop / Guitar

Reissue with the latest DSD remastering. Comes with liner notes. Guitarist Yoshiaki Masuo was only 22 years old when he recorded Winds of Barcelona, his first leader album, in 1969. He had been discovered by the Japanese jazz giant Sadao Watanabe, and had been a member of Watanabe's group for over a year. Masuo, and the fresh, new kind of jazz – sometimes referred to as "pop jazz" – was immensely popular at the time.

In Masuo's guitar sound and style, one can hear an unmistakable influence of Wes Montgomery ("One For Wes") and folk music sensibilities ("Scarborough Fair"). Masuo creates a pastel-like sound palette with his band that includes flute, Latin percussions, vibraphone and marimba. This is a fresh, creative first album of an important artist. Recorded on February 19 and May 1, 1969 in Tokyo, Japan.
Yoshiaki Masuo And His Group - Winds Of Barcelona (1969) {2014 Japan Jazz Collection 1000 Columbia-RCA Series SICP 4291}


Personnel:
Yoshiaki Masuo (guitar)
Kiyoshi Sugimoto (guitar)
Yoshio "Chin" Suzuki (bass)
Fumio Watanabe (drums)
Hideo Miyata (flute)
Kazuo Yashiro (organ,piano)
Rally Sunaga (percussion)
Nobuhiro Suzuki (marimba,vibraphone)

tracklist:
1. Winds of Barcelona
2. Scarborough Fair
3. Stoned Soul Picnic
4. One for Wes
5. I Say a Little Prayer
6. Gary's Tune
7. What the World Needs Now Is Love
8. Winds of Barcelona - Theme

Exact Audio Copy V1.1 from 23. June 2015

EAC extraction logfile from 25. July 2016, 0:35

Yoshiaki Masuo / Winds of Barcelona

Used drive : ASUS DRW-24B1LT Adapter: 5 ID: 1

Read mode : Secure
Utilize accurate stream : Yes
Defeat audio cache : Yes
Make use of C2 pointers : No

Read offset correction : 6
Overread into Lead-In and Lead-Out : No
Fill up missing offset samples with silence : Yes
Delete leading and trailing silent blocks : No
Null samples used in CRC calculations : Yes
Used interface : Installed external ASPI interface

Used output format : User Defined Encoder
Selected bitrate : 768 kBit/s
Quality : High
Add ID3 tag : No
Command line compressor : C:\Program Files\Exact Audio Copy\Flac\flac.exe
Additional command line options : -8 -V -T "ARTIST=%artist%" -T "TITLE=%title%" -T "ALBUM=%albumtitle%" -T "DATE=%year%" -T "TRACKNUMBER=%tracknr%" -T "TOTALTRACKS=%numtracks%" -T "GENRE=%genre%" -T "ALBUMARTIST=%albumartist%" -T "ALBUM ARTIST=%albumartist%" -T "COMMENT=EAC Secure Mode, Test & Copy, AccurateRip, FLAC -8" %source%


TOC of the extracted CD

Track | Start | Length | Start sector | End sector
––––––––––––––––––––––––––––-
1 | 0:00.00 | 4:12.10 | 0 | 18909
2 | 4:12.10 | 6:55.03 | 18910 | 50037
3 | 11:07.13 | 4:30.12 | 50038 | 70299
4 | 15:37.25 | 5:34.09 | 70300 | 95358
5 | 21:11.34 | 4:08.05 | 95359 | 113963
6 | 25:19.39 | 5:06.37 | 113964 | 136950
7 | 30:26.01 | 5:23.42 | 136951 | 161217
8 | 35:49.43 | 2:52.57 | 161218 | 174174


Range status and errors

Selected range

Filename F:\audio\Yoshiaki Masuo - Winds of Barcelona.wav

Peak level 100.0 %
Extraction speed 5.0 X
Range quality 99.9 %
Test CRC 3C8F5A12
Copy CRC 3C8F5A12
Copy OK

No errors occurred


AccurateRip summary

Track 1 accurately ripped (confidence 2) [7C184FA7] (AR v2)
Track 2 accurately ripped (confidence 2) [8D51849D] (AR v2)
Track 3 accurately ripped (confidence 2) [21E634E4] (AR v2)
Track 4 accurately ripped (confidence 2) [D31175CC] (AR v2)
Track 5 accurately ripped (confidence 2) [4CAF8140] (AR v2)
Track 6 accurately ripped (confidence 2) [B98B241F] (AR v2)
Track 7 accurately ripped (confidence 2) [F0CF093D] (AR v2)
Track 8 accurately ripped (confidence 2) [E9FCBCD3] (AR v2)

All tracks accurately ripped

End of status report

–– CUETools DB Plugin V2.1.6

[CTDB TOCID: lqzj4uC2saHvndOoBjCxSKiqJKw-] found
Submit result: already submitted
Track | CTDB Status
1 | (3/3) Accurately ripped
2 | (3/3) Accurately ripped
3 | (3/3) Accurately ripped
4 | (3/3) Accurately ripped
5 | (3/3) Accurately ripped
6 | (3/3) Accurately ripped
7 | (3/3) Accurately ripped
8 | (3/3) Accurately ripped


==== Log checksum 6DB086C892CECE13E73423623B1F11F4F53855FCC6B5D68C476D2504A9844479 ====


Yoshiaki Masuo And His Group - Winds Of Barcelona (1969) {2014 Japan Jazz Collection 1000 Columbia-RCA Series SICP 4291}

Yoshiaki Masuo And His Group - Winds Of Barcelona (1969) {2014 Japan Jazz Collection 1000 Columbia-RCA Series SICP 4291}


see more Japan Jazz Collection 1000 Columbia-RCA Series…


===