Tags
Language
Tags
June 2024
Su Mo Tu We Th Fr Sa
26 27 28 29 30 31 1
2 3 4 5 6 7 8
9 10 11 12 13 14 15
16 17 18 19 20 21 22
23 24 25 26 27 28 29
30 1 2 3 4 5 6

Youn Sun Nah - Immersion (2019)

Posted By: delpotro
Youn Sun Nah - Immersion (2019)

Youn Sun Nah - Immersion (2019)
EAC Rip | FLAC (tracks+log+.cue) | 00:44:18 | 244 Mb
Vocal Jazz | Label: Arts Music

The magical voice from South Korea: With the album IMMERSION the Korean singer YOUN SUN NAH breaks new ground and combines the intensity of the vocals with the expressive power of jazz, rock, folk and the claim of great songs.

MMERSION is a stylistically diverse album, an immersion into many worlds, from the ASTURIAS Andalusian Classics to the Motown carefree YOU CAN NOT HURRY LOVE and the thoughtfulness of MARVIN GAYE's MERCY MERCY ME to LEONARD COHEN's profound pathos in HALLELUJAH. Only YOUN SUN NAH changes the templates so sustainably that the songs not only tell new stories far away from the original versions, but also turn into their own mysteries. Here comes a voice that captivates when listening. A personality who carries her mixture of seriousness and empathy into the music without becoming grave. A phenomenon that the producer and pianist Clément Ducol (Camille, melody Gardot) or even musicians like the drummer and cellist Pierre-François Dufour help to create a fitting, reduced as well as pointed sound.
Tracklist:
01. In My Heart (02:53)
02. The Wonder (03:05)
03. Isn't It a Pity (03:38)
04. Here Today (03:41)
05. Mystic River (02:47)
06. Sans toi (03:00)
07. Mercy Mercy Me (The Ecology) (03:22)
08. God's Gonna Cut You Down (02:58)
09. You Can't Hurry Love (03:57)
10. Asturias (03:28)
11. I'm Alright (01:45)
12. Invincible (03:35)
13. Hallelujah (06:02)

Exact Audio Copy V1.3 from 2. September 2016

EAC extraction logfile from 24. September 2019, 14:59

Youn Sun Nah / Immersion

Used drive : ATAPI iHBS112 2 Adapter: 1 ID: 1

Read mode : Secure
Utilize accurate stream : Yes
Defeat audio cache : Yes
Make use of C2 pointers : No

Read offset correction : 6
Overread into Lead-In and Lead-Out : No
Fill up missing offset samples with silence : Yes
Delete leading and trailing silent blocks : No
Null samples used in CRC calculations : Yes
Used interface : Native Win32 interface for Win NT & 2000
Gap handling : Appended to previous track

Used output format : User Defined Encoder
Selected bitrate : 768 kBit/s
Quality : High
Add ID3 tag : No
Command line compressor : C:\Program Files (x86)\Exact Audio Copy\Flac\flac.exe
Additional command line options : -8 -V -T "ARTIST=%artist%" -T "TITLE=%title%" -T "ALBUM=%albumtitle%" -T "DATE=%year%" -T "TRACKNUMBER=%tracknr%" -T "GENRE=%genre%" -T "PERFORMER=%albuminterpret%" -T "COMPOSER=%composer%" -T "ALBUMARTIST=%albumartist%" -T "DISCNUMBER=%cdnumber%" -T "TOTALDISCS=%totalcds%" -T "TOTALTRACKS=%numtracks%" -T "COMMENT=EAC Secure Mode, Test & Copy, AccurateRip, FLAC -8" %source% -o %dest%


TOC of the extracted CD

Track | Start | Length | Start sector | End sector
––––––––––––––––––––––––––––-
1 | 0:00.00 | 2:53.19 | 0 | 12993
2 | 2:53.19 | 3:05.37 | 12994 | 26905
3 | 5:58.56 | 3:38.01 | 26906 | 43256
4 | 9:36.57 | 3:41.49 | 43257 | 59880
5 | 13:18.31 | 2:47.58 | 59881 | 72463
6 | 16:06.14 | 3:00.65 | 72464 | 86028
7 | 19:07.04 | 3:22.67 | 86029 | 101245
8 | 22:29.71 | 2:58.36 | 101246 | 114631
9 | 25:28.32 | 3:57.29 | 114632 | 132435
10 | 29:25.61 | 3:28.50 | 132436 | 148085
11 | 32:54.36 | 1:45.47 | 148086 | 156007
12 | 34:40.08 | 3:35.73 | 156008 | 172205
13 | 38:16.06 | 6:02.36 | 172206 | 199391


Track 1

Filename G:\DL\Youn Sun Nah - Immersion (2019) [FLAC]\01 - In My Heart.wav

Pre-gap length 0:00:02.00

Peak level 100.0 %
Extraction speed 1.3 X
Track quality 99.9 %
Test CRC 1FFF47AF
Copy CRC 1FFF47AF
Accurately ripped (confidence 20) [F604AAE8] (AR v2)
Copy OK

Track 2

Filename G:\DL\Youn Sun Nah - Immersion (2019) [FLAC]\02 - The Wonder.wav

Pre-gap length 0:00:02.46

Peak level 100.0 %
Extraction speed 2.0 X
Track quality 100.0 %
Test CRC B6238C74
Copy CRC B6238C74
Accurately ripped (confidence 20) [F3821C74] (AR v2)
Copy OK

Track 3

Filename G:\DL\Youn Sun Nah - Immersion (2019) [FLAC]\03 - Isn't It A Pity.wav

Pre-gap length 0:00:02.47

Peak level 100.0 %
Extraction speed 2.3 X
Track quality 100.0 %
Test CRC B5BD89D3
Copy CRC B5BD89D3
Accurately ripped (confidence 20) [4E2DBC80] (AR v2)
Copy OK

Track 4

Filename G:\DL\Youn Sun Nah - Immersion (2019) [FLAC]\04 - Here Today.wav

Pre-gap length 0:00:00.73

Peak level 100.0 %
Extraction speed 2.4 X
Track quality 100.0 %
Test CRC 909EBADB
Copy CRC 909EBADB
Accurately ripped (confidence 20) [E3D606B0] (AR v2)
Copy OK

Track 5

Filename G:\DL\Youn Sun Nah - Immersion (2019) [FLAC]\05 - Mystic River.wav

Pre-gap length 0:00:02.12

Peak level 100.0 %
Extraction speed 2.5 X
Track quality 100.0 %
Test CRC 4FD5E682
Copy CRC 4FD5E682
Accurately ripped (confidence 20) [D44FB9EC] (AR v2)
Copy OK

Track 6

Filename G:\DL\Youn Sun Nah - Immersion (2019) [FLAC]\06 - Sans Toi.wav

Pre-gap length 0:00:01.65

Peak level 100.0 %
Extraction speed 2.6 X
Track quality 100.0 %
Test CRC E23D3A76
Copy CRC E23D3A76
Accurately ripped (confidence 20) [ED762940] (AR v2)
Copy OK

Track 7

Filename G:\DL\Youn Sun Nah - Immersion (2019) [FLAC]\07 - Mercy Mercy Mercy Me.wav

Pre-gap length 0:00:02.48

Peak level 99.8 %
Extraction speed 2.8 X
Track quality 100.0 %
Test CRC 51EA032D
Copy CRC 51EA032D
Accurately ripped (confidence 20) [19163E5C] (AR v2)
Copy OK

Track 8

Filename G:\DL\Youn Sun Nah - Immersion (2019) [FLAC]\08 - God's Gonna Cut You Down.wav

Pre-gap length 0:00:01.15

Peak level 100.0 %
Extraction speed 2.9 X
Track quality 100.0 %
Test CRC CA00885C
Copy CRC CA00885C
Accurately ripped (confidence 20) [28C75CD5] (AR v2)
Copy OK

Track 9

Filename G:\DL\Youn Sun Nah - Immersion (2019) [FLAC]\09 - You Can't Hurry Love.wav

Pre-gap length 0:00:03.36

Peak level 94.7 %
Extraction speed 2.3 X
Track quality 99.9 %
Test CRC A2D22D26
Copy CRC A2D22D26
Accurately ripped (confidence 20) [7E27D8F5] (AR v2)
Copy OK

Track 10

Filename G:\DL\Youn Sun Nah - Immersion (2019) [FLAC]\10 - Asturias.wav

Pre-gap length 0:00:01.59

Peak level 100.0 %
Extraction speed 3.2 X
Track quality 100.0 %
Test CRC 6C787476
Copy CRC 6C787476
Accurately ripped (confidence 20) [04A4168F] (AR v2)
Copy OK

Track 11

Filename G:\DL\Youn Sun Nah - Immersion (2019) [FLAC]\11 - I'm Alright.wav

Pre-gap length 0:00:00.32

Peak level 87.0 %
Extraction speed 2.8 X
Track quality 100.0 %
Test CRC 2204F2BA
Copy CRC 2204F2BA
Accurately ripped (confidence 20) [104EA9CE] (AR v2)
Copy OK

Track 12

Filename G:\DL\Youn Sun Nah - Immersion (2019) [FLAC]\12 - Invincible.wav

Pre-gap length 0:00:02.59

Peak level 100.0 %
Extraction speed 3.4 X
Track quality 100.0 %
Test CRC E1DD8FE4
Copy CRC E1DD8FE4
Accurately ripped (confidence 20) [347CA1CC] (AR v2)
Copy OK

Track 13

Filename G:\DL\Youn Sun Nah - Immersion (2019) [FLAC]\13 - Hallelujah.wav

Pre-gap length 0:00:00.21

Peak level 100.0 %
Extraction speed 3.7 X
Track quality 100.0 %
Test CRC 535B9F3C
Copy CRC 535B9F3C
Accurately ripped (confidence 20) [4650563D] (AR v2)
Copy OK


All tracks accurately ripped

No errors occurred

End of status report

–– CUETools DB Plugin V2.1.6

[CTDB TOCID: NVbTVJiz3hkvxOY9YWXjdY2f_nI-] found
Submit result: NVbTVJiz3hkvxOY9YWXjdY2f_nI- has been confirmed
Track | CTDB Status
1 | (134/135) Accurately ripped
2 | (135/135) Accurately ripped
3 | (135/135) Accurately ripped
4 | (125/135) Accurately ripped, or (10/135) differs in 1 samples @01:40:35
5 | (135/135) Accurately ripped
6 | (135/135) Accurately ripped
7 | (135/135) Accurately ripped
8 | (135/135) Accurately ripped
9 | (135/135) Accurately ripped
10 | (135/135) Accurately ripped
11 | (134/135) Accurately ripped
12 | (135/135) Accurately ripped
13 | (135/135) Accurately ripped


==== Log checksum 63959E20BB4972F7E2AA328D3CB3E5D4A459F65BD828864BFA29D7C60B4ED254 ====

Thanks to the Original ripper dtromp !