Subcategories

Yeah Yeah Yeahs - Show Your Bones (2006)

Posted By: maxpyzio
Yeah Yeah Yeahs - Show Your Bones (2006)

Yeah Yeah Yeahs - Show Your Bones (2006)
FLAC/MP3 CBR 320 Kbps | 282MB/92 MB | covers | log, cue | EAC Rip

Show Your Bones is the second full-length album by new New York indie rock band Yeah Yeah Yeahs. It was released on March 27, 2006 (March 28, 2006 in North America) and nominated for a 2007 Grammy Award for "Best Alternative Music Album"
Exact Audio Copy V0.99 prebeta 3 from 28. July 2007

EAC extraction logfile from 14. February 2009, 5:29

Yeah Yeah Yeahs / Show Your Bones

Used drive : TSSTcorpCD/DVDW TS-L632D Adapter: 1 ID: 0

Read mode : Secure
Utilize accurate stream : Yes
Defeat audio cache : No
Make use of C2 pointers : Yes

Read offset correction : 6
Overread into Lead-In and Lead-Out : No
Fill up missing offset samples with silence : Yes
Delete leading and trailing silent blocks : No
Null samples used in CRC calculations : No
Used interface : Native Win32 interface for Win NT & 2000
Gap handling : Appended to previous track

Used output format : User Defined Encoder
Selected bitrate : 1024 kBit/s
Quality : High
Add ID3 tag : No
Command line compressor : D:\Exact Audio Copy\FLAC\FLAC.EXE
Additional command line options : -6 -V -T "ARTIST=%a" -T "TITLE=%t" -T "ALBUM=%g" -T "DATE=%y" -T "TRACKNUMBER=%n" -T "GENRE=%m" -T "COMMENT=%e" %s -o %d


TOC of the extracted CD

Track | Start | Length | Start sector | End sector
––––––––––––––––––––––––––––-
1 | 0:00.00 | 3:07.10 | 0 | 14034
2 | 3:07.10 | 2:51.32 | 14035 | 26891
3 | 5:58.42 | 4:24.65 | 26892 | 46756
4 | 10:23.32 | 4:10.10 | 46757 | 65516
5 | 14:33.42 | 2:25.50 | 65517 | 76441
6 | 16:59.17 | 3:58.03 | 76442 | 94294
7 | 20:57.20 | 3:41.72 | 94295 | 110941
8 | 24:39.17 | 2:35.53 | 110942 | 122619
9 | 27:14.70 | 3:55.02 | 122620 | 140246
10 | 31:09.72 | 3:42.35 | 140247 | 156931
11 | 34:52.32 | 4:05.48 | 156932 | 175354


Track 1

Filename E:\Download\Storage\Yeah Yeah Yeahs - Show Your Bones [2006] - FLAC - modotox\01 - Gold Lion.wav

Pre-gap length 0:00:02.00

Peak level 99.9 %
Track quality 100.0 %
Copy CRC B40BBF82
Accurately ripped (confidence 25) [1E483DDF]
Copy OK

Track 2

Filename E:\Download\Storage\Yeah Yeah Yeahs - Show Your Bones [2006] - FLAC - modotox\02 - Way Out.wav

Peak level 99.9 %
Track quality 100.0 %
Copy CRC FC8E0710
Accurately ripped (confidence 23) [3B48E2F1]
Copy OK

Track 3

Filename E:\Download\Storage\Yeah Yeah Yeahs - Show Your Bones [2006] - FLAC - modotox\03 - Fancy.wav

Peak level 99.9 %
Track quality 99.9 %
Copy CRC B6FE67E1
Accurately ripped (confidence 24) [C54F1777]
Copy OK

Track 4

Filename E:\Download\Storage\Yeah Yeah Yeahs - Show Your Bones [2006] - FLAC - modotox\04 - Phenomena.wav

Peak level 99.9 %
Track quality 100.0 %
Copy CRC 02851E34
Accurately ripped (confidence 24) [B21EB1BD]
Copy OK

Track 5

Filename E:\Download\Storage\Yeah Yeah Yeahs - Show Your Bones [2006] - FLAC - modotox\05 - Honeybear.wav

Peak level 99.9 %
Track quality 99.8 %
Copy CRC 17A14878
Accurately ripped (confidence 25) [602D1D9D]
Copy OK

Track 6

Filename E:\Download\Storage\Yeah Yeah Yeahs - Show Your Bones [2006] - FLAC - modotox\06 - Cheated Hearts.wav

Peak level 99.9 %
Track quality 100.0 %
Copy CRC E67BC3F3
Accurately ripped (confidence 24) [AF6E3369]
Copy OK

Track 7

Filename E:\Download\Storage\Yeah Yeah Yeahs - Show Your Bones [2006] - FLAC - modotox\07 - Dudley.wav

Peak level 99.9 %
Track quality 100.0 %
Copy CRC A2C5ED5D
Accurately ripped (confidence 25) [AFBF47D4]
Copy OK

Track 8

Filename E:\Download\Storage\Yeah Yeah Yeahs - Show Your Bones [2006] - FLAC - modotox\08 - Mysteries.wav

Peak level 99.9 %
Track quality 100.0 %
Copy CRC 88382956
Accurately ripped (confidence 25) [9F7B1933]
Copy OK

Track 9

Filename E:\Download\Storage\Yeah Yeah Yeahs - Show Your Bones [2006] - FLAC - modotox\09 - The Sweets.wav

Pre-gap length 0:00:00.01

Peak level 99.9 %
Track quality 100.0 %
Copy CRC 248FF6DD
Accurately ripped (confidence 25) [C364070A]
Copy OK

Track 10

Filename E:\Download\Storage\Yeah Yeah Yeahs - Show Your Bones [2006] - FLAC - modotox\10 - Warrior.wav

Peak level 99.9 %
Track quality 99.9 %
Copy CRC 4D09BFDC
Accurately ripped (confidence 25) [55EA5D21]
Copy OK

Track 11

Filename E:\Download\Storage\Yeah Yeah Yeahs - Show Your Bones [2006] - FLAC - modotox\11 - Turn Into.wav

Pre-gap length 0:00:01.31

Peak level 99.9 %
Track quality 100.0 %
Copy CRC 3BF33100
Accurately ripped (confidence 24) [A8136FDD]
Copy OK


All tracks accurately ripped

No errors occurred

End of status report

Tracklisting:
01 - Gold Lion
02 - Way Out
03 - Fancy
04 - Phenomena
05 - Honeybear
06 - Cheated Hearts
07 - Dudley
08 - Mysteries
09 - The Sweets
10 - Warrior
11 - Turn Into

Download:
HF | FF