Subcategories
Please register here if you want to download anything!

If domain in your address bar is different from the list below
PLEASE LEAVE THAT SITE IMMEDIATELY
❗IT'S A DANGEROUS FAKE❗



Spicy Magazines for Men! ;-)

Zachary Richard - Gombo (2017)

Posted By: Domestos
Zachary Richard - Gombo (2017)

Zachary Richard - Gombo (2017)
EAC Rip | FLAC (tracks+.cue, log) ~ 384.96 Mb | 59:32 | Cover
Blues, Louisiana Blues, Cajun, Zydeco | Country: USA | Label: RZ Records - RZ2017-1

Gombo (Gumbo) is the most typical Louisiana dish. Comprised of a host of ingredients and derived from many traditions, gombo is the product of and a symbol for the multi-ethnic culture of Louisiana. Gombo is Zachary Richard's 21st studio album in a career spanning 45 years. The songs run the gamut from the festive Louisiana influenced Zydeco Jump / Dans les grands chemins / Catherine, Catherine / Pop the Gator to the more reflective La ballade de l'exlcu / Au bal du Bataclan. A passionate student of Louisiana history, Zachary's songs are inspired by the often difficult and ever compelling history of the Bayou State : Manchac / Jena Blues. Devoted to the survival of the French language culture of North America, Zachary pays tribute to far flung French communities : La ballade du Irving Whale (Les Îles de la Madeleine) La ballade d'Émile Benoît (Newfoundland) La Saskatchewan (Saskatchewan). There are love songs: Sweet little darling of mine / Somebody calling and a song which examines the nature of romantic love : It might be love. There are two remarkable duets : Catherine, Catherine, written and performed with the remarkable Québec singer Robert Charlebois and the magnificent anthem of hope Fais briller ta lumière, performed with African super-star Angélique Kidjo.

Co-produced by New Orleans legend David Toraknowsky, Gombo features a host of fantastic musicians including guitarists Roddie Romero, Shane Theriot and Rick Haworth and the one and only Francis Covan on fiddle and accordion. A tribute to the multi-ethnic culture of Louisiana, Gombo is an emotional voyage into the passionate universe of one of North America's most brilliant songwriters.



Track List:
01. Zachary Richard - Zydeco Jump
02. Zachary Richard - La ballade d'Emile Benoit
03. Zachary Richard - La ballade du Irving Whale
04. Zachary Richard - Jena Blues
05. Zachary Richard Feat. Robert Charlebois - Catherine, Catherine
06. Zachary Richard - Manchac
07. Zachary Richard - La ballade de l'éxclus
08. Zachary Richard - Au bal du Bataclan
09. Zachary Richard - Dans les grands chemins
10. Zachary Richard - Pop the Gator
11. Zachary Richard - It might be love
12. Zachary Richard - Sweet little darling of mine
13. Zachary Richard - Somebody calling
14. Zachary Richard Feat. Angélique Kidjo - Fais briller ta lumière
15. Zachary Richard - La Saskatchewan

Accordion – Bernard Félix
Artwork [Cover Art] – Francis X. Pavy
Bass – Graham Robinson
Cello – Helen Gillet
Choir – Choeur de L'Académie Sainte-Thérèse
Design [Graphisme] – Scott Long (4)
Drum – Justin Allard
Executive-Producer – Christian Michaud, Claude Thomas (2), Marie-Josée Tremblay, Martin Valois, Tommy Delhomme
Guitar, Accordion – Roddie Romero
Guitar, Backing Vocals – Jeff Smallwood
Guitar, Lap Steel Guitar, Mandolin, Harmonica – Rick Haworth
Guitar, Omnichord – Shane Theriot
Mastered By – Brent Lambert
Mixed By – Tony Daigle
Photography By – Michel Varisco
Piano, Organ [Hammond B-3], Electric Piano [Wurlitzer] – David Torkanowsky
Producer – Dave Torkanowsky, Zachary Richard
Product Manager [Conseiller à la production] – Éric Lemieux
Recorded By – Nicolas Petrovski
Viola – Amelia Clingman
Violin – Harry Hardin, Kate Withrow
Violin, Accordion – Francis Covan

Exact Audio Copy V1.3 from 2. September 2016

EAC extraction logfile from 4. December 2017, 8:54

Zachary Richard / Gombo

Used drive : ATAPI DVD A DH16AAL Adapter: 1 ID: 0

Read mode : Secure
Utilize accurate stream : Yes
Defeat audio cache : Yes
Make use of C2 pointers : No

Read offset correction : 6
Overread into Lead-In and Lead-Out : No
Fill up missing offset samples with silence : Yes
Delete leading and trailing silent blocks : No
Null samples used in CRC calculations : Yes
Used interface : Native Win32 interface for Win NT & 2000
Gap handling : Appended to previous track

Used output format : User Defined Encoder
Selected bitrate : 1024 kBit/s
Quality : High
Add ID3 tag : No
Command line compressor : C:\Program Files (x86)\Exact Audio Copy\Flac\flac.exe
Additional command line options : -8 -e -p -V -T "ARTIST=%artist%" -T "TITLE=%title%" -T "ALBUM=%albumtitle%" -T "DATE=%year%" -T "TRACKNUMBER=%tracknr%" -T "GENRE=%genre%" -T "PERFORMER=%albuminterpret%" -T "COMPOSER=%composer%" %haslyrics%–tag-from-file=LYRICS="%lyricsfile%"%haslyrics% -T "ALBUMARTIST=%albumartist%" -T "DISCNUMBER=%cdnumber%" -T "TOTALDISCS=%totalcds%" -T "TOTALTRACKS=%numtracks%" -T "COMMENT=%comment%" %source% -o %dest%


TOC of the extracted CD

Track | Start | Length | Start sector | End sector
––––––––––––––––––––––––––––-
1 | 0:00.00 | 2:51.11 | 0 | 12835
2 | 2:51.11 | 3:29.09 | 12836 | 28519
3 | 6:20.20 | 4:45.10 | 28520 | 49904
4 | 11:05.30 | 4:05.65 | 49905 | 68344
5 | 15:11.20 | 3:30.02 | 68345 | 84096
6 | 18:41.22 | 4:05.01 | 84097 | 102472
7 | 22:46.23 | 5:23.54 | 102473 | 126751
8 | 28:10.02 | 4:15.02 | 126752 | 145878
9 | 32:25.04 | 3:23.15 | 145879 | 161118
10 | 35:48.19 | 3:46.02 | 161119 | 178070
11 | 39:34.21 | 4:04.57 | 178071 | 196427
12 | 43:39.03 | 4:31.37 | 196428 | 216789
13 | 48:10.40 | 3:04.32 | 216790 | 230621
14 | 51:14.72 | 4:03.03 | 230622 | 248849
15 | 55:18.00 | 4:14.70 | 248850 | 267969


Track 1

Filename C:\Zelou\EAC Rips\Zachary Richard - Gombo (2017) [FLAC] {RZ2017-1}\01 - Zachary Richard - Zydeco Jump.wav

Pre-gap length 0:00:02.00

Peak level 98.4 %
Extraction speed 1.6 X
Track quality 100.0 %
Test CRC EDF28340
Copy CRC EDF28340
Track not present in AccurateRip database
Copy OK

Track 2

Filename C:\Zelou\EAC Rips\Zachary Richard - Gombo (2017) [FLAC] {RZ2017-1}\02 - Zachary Richard - La ballade d'Emile Benoit.wav

Peak level 100.0 %
Extraction speed 1.3 X
Track quality 99.9 %
Test CRC 5D2DE8D4
Copy CRC 5D2DE8D4
Track not present in AccurateRip database
Copy OK

Track 3

Filename C:\Zelou\EAC Rips\Zachary Richard - Gombo (2017) [FLAC] {RZ2017-1}\03 - Zachary Richard - La ballade du Irving Whale.wav

Peak level 98.4 %
Extraction speed 2.2 X
Track quality 100.0 %
Test CRC CE3866FF
Copy CRC CE3866FF
Track not present in AccurateRip database
Copy OK

Track 4

Filename C:\Zelou\EAC Rips\Zachary Richard - Gombo (2017) [FLAC] {RZ2017-1}\04 - Zachary Richard - Jena Blues.wav

Peak level 98.3 %
Extraction speed 2.3 X
Track quality 100.0 %
Test CRC 5B604776
Copy CRC 5B604776
Track not present in AccurateRip database
Copy OK

Track 5

Filename C:\Zelou\EAC Rips\Zachary Richard - Gombo (2017) [FLAC] {RZ2017-1}\05 - Zachary Richard Feat. Robert Charlebois - Catherine, Catherine.wav

Peak level 100.0 %
Extraction speed 2.4 X
Track quality 100.0 %
Test CRC 5D6CD9D1
Copy CRC 5D6CD9D1
Track not present in AccurateRip database
Copy OK

Track 6

Filename C:\Zelou\EAC Rips\Zachary Richard - Gombo (2017) [FLAC] {RZ2017-1}\06 - Zachary Richard - Manchac.wav

Peak level 100.0 %
Extraction speed 1.9 X
Track quality 99.9 %
Test CRC B09FFBEE
Copy CRC B09FFBEE
Track not present in AccurateRip database
Copy OK

Track 7

Filename C:\Zelou\EAC Rips\Zachary Richard - Gombo (2017) [FLAC] {RZ2017-1}\07 - Zachary Richard - La ballade de l'éxclus.wav

Peak level 100.0 %
Extraction speed 2.2 X
Track quality 99.9 %
Test CRC 3E509B67
Copy CRC 3E509B67
Track not present in AccurateRip database
Copy OK

Track 8

Filename C:\Zelou\EAC Rips\Zachary Richard - Gombo (2017) [FLAC] {RZ2017-1}\08 - Zachary Richard - Au bal du Bataclan.wav

Peak level 97.6 %
Extraction speed 2.9 X
Track quality 100.0 %
Test CRC 02517C75
Copy CRC 02517C75
Track not present in AccurateRip database
Copy OK

Track 9

Filename C:\Zelou\EAC Rips\Zachary Richard - Gombo (2017) [FLAC] {RZ2017-1}\09 - Zachary Richard - Dans les grands chemins.wav

Peak level 98.6 %
Extraction speed 2.0 X
Track quality 99.9 %
Test CRC 0D05882D
Copy CRC 0D05882D
Track not present in AccurateRip database
Copy OK

Track 10

Filename C:\Zelou\EAC Rips\Zachary Richard - Gombo (2017) [FLAC] {RZ2017-1}\10 - Zachary Richard - Pop the Gator.wav

Peak level 100.0 %
Extraction speed 3.1 X
Track quality 100.0 %
Test CRC 6B6946FB
Copy CRC 6B6946FB
Track not present in AccurateRip database
Copy OK

Track 11

Filename C:\Zelou\EAC Rips\Zachary Richard - Gombo (2017) [FLAC] {RZ2017-1}\11 - Zachary Richard - It might be love.wav

Peak level 98.9 %
Extraction speed 3.3 X
Track quality 100.0 %
Test CRC 1072AC9F
Copy CRC 1072AC9F
Track not present in AccurateRip database
Copy OK

Track 12

Filename C:\Zelou\EAC Rips\Zachary Richard - Gombo (2017) [FLAC] {RZ2017-1}\12 - Zachary Richard - Sweet little darling of mine.wav

Peak level 97.4 %
Extraction speed 3.4 X
Track quality 100.0 %
Test CRC CB6AD248
Copy CRC CB6AD248
Track not present in AccurateRip database
Copy OK

Track 13

Filename C:\Zelou\EAC Rips\Zachary Richard - Gombo (2017) [FLAC] {RZ2017-1}\13 - Zachary Richard - Somebody calling.wav

Peak level 99.0 %
Extraction speed 3.3 X
Track quality 100.0 %
Test CRC A8BE5ABF
Copy CRC A8BE5ABF
Track not present in AccurateRip database
Copy OK

Track 14

Filename C:\Zelou\EAC Rips\Zachary Richard - Gombo (2017) [FLAC] {RZ2017-1}\14 - Zachary Richard Feat. Angélique Kidjo - Fais briller ta lumière.wav

Peak level 97.4 %
Extraction speed 2.6 X
Track quality 99.9 %
Test CRC 22F0A124
Copy CRC 22F0A124
Track not present in AccurateRip database
Copy OK

Track 15

Filename C:\Zelou\EAC Rips\Zachary Richard - Gombo (2017) [FLAC] {RZ2017-1}\15 - Zachary Richard - La Saskatchewan.wav

Pre-gap length 0:00:20.21

Peak level 98.5 %
Extraction speed 3.7 X
Track quality 100.0 %
Test CRC 2609A4C0
Copy CRC 2609A4C0
Track not present in AccurateRip database
Copy OK


None of the tracks are present in the AccurateRip database

No errors occurred

End of status report

–– CUETools DB Plugin V2.1.6

[CTDB TOCID: df.axej8HvkZMowBFDUZHYcM2X8-] found
Submit result: df.axej8HvkZMowBFDUZHYcM2X8- has been confirmed
Track | CTDB Status
1 | (1/1) Accurately ripped
2 | (1/1) Accurately ripped
3 | (1/1) Accurately ripped
4 | (1/1) Accurately ripped
5 | (1/1) Accurately ripped
6 | (1/1) Accurately ripped
7 | (1/1) Accurately ripped
8 | (1/1) Accurately ripped
9 | (1/1) Accurately ripped
10 | (1/1) Accurately ripped
11 | (1/1) Accurately ripped
12 | (1/1) Accurately ripped
13 | (1/1) Accurately ripped
14 | (1/1) Accurately ripped
15 | (1/1) Accurately ripped


==== Log checksum 9E61D53F4F4BF187A55DAA35569D1722A509E938E16C4005589B68FE5296F6EC ====

All thanks go to the Original ripper (unknown)

More Music in My Blog
Follow My RSS Channel